Subcategories

Anton Batagov - Johann Sebastian Bach: Die Kunst der Fuge (1993) 2CDs

Posted By: Designol
Anton Batagov - Johann Sebastian Bach: Die Kunst der Fuge (1993) 2CDs

Anton Batagov - Johann Sebastian Bach: Die Kunst der Fuge (1993) 2CDs
EAC | FLAC | Image (Cue&Log) ~ 462 Mb | Mp3 (CBR320) ~ 346 Mb | Scans included
Genre: Classical | Label: SoLid Records | # SLR 0001/2 | Time: 02:28:01

The Russian composer, pianist and electronic musician, Anton Batagov, graduated from the Gnessin School and the Moscow Tchaikovsky Conservatory. He was prize-winner at the International Tchaikovsky Competition (1986) and other competitions.

Anton Batagov introduced the music by John Cage, Morton Feldman, Steve Reich, and Philip Glass to Russian audiences. His discographical debut was a recording of Olivier Messiaen's Vingt regards sur l'Enfant Jesus for Melodiya. From 1989 to 1996 he was one of the leaders and organizers of the Alternativa, the annual international new music festival in Moscow.

Heralded as “one of the most significant and unusual figures of Russian contemporary music” (Newsweek, Russian edition, 1997) and "a Russian Terry Riley" (Mark Swed, Los Angeles Times, 2008), Anton Batagov is one of the most influential Russian composers and performers of our time. The post-Cagean philosophy of Batagov's projects eliminates any boundaries between "performance" and "composition" by viewing all existing musical practices - from ancient rituals to rock and pop culture and advanced computer technologies - as potential elements of performance and composition. The well-known American musicologist Richard Kostelanetz characterized Batagov's 1993 piano recording of J.S. Bach’s The Art of the Fugue (BWV 1080) as "the most stunning interpretation of Bach since Glenn Gould."

The post-minimalist language of Batagov’s compositions is rooted in the harmonic and rhythmic patterns of Russian church bells, Old Believer chants, and folk songs seamlessly mixed with the spirit of Western minimalism, the dynamic pulse of the early Soviet avant-garde, and the unfading scent of rock music. His works feature a unique sense of large-scale architecture and textured emotionalism.

Anton Batagov - Johann Sebastian Bach: Die Kunst der Fuge (1993) 2CDs



Anton Batagov - Johann Sebastian Bach: Die Kunst der Fuge (1993) 2CDs



Tracklist:

CD1:

01. Contrapunctus 1 (5:20)
02. Contrapunctus 2 (5:44)
03. Contrapunctus 3 (4:56)
04. Contrapunctus 4 (9:20)
05. Contrapunctus 5 (6:08)
06. Contrapunctus 6 a 4 in Stylo Francese (5:28)
07. Contrapunctus 7 a 4 per Augmentationem et Diminutionem (4:14)
08. Contrapunctus 8 a 3 (12:35)
09. Contrapunctus 9 a 4 alla Duodecima (8:47)
10. Canon per Augmentationem in Contrario Motu (7:23)
11. Canon alla Ottava (4:34)

CD2:

01. Canone 3 alla decima in countepunto alla terza (5:44)
02. Canone 4 alla duodecima in contrapunto alla quinta (9:49)
03. Contrapunctus 10 (8:04)
04. Contrapunctus 11 (12:23)
05. Contrapunctus 12 (5:42)
06. Contrapunctus 12 inversus (5:45)
07. Contrapunctus 13 (4:56)
08. Contrapunctus 13 inversus (4:59)
09. Fuga a tre soggetti (16:13)


Exact Audio Copy V1.0 beta 4 from 7. December 2014

EAC extraction logfile from 4. May 2017, 22:52

Johann Sebastian Bach / Die Kunst der Fuge (CD1)

Used drive : TSSTcorpDVDWBD TS-LB23A Adapter: 1 ID: 0

Read mode : Secure
Utilize accurate stream : Yes
Defeat audio cache : Yes
Make use of C2 pointers : No

Read offset correction : 6
Overread into Lead-In and Lead-Out : No
Fill up missing offset samples with silence : Yes
Delete leading and trailing silent blocks : No
Null samples used in CRC calculations : Yes
Used interface : Native Win32 interface for Win NT & 2000

Used output format : User Defined Encoder
Selected bitrate : 128 kBit/s
Quality : High
Add ID3 tag : Yes
Command line compressor : C:\Program Files (x86)\Exact Audio Copy\Flac\flac.exe
Additional command line options : -T "COMMENT=Ripped by GFox" -V -8 %source%


TOC of the extracted CD

Track | Start | Length | Start sector | End sector
––––––––––––––––––––––––––––-
1 | 0:00.23 | 5:19.62 | 23 | 24009
2 | 5:20.10 | 5:43.65 | 24010 | 49799
3 | 11:04.00 | 4:55.68 | 49800 | 71992
4 | 15:59.68 | 9:19.50 | 71993 | 113967
5 | 25:19.43 | 6:07.62 | 113968 | 141554
6 | 31:27.30 | 5:27.68 | 141555 | 166147
7 | 36:55.23 | 4:13.57 | 166148 | 185179
8 | 41:09.05 | 12:34.50 | 185180 | 241779
9 | 53:43.55 | 8:46.55 | 241780 | 281284
10 | 62:30.35 | 7:23.23 | 281285 | 314532
11 | 69:53.58 | 4:34.00 | 314533 | 335082


Range status and errors

Selected range

Filename D:\Downloads\Johann Sebastian Bach - Die Kunst der Fuge (CD1).wav

Peak level 82.1 %
Extraction speed 2.0 X
Range quality 100.0 %
Test CRC 80BD139D
Copy CRC 80BD139D
Copy OK

No errors occurred


AccurateRip summary

Track 1 accurately ripped (confidence 3) [192BF71A] (AR v1)
Track 2 accurately ripped (confidence 3) [C08F081F] (AR v1)
Track 3 accurately ripped (confidence 3) [AAAB9E9B] (AR v1)
Track 4 accurately ripped (confidence 3) [989B381F] (AR v1)
Track 5 accurately ripped (confidence 3) [2DD5B01A] (AR v1)
Track 6 accurately ripped (confidence 3) [685CD4F6] (AR v1)
Track 7 accurately ripped (confidence 3) [734AC59A] (AR v1)
Track 8 accurately ripped (confidence 3) [9764BC73] (AR v1)
Track 9 accurately ripped (confidence 3) [97E32E1B] (AR v1)
Track 10 accurately ripped (confidence 3) [B43C7D21] (AR v1)
Track 11 accurately ripped (confidence 3) [BCF90036] (AR v1)

All tracks accurately ripped

End of status report

==== Log checksum 50E42D13528D19E27AA87411298F2C17D663E6F881976A818611831940ECFA30 ====

foobar2000 1.2 / Dynamic Range Meter 1.1.1
log date: 2017-05-08 15:26:49

––––––––––––––––––––––––––––––––––––––––
Analyzed: Johann Sebastian Bach / Die Kunst der Fuge (CD1)
––––––––––––––––––––––––––––––––––––––––

DR Peak RMS Duration Track
––––––––––––––––––––––––––––––––––––––––
DR11 -4.63 dB -18.85 dB 5:20 01-Contrapunctus 1
DR12 -3.04 dB -17.77 dB 5:44 02-Contrapunctus 2
DR13 -2.69 dB -18.01 dB 4:56 03-Contrapunctus 3
DR12 -2.95 dB -18.26 dB 9:20 04-Contrapunctus 4
DR12 -1.71 dB -18.13 dB 6:08 05-Contrapunctus 5
DR11 -2.47 dB -16.83 dB 5:28 06-Contrapunctus 6 a 4 in Stylo Francese
DR11 -2.41 dB -16.08 dB 4:14 07-Contrapunctus 7 a 4 per Augmentationem et Diminutionem
DR12 -3.18 dB -18.05 dB 12:35 08-Contrapunctus 8 a 3
DR13 -3.28 dB -19.26 dB 8:47 09-Contrapunctus 9 a 4 alla Duodecima
DR11 -5.30 dB -19.70 dB 7:23 10-Canon per Augmentationem in Contrario Motu
DR10 -4.43 dB -17.06 dB 4:34 11-Canon alla Ottava
––––––––––––––––––––––––––––––––––––––––

Number of tracks: 11
Official DR value: DR12

Samplerate: 44100 Hz
Channels: 2
Bits per sample: 16
Bitrate: 434 kbps
Codec: FLAC
================================================================================


Exact Audio Copy V1.0 beta 4 from 7. December 2014

EAC extraction logfile from 4. May 2017, 21:23

Johann Sebastian Bach / Die Kunst der Fuge (CD2)

Used drive : TSSTcorpDVDWBD TS-LB23A Adapter: 1 ID: 0

Read mode : Secure
Utilize accurate stream : Yes
Defeat audio cache : Yes
Make use of C2 pointers : No

Read offset correction : 6
Overread into Lead-In and Lead-Out : No
Fill up missing offset samples with silence : Yes
Delete leading and trailing silent blocks : No
Null samples used in CRC calculations : Yes
Used interface : Native Win32 interface for Win NT & 2000

Used output format : User Defined Encoder
Selected bitrate : 128 kBit/s
Quality : High
Add ID3 tag : Yes
Command line compressor : C:\Program Files (x86)\Exact Audio Copy\Flac\flac.exe
Additional command line options : -T "COMMENT=Ripped by GFox" -V -8 %source%


TOC of the extracted CD

Track | Start | Length | Start sector | End sector
––––––––––––––––––––––––––––-
1 | 0:00.18 | 5:43.62 | 18 | 25804
2 | 5:44.05 | 9:48.55 | 25805 | 69959
3 | 15:32.60 | 8:03.55 | 69960 | 106239
4 | 23:36.40 | 12:22.45 | 106240 | 161934
5 | 35:59.10 | 5:41.63 | 161935 | 187572
6 | 41:40.73 | 5:44.60 | 187573 | 213432
7 | 47:25.58 | 4:56.37 | 213433 | 235669
8 | 52:22.20 | 4:58.63 | 235670 | 258082
9 | 57:21.08 | 16:12.40 | 258083 | 331022


Range status and errors

Selected range

Filename D:\Downloads\Johann Sebastian Bach - Die Kunst der Fuge (CD2).wav

Peak level 78.9 %
Extraction speed 1.9 X
Range quality 99.9 %
Test CRC 9BA19ABE
Copy CRC 9BA19ABE
Copy OK

No errors occurred


AccurateRip summary

Track 1 accurately ripped (confidence 3) [229A9112] (AR v1)
Track 2 accurately ripped (confidence 3) [46D8BE83] (AR v1)
Track 3 accurately ripped (confidence 3) [D31CE1EC] (AR v1)
Track 4 accurately ripped (confidence 3) [5F09898E] (AR v1)
Track 5 accurately ripped (confidence 3) [CBE6B6E6] (AR v1)
Track 6 accurately ripped (confidence 3) [DE63D747] (AR v1)
Track 7 accurately ripped (confidence 3) [C52210DF] (AR v1)
Track 8 accurately ripped (confidence 3) [CA333CC9] (AR v1)
Track 9 accurately ripped (confidence 3) [349A2717] (AR v1)

All tracks accurately ripped

End of status report

==== Log checksum 1DE9D7D04480698C4038A45761BC7E3A52A13C45E31470A6EA5950D2796E575A ====

foobar2000 1.2 / Dynamic Range Meter 1.1.1
log date: 2017-05-08 15:35:48

––––––––––––––––––––––––––––––––––––––––
Analyzed: Johann Sebastian Bach / Die Kunst der Fuge (CD2)
––––––––––––––––––––––––––––––––––––––––

DR Peak RMS Duration Track
––––––––––––––––––––––––––––––––––––––––
DR11 -6.20 dB -19.58 dB 5:44 01-Canone 3 alla decima in countepunto alla terza
DR12 -7.23 dB -21.93 dB 9:49 02-Canone 4 alla duodecima in contrapunto alla quinta
DR13 -3.28 dB -18.63 dB 8:04 03-Contrapunctus 10
DR12 -3.83 dB -18.48 dB 12:23 04-Contrapunctus 11
DR12 -3.08 dB -18.52 dB 5:42 05-Contrapunctus 12
DR11 -2.06 dB -18.07 dB 5:45 06-Contrapunctus 12 inversus
DR13 -4.55 dB -20.24 dB 4:56 07-Contrapunctus 13
DR14 -4.01 dB -20.28 dB 4:59 08-Contrapunctus 13 inversus
DR12 -5.38 dB -19.67 dB 16:13 09-Fuga a tre soggetti
––––––––––––––––––––––––––––––––––––––––

Number of tracks: 9
Official DR value: DR12

Samplerate: 44100 Hz
Channels: 2
Bits per sample: 16
Bitrate: 425 kbps
Codec: FLAC
================================================================================

Anton Batagov - Johann Sebastian Bach: Die Kunst der Fuge (1993) 2CDs