Tags
Language
Tags

Antonio Florio, Cappella de'Turchini - Vinci • Leo: L'Opera buffa napoletana (1997)

Posted By: ArlegZ
Antonio Florio, Cappella de'Turchini - Vinci • Leo: L'Opera buffa napoletana (1997)

Antonio Florio, Cappella de'Turchini - Vinci • Leo: L'Opera buffa napoletana (1997)
EAC | FLAC | Image (Cue & Log) ~ 403 Mb | Total time: 78:12 | Scans included
Classical | Label: Opus 111 | OPS 30-184 | Recorded: 1997

Everything is done with affection and great character as well as technical finesse. Such music demands innate timing, and these musicians, under Antonio Florio's direction, have it.
–BBC Music

Performer:
Roberta Invernizzi, soprano
Daniela Del Monaco, contralto
Giuseppe De Vittorio, Rosario Totaro, tenors
Giuseppe Naviglio, baritone
Cappella de'Turchini
Antonio Florio, conductor

Track List:
Leonardo Vinci (1690-1730)
Li zite 'ngalera
01. Aria: Da me che buo' se sa
02. Aria: Si 'ste llareme che Ghietto
03. Fa l' alluorgio cammenare
04. Aria: Vurria addiventare suricillo
Leonardo Leo (1694-1744)
05. Lo cecato fauzo: Duet: Maramene, haggio visto 'na cosa
Domenico Auletta (1723-1753)
Harpsichord Concerto in C major
06. I. Allegro
07. II. Andantino
08. III. Allegro
Leonardo Vinci
Lo cecato fauzo
09. Duet: Che bella 'nzalatella
10. Aria: So le ssorva e le nespol' amare
Leonardo Leo
11. L'Alidoro: Aria: Chesta e la regola
12. Le fente zingare: Aria: Pare che baa cantanno
Anonimo (XVII sec.)
13. L'Alessandro: Se da me tu non parti
Giovanni Battista Mele (1694?-after 1752)
Flute Sonata No. 15
14. I. Andante
15. II. Allegro
16. III. Adagio
17. IV. Allegro
Leonardo Vinci
18. Lo cecato fauzo: Aria: Uh! Che Guaio
Giovanni Battista Pergolesi (1710-1736)
19. Scherzo fatto ai Cappuccini di Possuoli


Exact Audio Copy V1.5 from 20. February 2020

EAC extraction logfile from 21. August 2020, 16:24

Roberta Invernizzi, Daniela Del Monaco, Giuseppe De Vittorio, Rosario Totaro, Giuseppe Naviglio / L'Opera buffa napoletana

Used drive : ATAPI iHAS124 F Adapter: 1 ID: 0

Read mode : Secure
Utilize accurate stream : Yes
Defeat audio cache : Yes
Make use of C2 pointers : No

Read offset correction : 6
Overread into Lead-In and Lead-Out : No
Fill up missing offset samples with silence : Yes
Delete leading and trailing silent blocks : No
Null samples used in CRC calculations : Yes
Used interface : Native Win32 interface for Win NT & 2000

Used output format : User Defined Encoder
Selected bitrate : 1024 kBit/s
Quality : High
Add ID3 tag : No
Command line compressor : C:\Program Files (x86)\Exact Audio Copy\FLAC\FLAC.EXE
Additional command line options : -6 -V -T "ARTIST=%artist%" -T "TITLE=%title%" -T "ALBUM=%albumtitle%" -T "DATE=%year%" -T "TRACKNUMBER=%tracknr%" -T "GENRE=%genre%" -T "COMMENT=%comment%" -T "BAND=%albuminterpret%" -T "ALBUMARTIST=%albuminterpret%" -T "COMPOSER=%composer%" %haslyrics%–tag-from-file=LYRICS="%lyricsfile%"%haslyrics% -T "DISCNUMBER=%cdnumber%" -T "TOTALDISCS=%totalcds%" -T "TOTALTRACKS=%numtracks%" %hascover%–picture="%coverfile%"%hascover% %source% -o %dest%


TOC of the extracted CD

Track | Start | Length | Start sector | End sector
––––––––––––––––––––––––––––-
1 | 0:00.00 | 2:14.52 | 0 | 10101
2 | 2:14.52 | 3:35.20 | 10102 | 26246
3 | 5:49.72 | 6:35.10 | 26247 | 55881
4 | 12:25.07 | 2:37.20 | 55882 | 67676
5 | 15:02.27 | 2:38.48 | 67677 | 79574
6 | 17:41.00 | 6:09.70 | 79575 | 107319
7 | 23:50.70 | 8:34.27 | 107320 | 145896
8 | 32:25.22 | 3:29.12 | 145897 | 161583
9 | 35:54.34 | 2:43.11 | 161584 | 173819
10 | 38:37.45 | 3:31.35 | 173820 | 189679
11 | 42:09.05 | 4:52.60 | 189680 | 211639
12 | 47:01.65 | 6:54.12 | 211640 | 242701
13 | 53:56.02 | 8:17.48 | 242702 | 280024
14 | 62:13.50 | 2:02.27 | 280025 | 289201
15 | 64:16.02 | 1:52.30 | 289202 | 297631
16 | 66:08.32 | 2:13.45 | 297632 | 307651
17 | 68:22.02 | 3:09.58 | 307652 | 321884
18 | 71:31.60 | 2:05.57 | 321885 | 331316
19 | 73:37.42 | 4:34.03 | 331317 | 351869


Range status and errors

Selected range

Filename C:\EACRip\VARIOUS\Vinci · Leo - L'Opera buffa napoletana (Antonio Florio) (1997)\Vinci · Leo - L'Opera buffa napoletana - Antonio Florio.wav

Peak level 99.2 %
Extraction speed 9.8 X
Range quality 100.0 %
Test CRC C6BEC512
Copy CRC C6BEC512
Copy OK

No errors occurred


AccurateRip summary

Track 1 accurately ripped (confidence 2) [635D5251] (AR v2)
Track 2 accurately ripped (confidence 2) [4D17070F] (AR v2)
Track 3 accurately ripped (confidence 2) [F97326E1] (AR v2)
Track 4 accurately ripped (confidence 2) [2FF22A32] (AR v2)
Track 5 accurately ripped (confidence 2) [2B989B8F] (AR v2)
Track 6 accurately ripped (confidence 2) [4AE6470F] (AR v2)
Track 7 accurately ripped (confidence 2) [89D903CC] (AR v2)
Track 8 accurately ripped (confidence 2) [1E65881D] (AR v2)
Track 9 accurately ripped (confidence 2) [8EBC4AFC] (AR v2)
Track 10 accurately ripped (confidence 2) [E7CE9A6C] (AR v2)
Track 11 accurately ripped (confidence 2) [DC50CF1E] (AR v2)
Track 12 accurately ripped (confidence 2) [E1AAFAC2] (AR v2)
Track 13 accurately ripped (confidence 2) [B3F097D4] (AR v2)
Track 14 accurately ripped (confidence 2) [C3894EA2] (AR v2)
Track 15 accurately ripped (confidence 2) [6F94C373] (AR v2)
Track 16 accurately ripped (confidence 2) [B06EBD7A] (AR v2)
Track 17 accurately ripped (confidence 2) [DE068EB7] (AR v2)
Track 18 accurately ripped (confidence 2) [6BBF7F7F] (AR v2)
Track 19 accurately ripped (confidence 2) [2A0B484B] (AR v2)

All tracks accurately ripped

End of status report

–– CUETools DB Plugin V2.1.6

[CTDB TOCID: bKeOY7ypKPDNcQcj6foFDg_RLN0-] found
Submit result: bKeOY7ypKPDNcQcj6foFDg_RLN0- has been confirmed
Track | CTDB Status
1 | (8/8) Accurately ripped
2 | (8/8) Accurately ripped
3 | (8/8) Accurately ripped
4 | (8/8) Accurately ripped
5 | (8/8) Accurately ripped
6 | (8/8) Accurately ripped
7 | (8/8) Accurately ripped
8 | (8/8) Accurately ripped
9 | (8/8) Accurately ripped
10 | (8/8) Accurately ripped
11 | (8/8) Accurately ripped
12 | (8/8) Accurately ripped
13 | (8/8) Accurately ripped
14 | (8/8) Accurately ripped
15 | (8/8) Accurately ripped
16 | (8/8) Accurately ripped
17 | (8/8) Accurately ripped
18 | (8/8) Accurately ripped
19 | (8/8) Accurately ripped


==== Log checksum 6918A43E9EA90F96B0D09C5809CD7FCB13B56F7FB112860D7CE290D8A0C71C44 ====

Antonio Florio, Cappella de'Turchini - Vinci • Leo: L'Opera buffa napoletana (1997)

Thanks to the original releaser