Tags
Language
Tags

Antonio Vivaldi - Concertos Vol I [6CDs] (2012)

Posted By: ArlegZ
Antonio Vivaldi - Concertos Vol I [6CDs] (2012)

Antonio Vivaldi - Concertos Vol I [6CDs] (2012)
EAC | FLAC | Image (Cue & Log) ~ 1,75 Gb | TT: 6h 06m | Scans included
Classical | Label: Naïve | # OP 30542 | Recorded: 2002-2010

Fireworks, virtuosity and bravura pieces are essential ingredients of Vivaldi’s concerto oeuvre. Discover or rediscover Vivaldi’s concertos played by the most prestigious artists.

Performer:
CD1: Concerti per fagotto I
Sergio Azzolini, bassoon
L'Aura Soave Cremona
Diego Cantalupi, conductor
CD2: Concerti per archi
Concerto Italiano
Rinaldo Alessandrini, harpsichord & conductor
CD3: Musica per mandolino e liuto
Rolf Lislevand, lute, guitar, mandolin
Ensemble Kapsberger
CD4: 'La notte' 'La tempesta di mare' 'Il gardellino' - Concerti per flautino e archi
Sebastien Marq, recorder, flautino
Ensemble Matheus
Jean-Christophe Spinosi, violin & conductor
CD5: Concerti per violoncello I
Christophe Coin, violoncello
ll Giardino Armonico
Giovanni Antonini, conductor
CD6: I Concerti di Dresda
Freiburger Barockorchester
Gottfried von der Goltz, violin & conductor


CD1: Concerti per fagotto I
Concerto RV493 in sol maggiore:
01. I. Allegro ma poco
02. II. Largo
03. III. Allegro
Concerto RV495 in sol minore:
04. I. Presto
05. II. Largo
06. III. Allegro
Concerto RV477 in do maggiore:
07. I. Allegro
08. II. Largo
09. III. Allegro
Concerto RV488 in fa maggiore:
10. I. Allegro
11. II. Largo
12. III. [senza indicazione di tempo]
Concerto RV503 in si bemolle maggiore:
13. I. Allegro non molto
14. II. Largo
15. III. Allegro
Concerto RV471 in do maggiore:
16. I. Allegro molto
17. II. Larghetto
18. III. Allegro
Concerto RV484 in mi minore:
19. I. Allegro poco
20. II. Andante
21. III. Allegro

CD2: Concerti per archi
Concerto in A major, RV159:
01. I. Allegro
02. II. Adagio
03. III. Allegro
Concerto in G minor, RV153:
04. I. Allegro
05. II. Andante
06. III. Allegro assai
Concerto in D major, RV121:
07. I. Allegro molto
08. II. Adagio
09. III. [Presto]
Concerto in D minor 'Madrigalesco', RV129:
10. I. Adagio
11. II. Allegro
12. III. Adagio
13. IV. [Allegro poco]
Concerto in G minor, RV154:
14. I. Allegro
15. II. Adagio
16. III. Allegro
Concerto ripieno in C major, RV115:
17. I. Allegro
18. II. [Largo]
19. III. Allegro
Concerto in F minor, RV143:
20. I. Allegro
21. II. Adagio
22. III. [Allegro]
Concerto in F major, RV141:
23. I. Allegro molto
24. II. Andante molto
25. III. Allegro molto
Concerto in C minor, RV120:
26. I. Allegro non molto
27. II. Largo
28. III. Allegro
Concerto in G minor, RV156:
29. I. Allegro
30. II. Adagio
31. III. Allegro
Concerto in A major, RV158:
32. I. Allegro molto
33. II. Andante molto
34. III. Allegro
Concerto in D major, RV123:
35. I. Allegro
36. II. Adagio
37. III. Allegro

CD3: Musica per mandolino e liuto
Concerto RV532 in sol maggiore per due mandolini, archi e b.c.
01. I. Allegro
02. II. Andante
03. III. Allegro
Trio RV85 in sol minore per violino, liuto e b.c.
04. I. Andante molto
05. II. Larghetto
06. III. Allegro
Concerto RV425 in do maggiore per mandolino, archi e b.c.
07. I. Allegro
08. II. Largo
09. III. Allegro
Concerto RV540 in re minore per viola d’amore, liuto, archi e b.c.
10. I. Allegro moderato
11. II. Largo
12. III. Allegro
Trio RV82 in do maggiore per violino, liuto e b.c.
13. I. Allegro non molto
14. II. Larghetto lento
15. III. Allegro
Concerto RV93 in re maggiore per due violini, liuto e b.c.
16. I. Allegro giusto
17. II. Largo
18. III. Allegro

CD4: 'La notte' 'La tempesta di mare' 'Il gardellino' - Concerti per flautino e archi
Recorder Concerto in G minor “La notte” RV439:
01. I. Largo
02. II. “Fantasmi” Presto
03. III. “Fantasmi” Largo
04. IV. “Fantasmi” Presto
05. V. “Il sonno” Largo
06. VI. “Il sonno” Allegro
Recorder Concerto in C minor RV441:
07. I. Allegro non molto
08. II. Largo
09. III. (Allegro)
Flautino Concerto in G major alla quarta bassa RV443:
10. I. (Allegro)
11. II. Largo
12. III. Allegro molto
Recorder Concerto in F major “La tempesta di mare” RV433:
13. I. Allegro
14. II. Largo
15. III. Presto
Recorder Concerto in D major “Il gardellino” RV428:
16. I. Allegro
17. II. Cantabile
18. III. Allegro
Flautino Concerto in G major RV312R:
19. I. Allegro molto
20. II. Larghetto
21. III. Allegro

CD5: Concerti per violoncello I
Concerto RV419 in la minore:
01. I. Allegro
02. II. Andante
03. III. Allegro
Concerto RV410 in fa maggiore:
04. I. Allegro
05. II. Largo
06. III. [Allegro]
Concerto RV409 in mi minore:
07. I. Adagio, Allegro alternatim
08. II. Allegro, Adagio, Allegro, Adagio
09. III. Allegro
Concerto RV414 in sol maggiore:
10. I. Allegro molto
11. II. Largo
12. III. Allegro
Concerto RV406 in re minore:
13. I. Allegro non molto
14. II. Andante
15. III. Minuet
Concerto RV398 in do maggiore:
16. I. Allegro
17. II. Andante
18. III. [Allegro]
Concerto RV421 in la minore:
19. I. Allegro non troppo
20. II. [Largo]
21. III. Allegro

CD6: I Concerti di Dresda
Concerto RV577 in G minor:
01. I. [Allegro]
02. II. Largo non molto
03. III. Allegro
Concerto RV569 in F major:
04. I. Allegro
05. II. Grave
06. III. Allegro
Concerto RV576 in G minor:
07. I. [Allegro]
08. II. Larghetto
09. III. Allegro
Sinfonia RV192 in C major:
10. I. [Allegro]
11. II. [Largo]
12. III. [Allegro]
13. IV. [Allegro]
Concerto RV574 in F major:
14. I. Allegro
15. II. Grave
16. III. [Allegro]



Exact Audio Copy V1.3 from 2. September 2016

EAC extraction logfile from 21. August 2019, 1:21

Sergio Azzolini, L'Aura Soave Cremona / Vivaldi - Concerti per fagotto

Used drive : ATAPI iHAS124 F Adapter: 1 ID: 0

Read mode : Secure
Utilize accurate stream : Yes
Defeat audio cache : Yes
Make use of C2 pointers : No

Read offset correction : 6
Overread into Lead-In and Lead-Out : No
Fill up missing offset samples with silence : Yes
Delete leading and trailing silent blocks : No
Null samples used in CRC calculations : Yes
Used interface : Native Win32 interface for Win NT & 2000

Used output format : User Defined Encoder
Selected bitrate : 1024 kBit/s
Quality : High
Add ID3 tag : No
Command line compressor : C:\Program Files (x86)\Exact Audio Copy\FLAC\FLAC.EXE
Additional command line options : -6 -V -T "ARTIST=%artist%" -T "TITLE=%title%" -T "ALBUM=%albumtitle%" -T "DATE=%year%" -T "TRACKNUMBER=%tracknr%" -T "GENRE=%genre%" -T "COMMENT=%comment%" -T "BAND=%albuminterpret%" -T "ALBUMARTIST=%albuminterpret%" -T "COMPOSER=%composer%" %haslyrics%–tag-from-file=LYRICS="%lyricsfile%"%haslyrics% -T "DISCNUMBER=%cdnumber%" -T "TOTALDISCS=%totalcds%" -T "TOTALTRACKS=%numtracks%" %hascover%–picture="%coverfile%"%hascover% %source% -o %dest%


TOC of the extracted CD

Track | Start | Length | Start sector | End sector
––––––––––––––––––––––––––––-
1 | 0:00.00 | 3:56.02 | 0 | 17701
2 | 3:56.02 | 3:06.14 | 17702 | 31665
3 | 7:02.16 | 2:08.10 | 31666 | 41275
4 | 9:10.26 | 3:00.56 | 41276 | 54831
5 | 12:11.07 | 3:11.46 | 54832 | 69202
6 | 15:22.53 | 3:31.47 | 69203 | 85074
7 | 18:54.25 | 4:05.53 | 85075 | 103502
8 | 23:00.03 | 4:24.16 | 103503 | 123318
9 | 27:24.19 | 3:32.62 | 123319 | 139280
10 | 30:57.06 | 3:05.39 | 139281 | 153194
11 | 34:02.45 | 3:41.08 | 153195 | 169777
12 | 37:43.53 | 2:25.15 | 169778 | 180667
13 | 40:08.68 | 4:25.66 | 180668 | 200608
14 | 44:34.59 | 3:34.44 | 200609 | 216702
15 | 48:09.28 | 3:06.58 | 216703 | 230710
16 | 51:16.11 | 4:23.57 | 230711 | 250492
17 | 55:39.68 | 3:28.04 | 250493 | 266096
18 | 59:07.72 | 3:08.32 | 266097 | 280228
19 | 62:16.29 | 4:44.49 | 280229 | 301577
20 | 67:01.03 | 4:00.54 | 301578 | 319631
21 | 71:01.57 | 3:44.10 | 319632 | 336441


Range status and errors

Selected range

Filename C:\EACRip\VIVALDI NAIVE EDITION\VIVALDI - CONCERTOS (naive, 6CD) [Boxset](2012)\1. Vivaldi - Concerti per fagotto (Sergio Azzolini, L'Aura Soave Cremona) (2010)\Vivaldi - Concerti per fagotto - Sergio Azzolini, L'Aura Soave Cremona.wav

Peak level 98.2 %
Extraction speed 9.3 X
Range quality 100.0 %
Test CRC 75A8BED7
Copy CRC 75A8BED7
Copy OK

No errors occurred


AccurateRip summary

Track 1 accurately ripped (confidence 74) [0EC8C972] (AR v2)
Track 2 accurately ripped (confidence 74) [A6D0F112] (AR v2)
Track 3 accurately ripped (confidence 73) [2266627A] (AR v2)
Track 4 accurately ripped (confidence 74) [9CAF0B8A] (AR v2)
Track 5 accurately ripped (confidence 73) [B689BF63] (AR v2)
Track 6 accurately ripped (confidence 74) [43BBF641] (AR v2)
Track 7 accurately ripped (confidence 74) [C2BB32E5] (AR v2)
Track 8 accurately ripped (confidence 74) [73C4C258] (AR v2)
Track 9 accurately ripped (confidence 73) [D7FAC7EB] (AR v2)
Track 10 accurately ripped (confidence 73) [3EF97E40] (AR v2)
Track 11 accurately ripped (confidence 73) [582D3D3A] (AR v2)
Track 12 accurately ripped (confidence 73) [51B4B313] (AR v2)
Track 13 accurately ripped (confidence 73) [553B5CA3] (AR v2)
Track 14 accurately ripped (confidence 73) [3BE8DD5C] (AR v2)
Track 15 accurately ripped (confidence 73) [25AFC0CA] (AR v2)
Track 16 accurately ripped (confidence 74) [1F490CB5] (AR v2)
Track 17 accurately ripped (confidence 74) [D48EE98E] (AR v2)
Track 18 accurately ripped (confidence 74) [8F5722D0] (AR v2)
Track 19 accurately ripped (confidence 74) [BA177C08] (AR v2)
Track 20 accurately ripped (confidence 74) [F707E03A] (AR v2)
Track 21 accurately ripped (confidence 74) [2F0FB522] (AR v2)

All tracks accurately ripped

End of status report

–– CUETools DB Plugin V2.1.6

[CTDB TOCID: 8z3n2gROGN2FYz45ZGgxlTDrNDc-] found
Submit result: 8z3n2gROGN2FYz45ZGgxlTDrNDc- has been confirmed
Track | CTDB Status
1 | (95/96) Accurately ripped
2 | (95/96) Accurately ripped
3 | (95/96) Accurately ripped
4 | (95/96) Accurately ripped
5 | (94/96) Accurately ripped
6 | (95/96) Accurately ripped
7 | (95/96) Accurately ripped
8 | (95/96) Accurately ripped
9 | (95/96) Accurately ripped
10 | (95/96) Accurately ripped
11 | (95/96) Accurately ripped
12 | (95/96) Accurately ripped
13 | (95/96) Accurately ripped
14 | (95/96) Accurately ripped
15 | (95/96) Accurately ripped
16 | (95/96) Accurately ripped
17 | (95/96) Accurately ripped
18 | (94/96) Accurately ripped
19 | (94/96) Accurately ripped
20 | (95/96) Accurately ripped
21 | (94/96) Accurately ripped


==== Log checksum 505C2E8B6472E0FDA2DE9BD5BAE39EAF8472E52E29E8FE2F42D053F36FF38FCD ====


Exact Audio Copy V1.3 from 2. September 2016

EAC extraction logfile from 21. August 2019, 10:49

Rinaldo Alessandrini / Vivaldi - Concerti per archi

Used drive : ATAPI iHAS124 F Adapter: 1 ID: 0

Read mode : Secure
Utilize accurate stream : Yes
Defeat audio cache : Yes
Make use of C2 pointers : No

Read offset correction : 6
Overread into Lead-In and Lead-Out : No
Fill up missing offset samples with silence : Yes
Delete leading and trailing silent blocks : No
Null samples used in CRC calculations : Yes
Used interface : Native Win32 interface for Win NT & 2000

Used output format : User Defined Encoder
Selected bitrate : 1024 kBit/s
Quality : High
Add ID3 tag : No
Command line compressor : C:\Program Files (x86)\Exact Audio Copy\FLAC\FLAC.EXE
Additional command line options : -6 -V -T "ARTIST=%artist%" -T "TITLE=%title%" -T "ALBUM=%albumtitle%" -T "DATE=%year%" -T "TRACKNUMBER=%tracknr%" -T "GENRE=%genre%" -T "COMMENT=%comment%" -T "BAND=%albuminterpret%" -T "ALBUMARTIST=%albuminterpret%" -T "COMPOSER=%composer%" %haslyrics%–tag-from-file=LYRICS="%lyricsfile%"%haslyrics% -T "DISCNUMBER=%cdnumber%" -T "TOTALDISCS=%totalcds%" -T "TOTALTRACKS=%numtracks%" %hascover%–picture="%coverfile%"%hascover% %source% -o %dest%


TOC of the extracted CD

Track | Start | Length | Start sector | End sector
––––––––––––––––––––––––––––-
1 | 0:00.00 | 1:09.53 | 0 | 5227
2 | 1:09.53 | 1:34.45 | 5228 | 12322
3 | 2:44.23 | 1:53.40 | 12323 | 20837
4 | 4:37.63 | 2:12.00 | 20838 | 30737
5 | 6:49.63 | 1:38.04 | 30738 | 38091
6 | 8:27.67 | 1:41.48 | 38092 | 45714
7 | 10:09.40 | 2:08.65 | 45715 | 55379
8 | 12:18.30 | 1:53.42 | 55380 | 63896
9 | 14:11.72 | 1:42.66 | 63897 | 71612
10 | 15:54.63 | 1:15.50 | 71613 | 77287
11 | 17:10.38 | 1:30.18 | 77288 | 84055
12 | 18:40.56 | 1:02.25 | 84056 | 88730
13 | 19:43.06 | 1:10.21 | 88731 | 94001
14 | 20:53.27 | 1:51.29 | 94002 | 102355
15 | 22:44.56 | 1:39.38 | 102356 | 109818
16 | 24:24.19 | 2:17.13 | 109819 | 120106
17 | 26:41.32 | 1:10.18 | 120107 | 125374
18 | 27:51.50 | 1:40.19 | 125375 | 132893
19 | 29:31.69 | 1:07.23 | 132894 | 137941
20 | 30:39.17 | 2:33.11 | 137942 | 149427
21 | 33:12.28 | 1:01.05 | 149428 | 154007
22 | 34:13.33 | 2:20.38 | 154008 | 164545
23 | 36:33.71 | 1:29.39 | 164546 | 171259
24 | 38:03.35 | 0:53.64 | 171260 | 175298
25 | 38:57.24 | 1:12.12 | 175299 | 180710
26 | 40:09.36 | 2:10.09 | 180711 | 190469
27 | 42:19.45 | 2:15.10 | 190470 | 200604
28 | 44:34.55 | 2:06.27 | 200605 | 210081
29 | 46:41.07 | 2:42.42 | 210082 | 222273
30 | 49:23.49 | 1:58.46 | 222274 | 231169
31 | 51:22.20 | 1:36.56 | 231170 | 238425
32 | 52:59.01 | 2:30.07 | 238426 | 249682
33 | 55:29.08 | 1:25.59 | 249683 | 256116
34 | 56:54.67 | 2:58.28 | 256117 | 269494
35 | 59:53.20 | 2:08.57 | 269495 | 279151
36 | 62:02.02 | 1:23.60 | 279152 | 285436
37 | 63:25.62 | 2:23.40 | 285437 | 296201


Range status and errors

Selected range

Filename C:\EACRip\VIVALDI NAIVE EDITION\VIVALDI - CONCERTOS (naive, 6CD) [Boxset](2012)\2. Vivaldi - Concerti per archi (Rinaldo Alessandrini) (2011 [2003])\Vivaldi - Concerti per archi - Rinaldo Alessandrini.wav

Peak level 85.5 %
Extraction speed 8.6 X
Range quality 100.0 %
Test CRC 783E1AD0
Copy CRC 783E1AD0
Copy OK

No errors occurred


AccurateRip summary

Track 1 accurately ripped (confidence 76) [90456696] (AR v2)
Track 2 accurately ripped (confidence 75) [631348C6] (AR v2)
Track 3 accurately ripped (confidence 76) [D8F330A7] (AR v2)
Track 4 accurately ripped (confidence 76) [60DE0F0C] (AR v2)
Track 5 accurately ripped (confidence 76) [82F257B7] (AR v2)
Track 6 accurately ripped (confidence 76) [BA560912] (AR v2)
Track 7 accurately ripped (confidence 76) [D5469606] (AR v2)
Track 8 accurately ripped (confidence 76) [77AA9D2F] (AR v2)
Track 9 accurately ripped (confidence 76) [B85ACBEE] (AR v2)
Track 10 accurately ripped (confidence 76) [12A8CC42] (AR v2)
Track 11 accurately ripped (confidence 76) [0C672A19] (AR v2)
Track 12 accurately ripped (confidence 76) [8B5D45CC] (AR v2)
Track 13 accurately ripped (confidence 76) [3DF6D692] (AR v2)
Track 14 accurately ripped (confidence 76) [B7701F71] (AR v2)
Track 15 accurately ripped (confidence 76) [39C6539D] (AR v2)
Track 16 accurately ripped (confidence 76) [04477845] (AR v2)
Track 17 accurately ripped (confidence 76) [E06ED185] (AR v2)
Track 18 accurately ripped (confidence 75) [42DB613D] (AR v2)
Track 19 accurately ripped (confidence 76) [E3DC02AC] (AR v2)
Track 20 accurately ripped (confidence 75) [39C433C1] (AR v2)
Track 21 accurately ripped (confidence 75) [980C4A72] (AR v2)
Track 22 accurately ripped (confidence 76) [42E62139] (AR v2)
Track 23 accurately ripped (confidence 76) [4C959931] (AR v2)
Track 24 accurately ripped (confidence 76) [AA36731B] (AR v2)
Track 25 accurately ripped (confidence 76) [6CC5DF11] (AR v2)
Track 26 accurately ripped (confidence 76) [16BEC058] (AR v2)
Track 27 accurately ripped (confidence 76) [C7FD93F9] (AR v2)
Track 28 accurately ripped (confidence 75) [66B81138] (AR v2)
Track 29 accurately ripped (confidence 76) [CCB3738C] (AR v2)
Track 30 accurately ripped (confidence 76) [91F2754A] (AR v2)
Track 31 accurately ripped (confidence 76) [282ECD2D] (AR v2)
Track 32 accurately ripped (confidence 76) [508847A6] (AR v2)
Track 33 accurately ripped (confidence 76) [CCAB8A38] (AR v2)
Track 34 accurately ripped (confidence 75) [65CC7DBA] (AR v2)
Track 35 accurately ripped (confidence 74) [7313C2BC] (AR v2)
Track 36 accurately ripped (confidence 76) [EC5C43D1] (AR v2)
Track 37 accurately ripped (confidence 76) [4FD23E47] (AR v2)

All tracks accurately ripped

End of status report

–– CUETools DB Plugin V2.1.6

[CTDB TOCID: jifvyxCULPoZqILJ8JKht6Y9v0I-] found
Submit result: jifvyxCULPoZqILJ8JKht6Y9v0I- has been confirmed
Track | CTDB Status
1 | (86/87) Accurately ripped
2 | (86/87) Accurately ripped
3 | (86/87) Accurately ripped
4 | (86/87) Accurately ripped
5 | (86/87) Accurately ripped
6 | (86/87) Accurately ripped
7 | (86/87) Accurately ripped
8 | (86/87) Accurately ripped
9 | (86/87) Accurately ripped
10 | (86/87) Accurately ripped
11 | (86/87) Accurately ripped
12 | (86/87) Accurately ripped
13 | (86/87) Accurately ripped
14 | (86/87) Accurately ripped
15 | (86/87) Accurately ripped
16 | (86/87) Accurately ripped
17 | (86/87) Accurately ripped
18 | (86/87) Accurately ripped
19 | (86/87) Accurately ripped
20 | (86/87) Accurately ripped
21 | (86/87) Accurately ripped
22 | (86/87) Accurately ripped
23 | (86/87) Accurately ripped
24 | (86/87) Accurately ripped
25 | (86/87) Accurately ripped
26 | (86/87) Accurately ripped
27 | (86/87) Accurately ripped
28 | (86/87) Accurately ripped
29 | (86/87) Accurately ripped
30 | (86/87) Accurately ripped
31 | (86/87) Accurately ripped
32 | (85/87) Accurately ripped
33 | (86/87) Accurately ripped
34 | (85/87) Accurately ripped
35 | (84/87) Accurately ripped
36 | (86/87) Accurately ripped
37 | (86/87) Accurately ripped


==== Log checksum 42AE74D78653A4814CCEA53CCD3B5CF782323008794B0BEFFBDB27596542CA89 ====


Exact Audio Copy V1.3 from 2. September 2016

EAC extraction logfile from 21. August 2019, 11:43

Rolf Lislevand / Vivaldi - Musica per mandolino e liuto

Used drive : ATAPI iHAS124 F Adapter: 1 ID: 0

Read mode : Secure
Utilize accurate stream : Yes
Defeat audio cache : Yes
Make use of C2 pointers : No

Read offset correction : 6
Overread into Lead-In and Lead-Out : No
Fill up missing offset samples with silence : Yes
Delete leading and trailing silent blocks : No
Null samples used in CRC calculations : Yes
Used interface : Native Win32 interface for Win NT & 2000

Used output format : User Defined Encoder
Selected bitrate : 1024 kBit/s
Quality : High
Add ID3 tag : No
Command line compressor : C:\Program Files (x86)\Exact Audio Copy\FLAC\FLAC.EXE
Additional command line options : -6 -V -T "ARTIST=%artist%" -T "TITLE=%title%" -T "ALBUM=%albumtitle%" -T "DATE=%year%" -T "TRACKNUMBER=%tracknr%" -T "GENRE=%genre%" -T "COMMENT=%comment%" -T "BAND=%albuminterpret%" -T "ALBUMARTIST=%albuminterpret%" -T "COMPOSER=%composer%" %haslyrics%–tag-from-file=LYRICS="%lyricsfile%"%haslyrics% -T "DISCNUMBER=%cdnumber%" -T "TOTALDISCS=%totalcds%" -T "TOTALTRACKS=%numtracks%" %hascover%–picture="%coverfile%"%hascover% %source% -o %dest%


TOC of the extracted CD

Track | Start | Length | Start sector | End sector
––––––––––––––––––––––––––––-
1 | 0:00.00 | 3:37.70 | 0 | 16344
2 | 3:37.70 | 3:36.05 | 16345 | 32549
3 | 7:14.00 | 3:24.53 | 32550 | 47902
4 | 10:38.53 | 4:18.44 | 47903 | 67296
5 | 14:57.22 | 3:16.27 | 67297 | 82023
6 | 18:13.49 | 1:44.52 | 82024 | 89875
7 | 19:58.26 | 2:39.01 | 89876 | 101801
8 | 22:37.27 | 4:49.37 | 101802 | 123513
9 | 27:26.64 | 1:56.61 | 123514 | 132274
10 | 29:23.50 | 4:44.54 | 132275 | 153628
11 | 34:08.29 | 3:25.12 | 153629 | 169015
12 | 37:33.41 | 2:55.74 | 169016 | 182214
13 | 40:29.40 | 3:44.74 | 182215 | 199088
14 | 44:14.39 | 3:50.48 | 199089 | 216386
15 | 48:05.12 | 2:00.33 | 216387 | 225419
16 | 50:05.45 | 3:17.32 | 225420 | 240226
17 | 53:23.02 | 4:30.38 | 240227 | 260514
18 | 57:53.40 | 2:01.08 | 260515 | 269597


Range status and errors

Selected range

Filename C:\EACRip\VIVALDI NAIVE EDITION\VIVALDI - CONCERTOS (naive, 6CD) [Boxset](2012)\3. Vivaldi - Musica per mandolino e liuto (Rolf Lislevand) (2006)\Vivaldi - Musica per mandolino e liuto - Rolf Lislevand.wav

Peak level 98.9 %
Extraction speed 8.5 X
Range quality 100.0 %
Test CRC DD7D08F0
Copy CRC DD7D08F0
Copy OK

No errors occurred


AccurateRip summary

Track 1 accurately ripped (confidence 61) [5FC683C1] (AR v2)
Track 2 accurately ripped (confidence 62) [BAAC6E4B] (AR v2)
Track 3 accurately ripped (confidence 62) [D7B0D681] (AR v2)
Track 4 accurately ripped (confidence 61) [505546D3] (AR v2)
Track 5 accurately ripped (confidence 61) [81733520] (AR v2)
Track 6 accurately ripped (confidence 62) [D3A48528] (AR v2)
Track 7 accurately ripped (confidence 62) [EC7600D0] (AR v2)
Track 8 accurately ripped (confidence 62) [9126A1A2] (AR v2)
Track 9 accurately ripped (confidence 62) [1E8ABF2D] (AR v2)
Track 10 accurately ripped (confidence 62) [ACA64350] (AR v2)
Track 11 accurately ripped (confidence 62) [12991776] (AR v2)
Track 12 accurately ripped (confidence 62) [08703159] (AR v2)
Track 13 accurately ripped (confidence 62) [5ECA6577] (AR v2)
Track 14 accurately ripped (confidence 62) [22F2770D] (AR v2)
Track 15 accurately ripped (confidence 61) [F7CD2838] (AR v2)
Track 16 accurately ripped (confidence 61) [8BA5B614] (AR v2)
Track 17 accurately ripped (confidence 62) [6D65438A] (AR v2)
Track 18 accurately ripped (confidence 62) [AA3544AB] (AR v2)

All tracks accurately ripped

End of status report

–– CUETools DB Plugin V2.1.6

[CTDB TOCID: AUf.VL2BFpkguGz8ATatBY5I_pI-] found
Submit result: AUf.VL2BFpkguGz8ATatBY5I_pI- has been confirmed
Track | CTDB Status
1 | (85/85) Accurately ripped
2 | (85/85) Accurately ripped
3 | (85/85) Accurately ripped
4 | (85/85) Accurately ripped
5 | (85/85) Accurately ripped
6 | (85/85) Accurately ripped
7 | (84/85) Accurately ripped
8 | (85/85) Accurately ripped
9 | (85/85) Accurately ripped
10 | (85/85) Accurately ripped
11 | (85/85) Accurately ripped
12 | (85/85) Accurately ripped
13 | (85/85) Accurately ripped
14 | (85/85) Accurately ripped
15 | (85/85) Accurately ripped
16 | (85/85) Accurately ripped
17 | (85/85) Accurately ripped
18 | (85/85) Accurately ripped


==== Log checksum ACEBD32079BE877C297979792B754D6396697E0DA5F1BA8AC4ECC45BD6B8B96D ====


Exact Audio Copy V1.3 from 2. September 2016

EAC extraction logfile from 21. August 2019, 12:44

Sebastien Marq / Vivaldi: La Notte; La Tempesta di Mare; Il Gardellino

Used drive : ATAPI iHAS124 F Adapter: 1 ID: 0

Read mode : Secure
Utilize accurate stream : Yes
Defeat audio cache : Yes
Make use of C2 pointers : No

Read offset correction : 6
Overread into Lead-In and Lead-Out : No
Fill up missing offset samples with silence : Yes
Delete leading and trailing silent blocks : No
Null samples used in CRC calculations : Yes
Used interface : Native Win32 interface for Win NT & 2000

Used output format : User Defined Encoder
Selected bitrate : 1024 kBit/s
Quality : High
Add ID3 tag : No
Command line compressor : C:\Program Files (x86)\Exact Audio Copy\FLAC\FLAC.EXE
Additional command line options : -6 -V -T "ARTIST=%artist%" -T "TITLE=%title%" -T "ALBUM=%albumtitle%" -T "DATE=%year%" -T "TRACKNUMBER=%tracknr%" -T "GENRE=%genre%" -T "COMMENT=%comment%" -T "BAND=%albuminterpret%" -T "ALBUMARTIST=%albuminterpret%" -T "COMPOSER=%composer%" %haslyrics%–tag-from-file=LYRICS="%lyricsfile%"%haslyrics% -T "DISCNUMBER=%cdnumber%" -T "TOTALDISCS=%totalcds%" -T "TOTALTRACKS=%numtracks%" %hascover%–picture="%coverfile%"%hascover% %source% -o %dest%


TOC of the extracted CD

Track | Start | Length | Start sector | End sector
––––––––––––––––––––––––––––-
1 | 0:00.00 | 1:37.32 | 0 | 7306
2 | 1:37.32 | 0:45.63 | 7307 | 10744
3 | 2:23.20 | 0:54.37 | 10745 | 14831
4 | 3:17.57 | 0:51.70 | 14832 | 18726
5 | 4:09.52 | 2:45.31 | 18727 | 31132
6 | 6:55.08 | 1:56.42 | 31133 | 39874
7 | 8:51.50 | 4:31.43 | 39875 | 60242
8 | 13:23.18 | 2:05.25 | 60243 | 69642
9 | 15:28.43 | 3:21.71 | 69643 | 84788
10 | 18:50.39 | 3:27.13 | 84789 | 100326
11 | 22:17.52 | 3:42.42 | 100327 | 117018
12 | 26:00.19 | 2:45.25 | 117019 | 129418
13 | 28:45.44 | 2:16.34 | 129419 | 139652
14 | 31:02.03 | 1:28.50 | 139653 | 146302
15 | 32:30.53 | 1:43.38 | 146303 | 154065
16 | 34:14.16 | 3:36.45 | 154066 | 170310
17 | 37:50.61 | 2:38.62 | 170311 | 182222
18 | 40:29.48 | 2:33.57 | 182223 | 193754
19 | 43:03.30 | 3:18.42 | 193755 | 208646
20 | 46:21.72 | 1:52.28 | 208647 | 217074
21 | 48:14.25 | 2:22.57 | 217075 | 227781


Range status and errors

Selected range

Filename C:\EACRip\VIVALDI NAIVE EDITION\VIVALDI - CONCERTOS (naive, 6CD) [Boxset](2012)\4. Vivaldi - Concerti per flautino e archi (Sebastien Marq, Jean-Christophe Spinosi) (2002)\CD\Vivaldi - La notte, La tempesta di mare. Il gardellino - Marq, Spino

Peak level 93.8 %
Extraction speed 8.1 X
Range quality 100.0 %
Test CRC 5774E57E
Copy CRC 5774E57E
Copy OK

No errors occurred


AccurateRip summary

Track 1 accurately ripped (confidence 39) [5A4F0F04] (AR v2)
Track 2 accurately ripped (confidence 39) [85E675B4] (AR v2)
Track 3 accurately ripped (confidence 39) [64384636] (AR v2)
Track 4 accurately ripped (confidence 39) [2E9CD437] (AR v2)
Track 5 accurately ripped (confidence 39) [F890668C] (AR v2)
Track 6 accurately ripped (confidence 39) [713B171B] (AR v2)
Track 7 accurately ripped (confidence 39) [C4CB907F] (AR v2)
Track 8 accurately ripped (confidence 39) [7F30D4DF] (AR v2)
Track 9 accurately ripped (confidence 39) [8D81E808] (AR v2)
Track 10 accurately ripped (confidence 39) [84ED7DA2] (AR v2)
Track 11 accurately ripped (confidence 39) [CDE3D1C5] (AR v2)
Track 12 accurately ripped (confidence 39) [6D9D015A] (AR v2)
Track 13 accurately ripped (confidence 39) [FF7EE484] (AR v2)
Track 14 accurately ripped (confidence 39) [F9080DB5] (AR v2)
Track 15 accurately ripped (confidence 39) [8AD0BEF8] (AR v2)
Track 16 accurately ripped (confidence 39) [70CF9718] (AR v2)
Track 17 accurately ripped (confidence 39) [72E2BEF5] (AR v2)
Track 18 accurately ripped (confidence 39) [31EF5C02] (AR v2)
Track 19 accurately ripped (confidence 39) [B3B494E3] (AR v2)
Track 20 accurately ripped (confidence 39) [D3D6506A] (AR v2)
Track 21 accurately ripped (confidence 39) [7A241F46] (AR v2)

All tracks accurately ripped

End of status report

–– CUETools DB Plugin V2.1.6

[CTDB TOCID: yK4W7X2rKD9LT8wOPY_q_uDApU4-] found
Submit result: yK4W7X2rKD9LT8wOPY_q_uDApU4- has been confirmed
Track | CTDB Status
1 | (63/63) Accurately ripped
2 | (63/63) Accurately ripped
3 | (63/63) Accurately ripped
4 | (63/63) Accurately ripped
5 | (63/63) Accurately ripped
6 | (63/63) Accurately ripped
7 | (62/63) Accurately ripped
8 | (62/63) Accurately ripped
9 | (62/63) Accurately ripped
10 | (62/63) Accurately ripped
11 | (62/63) Accurately ripped
12 | (62/63) Accurately ripped
13 | (62/63) Accurately ripped
14 | (62/63) Accurately ripped
15 | (62/63) Accurately ripped
16 | (62/63) Accurately ripped
17 | (62/63) Accurately ripped
18 | (62/63) Accurately ripped
19 | (62/63) Accurately ripped
20 | (62/63) Accurately ripped
21 | (62/63) Accurately ripped


==== Log checksum 52DEF18FC6F5B9D0D9355136FE1B58DB2F81A67AD5D6AD5833619EACB31CAE18 ====


Exact Audio Copy V1.3 from 2. September 2016

EAC extraction logfile from 21. August 2019, 13:19

Christophe Coin; Giovanni Antonini / Vivaldi - Concerti per violoncello I

Used drive : ATAPI iHAS124 F Adapter: 1 ID: 0

Read mode : Secure
Utilize accurate stream : Yes
Defeat audio cache : Yes
Make use of C2 pointers : No

Read offset correction : 6
Overread into Lead-In and Lead-Out : No
Fill up missing offset samples with silence : Yes
Delete leading and trailing silent blocks : No
Null samples used in CRC calculations : Yes
Used interface : Native Win32 interface for Win NT & 2000

Used output format : User Defined Encoder
Selected bitrate : 1024 kBit/s
Quality : High
Add ID3 tag : No
Command line compressor : C:\Program Files (x86)\Exact Audio Copy\FLAC\FLAC.EXE
Additional command line options : -6 -V -T "ARTIST=%artist%" -T "TITLE=%title%" -T "ALBUM=%albumtitle%" -T "DATE=%year%" -T "TRACKNUMBER=%tracknr%" -T "GENRE=%genre%" -T "COMMENT=%comment%" -T "BAND=%albuminterpret%" -T "ALBUMARTIST=%albuminterpret%" -T "COMPOSER=%composer%" %haslyrics%–tag-from-file=LYRICS="%lyricsfile%"%haslyrics% -T "DISCNUMBER=%cdnumber%" -T "TOTALDISCS=%totalcds%" -T "TOTALTRACKS=%numtracks%" %hascover%–picture="%coverfile%"%hascover% %source% -o %dest%


TOC of the extracted CD

Track | Start | Length | Start sector | End sector
––––––––––––––––––––––––––––-
1 | 0:00.00 | 3:47.02 | 0 | 17026
2 | 3:47.02 | 3:28.68 | 17027 | 32694
3 | 7:15.70 | 2:08.45 | 32695 | 42339
4 | 9:24.40 | 3:32.57 | 42340 | 58296
5 | 12:57.22 | 5:05.03 | 58297 | 81174
6 | 18:02.25 | 3:24.45 | 81175 | 96519
7 | 21:26.70 | 3:55.45 | 96520 | 114189
8 | 25:22.40 | 1:25.57 | 114190 | 120621
9 | 26:48.22 | 2:17.68 | 120622 | 130964
10 | 29:06.15 | 3:22.67 | 130965 | 146181
11 | 32:29.07 | 3:24.15 | 146182 | 161496
12 | 35:53.22 | 3:06.28 | 161497 | 175474
13 | 38:59.50 | 3:19.22 | 175475 | 190421
14 | 42:18.72 | 2:39.08 | 190422 | 202354
15 | 44:58.05 | 4:36.35 | 202355 | 223089
16 | 49:34.40 | 3:12.47 | 223090 | 237536
17 | 52:47.12 | 2:07.50 | 237537 | 247111
18 | 54:54.62 | 2:19.63 | 247112 | 257599
19 | 57:14.50 | 3:13.22 | 257600 | 272096
20 | 60:27.72 | 2:15.60 | 272097 | 282281
21 | 62:43.57 | 2:30.23 | 282282 | 293554


Range status and errors

Selected range

Filename C:\EACRip\VIVALDI NAIVE EDITION\VIVALDI - CONCERTOS (naive, 6CD) [Boxset](2012)\5. Vivaldi - Concerti per violoncello I (Christophe Coin, Giovanni Antonini) (2007)\Vivaldi - Concerti per violoncello I - Christophe Coin, Giovanni Antonini.wav

Peak level 100.0 %
Extraction speed 8.6 X
Range quality 100.0 %
Test CRC AEDBC20A
Copy CRC AEDBC20A
Copy OK

No errors occurred


AccurateRip summary

Track 1 accurately ripped (confidence 53) [E8ED21FB] (AR v2)
Track 2 accurately ripped (confidence 54) [BD763CD2] (AR v2)
Track 3 accurately ripped (confidence 54) [47764DE3] (AR v2)
Track 4 accurately ripped (confidence 54) [1F182F2D] (AR v2)
Track 5 accurately ripped (confidence 54) [60802075] (AR v2)
Track 6 accurately ripped (confidence 54) [0E9484E8] (AR v2)
Track 7 accurately ripped (confidence 54) [DA487EE0] (AR v2)
Track 8 accurately ripped (confidence 54) [F31094D1] (AR v2)
Track 9 accurately ripped (confidence 53) [55BDAB4D] (AR v2)
Track 10 accurately ripped (confidence 54) [4BBE4E84] (AR v2)
Track 11 accurately ripped (confidence 54) [64F3357B] (AR v2)
Track 12 accurately ripped (confidence 54) [B8539004] (AR v2)
Track 13 accurately ripped (confidence 54) [46FC250C] (AR v2)
Track 14 accurately ripped (confidence 54) [E7C8826E] (AR v2)
Track 15 accurately ripped (confidence 54) [B5EF47B7] (AR v2)
Track 16 accurately ripped (confidence 54) [63554F06] (AR v2)
Track 17 accurately ripped (confidence 54) [1BF5625E] (AR v2)
Track 18 accurately ripped (confidence 54) [49100D52] (AR v2)
Track 19 accurately ripped (confidence 52) [6D49A754] (AR v2)
Track 20 accurately ripped (confidence 53) [1E2EBC47] (AR v2)
Track 21 accurately ripped (confidence 53) [438E5822] (AR v2)

All tracks accurately ripped

End of status report

–– CUETools DB Plugin V2.1.6

[CTDB TOCID: rMa9X4QP.4ai7A4iV_3qy5K23CA-] found
Submit result: rMa9X4QP.4ai7A4iV_3qy5K23CA- has been confirmed
Track | CTDB Status
1 | (52/52) Accurately ripped
2 | (52/52) Accurately ripped
3 | (52/52) Accurately ripped
4 | (52/52) Accurately ripped
5 | (52/52) Accurately ripped
6 | (52/52) Accurately ripped
7 | (52/52) Accurately ripped
8 | (52/52) Accurately ripped
9 | (52/52) Accurately ripped
10 | (52/52) Accurately ripped
11 | (52/52) Accurately ripped
12 | (52/52) Accurately ripped
13 | (52/52) Accurately ripped
14 | (52/52) Accurately ripped
15 | (52/52) Accurately ripped
16 | (52/52) Accurately ripped
17 | (52/52) Accurately ripped
18 | (52/52) Accurately ripped
19 | (51/52) Accurately ripped
20 | (52/52) Accurately ripped
21 | (52/52) Accurately ripped


==== Log checksum A0E18AB17BFFF239848A7E668E38B62EF07BB5EB6329479344BCB443E0C22976 ====


Exact Audio Copy V1.3 from 2. September 2016

EAC extraction logfile from 21. August 2019, 13:54

Gottfried von der Goltz, Katharina Schreiber / Vivaldi - I concerti di Dresda

Used drive : ATAPI iHAS124 F Adapter: 1 ID: 0

Read mode : Secure
Utilize accurate stream : Yes
Defeat audio cache : Yes
Make use of C2 pointers : No

Read offset correction : 6
Overread into Lead-In and Lead-Out : No
Fill up missing offset samples with silence : Yes
Delete leading and trailing silent blocks : No
Null samples used in CRC calculations : Yes
Used interface : Native Win32 interface for Win NT & 2000

Used output format : User Defined Encoder
Selected bitrate : 1024 kBit/s
Quality : High
Add ID3 tag : No
Command line compressor : C:\Program Files (x86)\Exact Audio Copy\FLAC\FLAC.EXE
Additional command line options : -6 -V -T "ARTIST=%artist%" -T "TITLE=%title%" -T "ALBUM=%albumtitle%" -T "DATE=%year%" -T "TRACKNUMBER=%tracknr%" -T "GENRE=%genre%" -T "COMMENT=%comment%" -T "BAND=%albuminterpret%" -T "ALBUMARTIST=%albuminterpret%" -T "COMPOSER=%composer%" %haslyrics%–tag-from-file=LYRICS="%lyricsfile%"%haslyrics% -T "DISCNUMBER=%cdnumber%" -T "TOTALDISCS=%totalcds%" -T "TOTALTRACKS=%numtracks%" %hascover%–picture="%coverfile%"%hascover% %source% -o %dest%


TOC of the extracted CD

Track | Start | Length | Start sector | End sector
––––––––––––––––––––––––––––-
1 | 0:00.00 | 3:49.18 | 0 | 17192
2 | 3:49.18 | 2:17.50 | 17193 | 27517
3 | 6:06.68 | 3:34.69 | 27518 | 43636
4 | 9:41.62 | 4:43.07 | 43637 | 64868
5 | 14:24.69 | 2:54.59 | 64869 | 77977
6 | 17:19.53 | 4:48.05 | 77978 | 99582
7 | 22:07.58 | 4:48.09 | 99583 | 121191
8 | 26:55.67 | 2:14.09 | 121192 | 131250
9 | 29:10.01 | 4:01.71 | 131251 | 149396
10 | 33:11.72 | 1:34.23 | 149397 | 156469
11 | 34:46.20 | 0:45.27 | 156470 | 159871
12 | 35:31.47 | 0:57.28 | 159872 | 164174
13 | 36:29.00 | 2:01.16 | 164175 | 173265
14 | 38:30.16 | 4:17.45 | 173266 | 192585
15 | 42:47.61 | 3:23.72 | 192586 | 207882
16 | 46:11.58 | 3:30.34 | 207883 | 223666


Range status and errors

Selected range

Filename C:\EACRip\VIVALDI NAIVE EDITION\VIVALDI - CONCERTOS (naive, 6CD) [Boxset](2012)\6. Vivaldi - I concerti di Dresda (Gottfried von der Goltz, Freiburger Barockorchester) (2002)\CD\Vivaldi - I concerti di Dresda - Freiburger Barockorchester.wav

Peak level 95.8 %
Extraction speed 8.1 X
Range quality 100.0 %
Test CRC 842A7707
Copy CRC 842A7707
Copy OK

No errors occurred


AccurateRip summary

Track 1 accurately ripped (confidence 40) [C156AEE1] (AR v2)
Track 2 accurately ripped (confidence 40) [A4FD4E86] (AR v2)
Track 3 accurately ripped (confidence 40) [FF57E8AD] (AR v2)
Track 4 accurately ripped (confidence 40) [FAA3B461] (AR v2)
Track 5 accurately ripped (confidence 40) [00EE5B23] (AR v2)
Track 6 accurately ripped (confidence 40) [6D2BF231] (AR v2)
Track 7 accurately ripped (confidence 40) [12275DDE] (AR v2)
Track 8 accurately ripped (confidence 40) [C76E3B39] (AR v2)
Track 9 accurately ripped (confidence 40) [684AAC48] (AR v2)
Track 10 accurately ripped (confidence 40) [1ABF7D57] (AR v2)
Track 11 accurately ripped (confidence 40) [C96B76B2] (AR v2)
Track 12 accurately ripped (confidence 40) [81EADEA1] (AR v2)
Track 13 accurately ripped (confidence 40) [E43B9C53] (AR v2)
Track 14 accurately ripped (confidence 40) [932F7C88] (AR v2)
Track 15 accurately ripped (confidence 40) [1DE10FBC] (AR v2)
Track 16 accurately ripped (confidence 40) [F2C1DB9E] (AR v2)

All tracks accurately ripped

End of status report

–– CUETools DB Plugin V2.1.6

[CTDB TOCID: NJrAZ8AxhXnDxUO89ww1g8IFzHw-] found
Submit result: NJrAZ8AxhXnDxUO89ww1g8IFzHw- has been confirmed
Track | CTDB Status
1 | (53/54) Accurately ripped
2 | (53/54) Accurately ripped
3 | (53/54) Accurately ripped
4 | (52/54) Accurately ripped
5 | (52/54) Accurately ripped
6 | (52/54) Accurately ripped
7 | (53/54) Accurately ripped
8 | (53/54) Accurately ripped
9 | (53/54) Accurately ripped
10 | (53/54) Accurately ripped
11 | (53/54) Accurately ripped
12 | (53/54) Accurately ripped
13 | (53/54) Accurately ripped
14 | (52/54) Accurately ripped
15 | (53/54) Accurately ripped
16 | (53/54) Accurately ripped


==== Log checksum CDAA3FE0CB34BAE632A9706B89E0E5BBAD4AC7AAA6B31DABBEF925512452E4CD ====


Antonio Vivaldi - Concertos Vol I [6CDs] (2012)