Tags
Language
Tags

Antonio Vivaldi - Concertos Vol II [6CDs] (2013)

Posted By: ArlegZ
Antonio Vivaldi - Concertos Vol II [6CDs] (2013)

Antonio Vivaldi - Concertos Vol II [6CDs] (2013)
EAC | FLAC | Image (Cue & Log) ~ 1,85 Gb | TT: 6h 41m | Scans included
Classical | Label: Naïve | # OP 30556 | Recorded: 1994-2011

Fireworks, virtuosity and bravura pieces are essential ingredients of Vivaldi’s concerto oeuvre. Discover or rediscover Vivaldi’s concertos played by the most prestigious artists.

Performer:
CD1: Concerti per flauto traversiere
Academia Montis Regalis
Barthold Kuijken, flute & conductor
CD2: Concerti per vari strumenti
Orchestra Barocca Zefiro
Alfredo Bernardini, oboe & conductor
CD3: Concerti per violino I "La caccia"
Academia Montis Regalis
Enrico Onofri, violin & conductor
CD4: Concerti per violoncello II
Christophe Coin, cello
Il Giardino Armonico
Giovanni Antonini, conductor
CD5: Concerti per oboe
Zefiro
Alfredo Bernardini, oboe & conductor
CD6: Concerti per fagotto II
Sergio Azzolini, bassoon
L'Aura Soave Cremona
Diego Cantalupi, archlute & conductor


CD1: Concerti per flauto traversiere
Concerto in Mi minore per flauto traversiere, archi e basso continuo RV 432
01. I. Allegro
Concerto in Sol maggiore per flauto traversiere, archi e basso continuo RV 436
02. I. Allegro
03. II. Largo
04. III. Allegro
Concerto in Re maggiore per flauto traversiere, archi e basso continuo RV 429
05. I. Allegro
06. II. Andante
07. III. Allegro
Concerto in La minore per flauto traversiere, archi e basso continuo RV 440
08. I. Allegro non molto
09. II. Larghetto
10. III. Allegro
Concerto in Do maggiore per due flauti traversieri, archi e basso continuo RV 533
11. I. Allegro molto
12. II. Largo
13. III. [Allegro]
Concerto in Sol maggiore per flauto traversiere, archi e basso continuo RV 438
14. I. Allegro
15. II. Andante
16. III. Allegro
Concerto in Sol maggiore per flauto traversiere, archi e basso continuo RV 438
17. I. Allegro
Concerto in Re maggiore per flauto traversiere, archi e basso continuo RV 427
18. I. Allegro
19. II. Largo
20. III. [Allegro]
Concerto in Mi minore per flauto traversiere, archi e basso continuo RV 431
21. I. Allegro
22. III. Allegro

CD2: Concerti per vari strumenti
Concerto in Do maggiore per due oboi, due clarinetti, archi e basso continuo RV 559
01. I. Larghetto - [Allegro]
02. II. Largo
03. III. Allegro
Concerto in La minore per fagotto, archi e basso continuo RV 497
04. I. Allegro molto
05. II. Andante molto
06. III. Allegro
Concerto in Re minore per due violini, due flauti dolci, due oboi, fagotto, archi e basso continuo RV 566
07. I. Allegro assai
08. II. Largo
09. III. Allegro
Concerto in Do maggiore per due oboi, archi e basso continuo RV 534
10. I. Allegro
11. II. Largo
12. III. Allegro
Concerto in Si bemolle maggiore per oboe, violino, archi e basso continuo RV 548
13. I. Allegro
14. II. Largo
15. III. Allegro
Concerto in Re minore per oboe, archi e basso continuo RV 454
16. I. Allegro
17. II. Largo
18. III. Allegro
Concerto in Do maggiore per due oboi, due clarinetti, archi e basso continuo RV 560
19. I. Larghetto - Allegro
20. II. Largo
21. III. [Allegro]

CD3: Concerti per violino I "La caccia"
Concerto "Grosso Mogul" in Re maggiore per violino, archi e basso continuo RV 208
01. I. Allegro
02. II. Recitativo [Grave]
03. III. Allegro
Concerto in Sol minore per violino, archi e basso continuo RV 332
04. I. Allegro
05. II. Largo
06. III. Allegro
07. RV 234 - Concerto "L'Inquietudine" in Re maggiore per violino, archi e basso continuo
07. I. Allegro molto
08. II. Largo
09. III. Allegro
Concerto "Il Sospetto" in Do minore per violino, archi e basso continuo RV 199
10. I. Allegro
11. II. Andante
12. III. Allegro
Concerto "La Caccia" in Si bemolle maggiore per violino, archi e basso continuo RV 362
13. I. Allegro
14. II. Adagio
15. III. Allegro
Concerto "Il Riposo" in Mi maggiore per violino, archi e basso continuo RV 270
16. I. Allegro
17. II. Adagio
18. III. Allegro

CD4: Concerti per violoncello II
Concerto in Fa maggiore per violoncello, archi e basso continuo RV 411
01. I. Allegro
02. II. Largo
03. III. Allegro molto
Concerto in Do minore per violoncello, archi e basso continuo RV 401
04. I. Allegro non molto [Andante poco mosso]
05. II. Adagio
06. III. Allegro ma non molto
Concerto in Mi bemolle maggiore per violoncello, archi e basso continuo RV 408
07. I. Allegro non molto
08. II. Largo
09. III. Allegro
Concerto in Sol minore per violoncello, archi e basso continuo RV 417
10. I. Allegro
11. II. Andante
12. III. Allegro
Concerto in Do maggiore per violoncello, archi e basso continuo RV 399
13. I. Allegro
14. II. Largo
15. III. Allegro
Concerto in Re maggiore per violoncello, archi e basso continuo RV 403
16. I. Allegro
17. II. Andante e spiritoso
18. III. Allegro
Concerto in La minore per violoncello, archi e basso continuo RV 422
19. I. Allegro
20. II. Largo cantabile
21. III. Allegro

CD5: Concerti per oboe
Concerto in Do maggiore per oboe, archi e basso continuo RV447
01. I. Allegro non molto
02. II. Larghetto
03. III. Minuetto
Concerto in Fa maggiore per oboe, archi e basso continuo RV455
04. I. Allegro
05. II. Largo
06. III. Allegro
Concerto in Do maggiore per oboe, archi e basso continuo RV451
07. I. Allegro molto
08. II. Largo
09. III. Allegro
Concerto in La minore per oboe, archi e basso continuo RV463
10. I. Allegro
11. II. Largo
12. III. Allegro
Concerto in Fa maggiore per oboe, archi e basso continuo RV457
13. I. Allegro non molto
14. II. Andante
15. III. Allegro molto
Concerto in Re maggiore per oboe, archi e basso continuo RV453
16. I. Allegro
17. II. Largo
18. III. Allegro
Concerto in Do maggiore per oboe, archi e basso continuo RV450
19. I. Allegro molto
20. II. Larghetto
21. III. Allegro

CD6: Concerti per fagotto II
Concerto in La minore per fagotto, archi e basso continuo RV 499
01. I. Allegro
02. II. Largo
03. III. Allegro
Concerto in Do maggiore per fagotto, archi e basso continuo RV 472
04. I. Allegro non molto
05. II. Andante molto
06. III. Allegro
Concerto in Fa maggiore per fagotto, archi e basso continuo RV 490
07. I. Allegro
08. II. Larghetto
09. III. Allegro
Concerto in Sol minore per fagotto, archi e basso continuo RV 496
10. I. [Senza indicazione di tempo]
11. II. Largo
12. III. [Senza indicazione di tempo]
Concerto in Si bemolle maggiore per fagotto, archi e basso continuo RV 504
13. I. Allegro ma poco
14. II. Larghetto
15. III. Allegro
Concerto in Mi bemolle maggiore per fagotto, archi e basso continuo RV 483
16. I. Presto
17. II. Larghetto
18. III. Allegro
Concerto in Do maggiore per fagotto, archi e basso continuo RV 470
19. I. Allegro non molto
20. II. Larghetto
21. III. Allegro



Exact Audio Copy V1.3 from 2. September 2016

EAC extraction logfile from 21. August 2019, 14:45

Barthold Kuijken / Vivaldi - Concerti per flauto traversiere

Used drive : ATAPI iHAS124 F Adapter: 1 ID: 0

Read mode : Secure
Utilize accurate stream : Yes
Defeat audio cache : Yes
Make use of C2 pointers : No

Read offset correction : 6
Overread into Lead-In and Lead-Out : No
Fill up missing offset samples with silence : Yes
Delete leading and trailing silent blocks : No
Null samples used in CRC calculations : Yes
Used interface : Native Win32 interface for Win NT & 2000

Used output format : User Defined Encoder
Selected bitrate : 1024 kBit/s
Quality : High
Add ID3 tag : No
Command line compressor : C:\Program Files (x86)\Exact Audio Copy\FLAC\FLAC.EXE
Additional command line options : -6 -V -T "ARTIST=%artist%" -T "TITLE=%title%" -T "ALBUM=%albumtitle%" -T "DATE=%year%" -T "TRACKNUMBER=%tracknr%" -T "GENRE=%genre%" -T "COMMENT=%comment%" -T "BAND=%albuminterpret%" -T "ALBUMARTIST=%albuminterpret%" -T "COMPOSER=%composer%" %haslyrics%–tag-from-file=LYRICS="%lyricsfile%"%haslyrics% -T "DISCNUMBER=%cdnumber%" -T "TOTALDISCS=%totalcds%" -T "TOTALTRACKS=%numtracks%" %hascover%–picture="%coverfile%"%hascover% %source% -o %dest%


TOC of the extracted CD

Track | Start | Length | Start sector | End sector
––––––––––––––––––––––––––––-
1 | 0:00.00 | 2:52.64 | 0 | 12963
2 | 2:52.64 | 2:56.63 | 12964 | 26226
3 | 5:49.52 | 3:00.23 | 26227 | 39749
4 | 8:50.00 | 2:42.68 | 39750 | 51967
5 | 11:32.68 | 2:34.26 | 51968 | 63543
6 | 14:07.19 | 2:08.36 | 63544 | 73179
7 | 16:15.55 | 3:37.14 | 73180 | 89468
8 | 19:52.69 | 3:26.52 | 89469 | 104970
9 | 23:19.46 | 1:57.65 | 104971 | 113810
10 | 25:17.36 | 3:05.06 | 113811 | 127691
11 | 28:22.42 | 2:36.39 | 127692 | 139430
12 | 30:59.06 | 2:08.10 | 139431 | 149040
13 | 33:07.16 | 2:08.46 | 149041 | 158686
14 | 35:15.62 | 3:31.45 | 158687 | 174556
15 | 38:47.32 | 2:40.00 | 174557 | 186556
16 | 41:27.32 | 3:24.49 | 186557 | 201905
17 | 44:52.06 | 3:55.16 | 201906 | 219546
18 | 48:47.22 | 2:54.16 | 219547 | 232612
19 | 51:41.38 | 3:11.63 | 232613 | 247000
20 | 54:53.26 | 2:23.52 | 247001 | 257777
21 | 57:17.03 | 2:45.34 | 257778 | 270186
22 | 60:02.37 | 2:16.58 | 270187 | 280444


Range status and errors

Selected range

Filename C:\EACRip\VIVALDI NAIVE EDITION\VIVALDI - CONCERTOS 2 (naive, 6CD) [Boxset](2013)\1. Vivaldi - Concerti per flauto traversiere (Barthold Kuijken) (2002)\Vivaldi - Concerti per flauto traversiere - Barthold Kuijken.wav

Peak level 84.4 %
Extraction speed 8.5 X
Range quality 100.0 %
Test CRC 268AA876
Copy CRC 268AA876
Copy OK

No errors occurred


AccurateRip summary

Track 1 accurately ripped (confidence 50) [879EE59A] (AR v2)
Track 2 accurately ripped (confidence 50) [9523A1F4] (AR v2)
Track 3 accurately ripped (confidence 50) [8A6DFF4E] (AR v2)
Track 4 accurately ripped (confidence 50) [F43A5233] (AR v2)
Track 5 accurately ripped (confidence 50) [4F7BABDA] (AR v2)
Track 6 accurately ripped (confidence 50) [394726D9] (AR v2)
Track 7 accurately ripped (confidence 50) [D647E752] (AR v2)
Track 8 accurately ripped (confidence 50) [6BBCB9C1] (AR v2)
Track 9 accurately ripped (confidence 49) [DFFF261E] (AR v2)
Track 10 accurately ripped (confidence 49) [B8E85A2A] (AR v2)
Track 11 accurately ripped (confidence 50) [6E1583E0] (AR v2)
Track 12 accurately ripped (confidence 49) [094656E2] (AR v2)
Track 13 accurately ripped (confidence 50) [AF8170DC] (AR v2)
Track 14 accurately ripped (confidence 49) [D8B1DA0C] (AR v2)
Track 15 accurately ripped (confidence 49) [4A8D453C] (AR v2)
Track 16 accurately ripped (confidence 49) [23B7CB3D] (AR v2)
Track 17 accurately ripped (confidence 49) [039D3A53] (AR v2)
Track 18 accurately ripped (confidence 49) [8F0DFACF] (AR v2)
Track 19 accurately ripped (confidence 49) [1942423D] (AR v2)
Track 20 accurately ripped (confidence 49) [3C33FDDE] (AR v2)
Track 21 accurately ripped (confidence 49) [D93E6493] (AR v2)
Track 22 accurately ripped (confidence 49) [AF2BC1EA] (AR v2)

All tracks accurately ripped

End of status report

–– CUETools DB Plugin V2.1.6

[CTDB TOCID: hDGpxWZFNGB28w.umgiwrVwpmj4-] found
Submit result: hDGpxWZFNGB28w.umgiwrVwpmj4- has been confirmed
Track | CTDB Status
1 | (63/64) Accurately ripped
2 | (63/64) Accurately ripped
3 | (63/64) Accurately ripped
4 | (63/64) Accurately ripped
5 | (63/64) Accurately ripped
6 | (63/64) Accurately ripped
7 | (63/64) Accurately ripped
8 | (63/64) Accurately ripped
9 | (63/64) Accurately ripped
10 | (63/64) Accurately ripped
11 | (63/64) Accurately ripped
12 | (63/64) Accurately ripped
13 | (63/64) Accurately ripped
14 | (63/64) Accurately ripped
15 | (63/64) Accurately ripped
16 | (63/64) Accurately ripped
17 | (63/64) Accurately ripped
18 | (63/64) Accurately ripped
19 | (63/64) Accurately ripped
20 | (63/64) Accurately ripped
21 | (63/64) Accurately ripped
22 | (63/64) Accurately ripped


==== Log checksum 5F53D03F79192563BD585E612654287E3284CB2A52D3B2B807A33D19DCBACADF ====


Exact Audio Copy V1.3 from 2. September 2016

EAC extraction logfile from 21. August 2019, 16:50

Alfredo Bernardini, Paolo Grazzi, Lorenzo Coppola, Daniele Latini / Vivaldi - Concerti per vari strumenti

Used drive : ATAPI iHAS124 F Adapter: 1 ID: 0

Read mode : Secure
Utilize accurate stream : Yes
Defeat audio cache : Yes
Make use of C2 pointers : No

Read offset correction : 6
Overread into Lead-In and Lead-Out : No
Fill up missing offset samples with silence : Yes
Delete leading and trailing silent blocks : No
Null samples used in CRC calculations : Yes
Used interface : Native Win32 interface for Win NT & 2000

Used output format : User Defined Encoder
Selected bitrate : 1024 kBit/s
Quality : High
Add ID3 tag : No
Command line compressor : C:\Program Files (x86)\Exact Audio Copy\FLAC\FLAC.EXE
Additional command line options : -6 -V -T "ARTIST=%artist%" -T "TITLE=%title%" -T "ALBUM=%albumtitle%" -T "DATE=%year%" -T "TRACKNUMBER=%tracknr%" -T "GENRE=%genre%" -T "COMMENT=%comment%" -T "BAND=%albuminterpret%" -T "ALBUMARTIST=%albuminterpret%" -T "COMPOSER=%composer%" %haslyrics%–tag-from-file=LYRICS="%lyricsfile%"%haslyrics% -T "DISCNUMBER=%cdnumber%" -T "TOTALDISCS=%totalcds%" -T "TOTALTRACKS=%numtracks%" %hascover%–picture="%coverfile%"%hascover% %source% -o %dest%


TOC of the extracted CD

Track | Start | Length | Start sector | End sector
––––––––––––––––––––––––––––-
1 | 0:00.00 | 3:29.12 | 0 | 15686
2 | 3:29.12 | 4:38.73 | 15687 | 36609
3 | 8:08.10 | 3:24.36 | 36610 | 51945
4 | 11:32.46 | 3:38.45 | 51946 | 68340
5 | 15:11.16 | 3:14.67 | 68341 | 82957
6 | 18:26.08 | 2:53.13 | 82958 | 95945
7 | 21:19.21 | 2:34.70 | 95946 | 107565
8 | 23:54.16 | 2:30.46 | 107566 | 118861
9 | 26:24.62 | 3:03.21 | 118862 | 132607
10 | 29:28.08 | 2:49.59 | 132608 | 145341
11 | 32:17.67 | 3:10.66 | 145342 | 159657
12 | 35:28.58 | 2:38.23 | 159658 | 171530
13 | 38:07.06 | 3:41.73 | 171531 | 188178
14 | 41:49.04 | 2:56.43 | 188179 | 201421
15 | 44:45.47 | 2:12.26 | 201422 | 211347
16 | 46:57.73 | 2:58.04 | 211348 | 224701
17 | 49:56.02 | 2:14.26 | 224702 | 234777
18 | 52:10.28 | 2:30.20 | 234778 | 246047
19 | 54:40.48 | 4:23.25 | 246048 | 265797
20 | 59:03.73 | 2:09.13 | 265798 | 275485
21 | 61:13.11 | 2:54.42 | 275486 | 288577


Range status and errors

Selected range

Filename C:\EACRip\VIVALDI NAIVE EDITION\VIVALDI - CONCERTOS 2 (naive, 6CD) [Boxset](2013)\2. Vivaldi - Concerti per vari strumenti (Alfredo Bernardini & Zefiro) (2005)\Vivaldi - Concerti per vari strumenti - Alfredo Bernardini, Zefiro.wav

Peak level 100.0 %
Extraction speed 8.5 X
Range quality 100.0 %
Test CRC 6DFA1D50
Copy CRC 6DFA1D50
Copy OK

No errors occurred


AccurateRip summary

Track 1 accurately ripped (confidence 45) [2D85D67F] (AR v2)
Track 2 accurately ripped (confidence 45) [8914DE97] (AR v2)
Track 3 accurately ripped (confidence 45) [52E777B5] (AR v2)
Track 4 accurately ripped (confidence 42) [D2680CF9] (AR v2)
Track 5 accurately ripped (confidence 43) [463BFBE1] (AR v2)
Track 6 accurately ripped (confidence 44) [69375736] (AR v2)
Track 7 accurately ripped (confidence 44) [5F39ECF2] (AR v2)
Track 8 accurately ripped (confidence 44) [5F682065] (AR v2)
Track 9 accurately ripped (confidence 44) [CC59953A] (AR v2)
Track 10 accurately ripped (confidence 44) [4602AD1B] (AR v2)
Track 11 accurately ripped (confidence 44) [B28AD775] (AR v2)
Track 12 accurately ripped (confidence 44) [8387B8E5] (AR v2)
Track 13 accurately ripped (confidence 43) [B7C08E99] (AR v2)
Track 14 accurately ripped (confidence 44) [6A29D63C] (AR v2)
Track 15 accurately ripped (confidence 44) [34A8D8D5] (AR v2)
Track 16 accurately ripped (confidence 44) [A98C9E44] (AR v2)
Track 17 accurately ripped (confidence 44) [3F0D6387] (AR v2)
Track 18 accurately ripped (confidence 44) [013DC5D8] (AR v2)
Track 19 accurately ripped (confidence 44) [784E1C82] (AR v2)
Track 20 accurately ripped (confidence 45) [9DCB8C62] (AR v2)
Track 21 accurately ripped (confidence 44) [77C99D62] (AR v2)

All tracks accurately ripped

End of status report

–– CUETools DB Plugin V2.1.6

[CTDB TOCID: eFB9842yo36skfLZrbTgVrrIieE-] found
Submit result: already submitted
Track | CTDB Status
1 | (61/61) Accurately ripped
2 | (61/61) Accurately ripped
3 | (61/61) Accurately ripped
4 | (61/61) Accurately ripped
5 | (61/61) Accurately ripped
6 | (61/61) Accurately ripped
7 | (61/61) Accurately ripped
8 | (61/61) Accurately ripped
9 | (61/61) Accurately ripped
10 | (61/61) Accurately ripped
11 | (61/61) Accurately ripped
12 | (61/61) Accurately ripped
13 | (61/61) Accurately ripped
14 | (61/61) Accurately ripped
15 | (61/61) Accurately ripped
16 | (61/61) Accurately ripped
17 | (61/61) Accurately ripped
18 | (61/61) Accurately ripped
19 | (61/61) Accurately ripped
20 | (60/61) Accurately ripped
21 | (60/61) Accurately ripped


==== Log checksum B842B11F39ECA1FC48CE51A3E17C6710C67CE8FFC755507187FE7AEC2BCE584B ====


Exact Audio Copy V1.3 from 2. September 2016

EAC extraction logfile from 1. August 2019, 0:46

Enrico Onofri / Vivaldi - Concerti per violino Vol. 1 'La caccia'

Used drive : ATAPI iHAS124 F Adapter: 1 ID: 0

Read mode : Secure
Utilize accurate stream : Yes
Defeat audio cache : Yes
Make use of C2 pointers : No

Read offset correction : 6
Overread into Lead-In and Lead-Out : No
Fill up missing offset samples with silence : Yes
Delete leading and trailing silent blocks : No
Null samples used in CRC calculations : Yes
Used interface : Native Win32 interface for Win NT & 2000

Used output format : User Defined Encoder
Selected bitrate : 1024 kBit/s
Quality : High
Add ID3 tag : No
Command line compressor : C:\Program Files (x86)\Exact Audio Copy\FLAC\FLAC.EXE
Additional command line options : -6 -V -T "ARTIST=%artist%" -T "TITLE=%title%" -T "ALBUM=%albumtitle%" -T "DATE=%year%" -T "TRACKNUMBER=%tracknr%" -T "GENRE=%genre%" -T "COMMENT=%comment%" -T "BAND=%albuminterpret%" -T "ALBUMARTIST=%albuminterpret%" -T "COMPOSER=%composer%" %haslyrics%–tag-from-file=LYRICS="%lyricsfile%"%haslyrics% -T "DISCNUMBER=%cdnumber%" -T "TOTALDISCS=%totalcds%" -T "TOTALTRACKS=%numtracks%" %hascover%–picture="%coverfile%"%hascover% %source% -o %dest%


TOC of the extracted CD

Track | Start | Length | Start sector | End sector
––––––––––––––––––––––––––––-
1 | 0:00.00 | 5:23.24 | 0 | 24248
2 | 5:23.24 | 2:54.25 | 24249 | 37323
3 | 8:17.49 | 6:50.11 | 37324 | 68084
4 | 15:07.60 | 3:00.28 | 68085 | 81612
5 | 18:08.13 | 3:15.13 | 81613 | 96250
6 | 21:23.26 | 3:28.10 | 96251 | 111860
7 | 24:51.36 | 1:44.57 | 111861 | 119717
8 | 26:36.18 | 1:51.64 | 119718 | 128106
9 | 28:28.07 | 2:45.37 | 128107 | 140518
10 | 31:13.44 | 4:10.11 | 140519 | 159279
11 | 35:23.55 | 2:13.12 | 159280 | 169266
12 | 37:36.67 | 2:44.66 | 169267 | 181632
13 | 40:21.58 | 2:51.53 | 181633 | 194510
14 | 43:13.36 | 2:27.44 | 194511 | 205579
15 | 45:41.05 | 2:21.01 | 205580 | 216155
16 | 48:02.06 | 3:18.22 | 216156 | 231027
17 | 51:20.28 | 1:43.02 | 231028 | 238754
18 | 53:03.30 | 2:30.43 | 238755 | 250047


Range status and errors

Selected range

Filename C:\EACRip\VIVALDI - VIOLIN CONCERTOS (naive, 6CD) [Boxset](2013)\CD2 - per violino I\Vivaldi - Concerti per violino Vol. 1 'La caccia' - Enrico Onofri.wav

Peak level 96.5 %
Extraction speed 7.9 X
Range quality 99.9 %
Test CRC 40DDA00F
Copy CRC 40DDA00F
Copy OK

No errors occurred


AccurateRip summary

Track 1 accurately ripped (confidence 41) [57443EE6] (AR v2)
Track 2 accurately ripped (confidence 41) [B87C6036] (AR v2)
Track 3 accurately ripped (confidence 41) [ADEA2037] (AR v2)
Track 4 accurately ripped (confidence 41) [C1DF2709] (AR v2)
Track 5 accurately ripped (confidence 41) [F29F7156] (AR v2)
Track 6 accurately ripped (confidence 41) [285864A8] (AR v2)
Track 7 accurately ripped (confidence 41) [58D696C1] (AR v2)
Track 8 accurately ripped (confidence 41) [682370AE] (AR v2)
Track 9 accurately ripped (confidence 41) [23B3B286] (AR v2)
Track 10 accurately ripped (confidence 41) [15423584] (AR v2)
Track 11 accurately ripped (confidence 41) [D9BD5897] (AR v2)
Track 12 accurately ripped (confidence 41) [9F473EAF] (AR v2)
Track 13 accurately ripped (confidence 41) [54431850] (AR v2)
Track 14 accurately ripped (confidence 41) [A2C27AB9] (AR v2)
Track 15 accurately ripped (confidence 41) [ADF09E30] (AR v2)
Track 16 accurately ripped (confidence 41) [AFF189F5] (AR v2)
Track 17 accurately ripped (confidence 41) [CFA0354E] (AR v2)
Track 18 accurately ripped (confidence 41) [96DC4DC2] (AR v2)

All tracks accurately ripped

End of status report

–– CUETools DB Plugin V2.1.6

[CTDB TOCID: cErNPJvoAD9gCiThPxyHpOBK4n0-] found
Submit result: cErNPJvoAD9gCiThPxyHpOBK4n0- has been confirmed
Track | CTDB Status
1 | (43/43) Accurately ripped
2 | (43/43) Accurately ripped
3 | (43/43) Accurately ripped
4 | (43/43) Accurately ripped
5 | (43/43) Accurately ripped
6 | (43/43) Accurately ripped
7 | (43/43) Accurately ripped
8 | (43/43) Accurately ripped
9 | (43/43) Accurately ripped
10 | (43/43) Accurately ripped
11 | (43/43) Accurately ripped
12 | (43/43) Accurately ripped
13 | (43/43) Accurately ripped
14 | (43/43) Accurately ripped
15 | (43/43) Accurately ripped
16 | (43/43) Accurately ripped
17 | (43/43) Accurately ripped
18 | (43/43) Accurately ripped


==== Log checksum 53A765070071BBA5B1963395B2433D73B959A671209FCCA292D5612841A2F266 ====


Exact Audio Copy V1.3 from 2. September 2016

EAC extraction logfile from 21. August 2019, 17:19

Christophe Coin; Giovanni Antonini / Vivaldi - Cencerti per violoncello II

Used drive : ATAPI iHAS124 F Adapter: 1 ID: 0

Read mode : Secure
Utilize accurate stream : Yes
Defeat audio cache : Yes
Make use of C2 pointers : No

Read offset correction : 6
Overread into Lead-In and Lead-Out : No
Fill up missing offset samples with silence : Yes
Delete leading and trailing silent blocks : No
Null samples used in CRC calculations : Yes
Used interface : Native Win32 interface for Win NT & 2000

Used output format : User Defined Encoder
Selected bitrate : 1024 kBit/s
Quality : High
Add ID3 tag : No
Command line compressor : C:\Program Files (x86)\Exact Audio Copy\FLAC\FLAC.EXE
Additional command line options : -6 -V -T "ARTIST=%artist%" -T "TITLE=%title%" -T "ALBUM=%albumtitle%" -T "DATE=%year%" -T "TRACKNUMBER=%tracknr%" -T "GENRE=%genre%" -T "COMMENT=%comment%" -T "BAND=%albuminterpret%" -T "ALBUMARTIST=%albuminterpret%" -T "COMPOSER=%composer%" %haslyrics%–tag-from-file=LYRICS="%lyricsfile%"%haslyrics% -T "DISCNUMBER=%cdnumber%" -T "TOTALDISCS=%totalcds%" -T "TOTALTRACKS=%numtracks%" %hascover%–picture="%coverfile%"%hascover% %source% -o %dest%


TOC of the extracted CD

Track | Start | Length | Start sector | End sector
––––––––––––––––––––––––––––-
1 | 0:00.00 | 3:01.71 | 0 | 13645
2 | 3:01.71 | 1:11.74 | 13646 | 19044
3 | 4:13.70 | 1:59.38 | 19045 | 28007
4 | 6:13.33 | 4:49.39 | 28008 | 49721
5 | 11:02.72 | 3:06.16 | 49722 | 63687
6 | 14:09.13 | 2:57.06 | 63688 | 76968
7 | 17:06.19 | 3:32.49 | 76969 | 92917
8 | 20:38.68 | 4:20.02 | 92918 | 112419
9 | 24:58.70 | 2:03.28 | 112420 | 121672
10 | 27:02.23 | 2:56.06 | 121673 | 134878
11 | 29:58.29 | 3:08.27 | 134879 | 149005
12 | 33:06.56 | 3:02.47 | 149006 | 162702
13 | 36:09.28 | 2:18.32 | 162703 | 173084
14 | 38:27.60 | 2:22.51 | 173085 | 183785
15 | 40:50.36 | 2:16.68 | 183786 | 194053
16 | 43:07.29 | 3:15.03 | 194054 | 208681
17 | 46:22.32 | 1:56.33 | 208682 | 217414
18 | 48:18.65 | 2:36.54 | 217415 | 229168
19 | 50:55.44 | 3:40.56 | 229169 | 245724
20 | 54:36.25 | 2:59.11 | 245725 | 259160
21 | 57:35.36 | 2:40.56 | 259161 | 271216


Range status and errors

Selected range

Filename C:\EACRip\VIVALDI NAIVE EDITION\VIVALDI - CONCERTOS 2 (naive, 6CD) [Boxset](2013)\4. Vivaldi - Cencerti per violoncello II (Christophe Coin, Giovanni Antonini) (2008)\Vivaldi - Cencerti per violoncello II - Christophe Coin, Il Giardino Armonic

Peak level 100.0 %
Extraction speed 8.5 X
Range quality 100.0 %
Test CRC 0880E05A
Copy CRC 0880E05A
Copy OK

No errors occurred


AccurateRip summary

Track 1 accurately ripped (confidence 48) [40E1BC1C] (AR v2)
Track 2 accurately ripped (confidence 48) [2BF66B70] (AR v2)
Track 3 accurately ripped (confidence 48) [09C0074D] (AR v2)
Track 4 accurately ripped (confidence 47) [7F0B6DC3] (AR v2)
Track 5 accurately ripped (confidence 48) [089E40D4] (AR v2)
Track 6 accurately ripped (confidence 48) [0C85834F] (AR v2)
Track 7 accurately ripped (confidence 48) [F33C8ABE] (AR v2)
Track 8 accurately ripped (confidence 47) [5354EA0C] (AR v2)
Track 9 accurately ripped (confidence 48) [E3D23AAC] (AR v2)
Track 10 accurately ripped (confidence 48) [500D5694] (AR v2)
Track 11 accurately ripped (confidence 48) [A5589D5C] (AR v2)
Track 12 accurately ripped (confidence 48) [C108644A] (AR v2)
Track 13 accurately ripped (confidence 48) [BD821880] (AR v2)
Track 14 accurately ripped (confidence 48) [4497512B] (AR v2)
Track 15 accurately ripped (confidence 48) [80405B05] (AR v2)
Track 16 accurately ripped (confidence 48) [598482FC] (AR v2)
Track 17 accurately ripped (confidence 48) [454AB313] (AR v2)
Track 18 accurately ripped (confidence 48) [134101CB] (AR v2)
Track 19 accurately ripped (confidence 48) [242F6E12] (AR v2)
Track 20 accurately ripped (confidence 48) [4F7AC7BA] (AR v2)
Track 21 accurately ripped (confidence 48) [21B6F800] (AR v2)

All tracks accurately ripped

End of status report

–– CUETools DB Plugin V2.1.6

[CTDB TOCID: kdKdRFrOcAhi1DHk353qZywbYy8-] found
Submit result: kdKdRFrOcAhi1DHk353qZywbYy8- has been confirmed
Track | CTDB Status
1 | (48/48) Accurately ripped
2 | (48/48) Accurately ripped
3 | (48/48) Accurately ripped
4 | (48/48) Accurately ripped
5 | (48/48) Accurately ripped
6 | (48/48) Accurately ripped
7 | (48/48) Accurately ripped
8 | (47/48) Accurately ripped
9 | (48/48) Accurately ripped
10 | (48/48) Accurately ripped
11 | (48/48) Accurately ripped
12 | (48/48) Accurately ripped
13 | (48/48) Accurately ripped
14 | (48/48) Accurately ripped
15 | (48/48) Accurately ripped
16 | (48/48) Accurately ripped
17 | (48/48) Accurately ripped
18 | (48/48) Accurately ripped
19 | (48/48) Accurately ripped
20 | (48/48) Accurately ripped
21 | (48/48) Accurately ripped


==== Log checksum 440A90E95ABE8607A9600E32B3C7AB23F668B2FB34B9CF996936F870709E3E43 ====


Exact Audio Copy V1.3 from 2. September 2016

EAC extraction logfile from 21. August 2019, 17:51

Alfredo Bernardini / Vivaldi - Concerti per oboe

Used drive : ATAPI iHAS124 F Adapter: 1 ID: 0

Read mode : Secure
Utilize accurate stream : Yes
Defeat audio cache : Yes
Make use of C2 pointers : No

Read offset correction : 6
Overread into Lead-In and Lead-Out : No
Fill up missing offset samples with silence : Yes
Delete leading and trailing silent blocks : No
Null samples used in CRC calculations : Yes
Used interface : Native Win32 interface for Win NT & 2000

Used output format : User Defined Encoder
Selected bitrate : 1024 kBit/s
Quality : High
Add ID3 tag : No
Command line compressor : C:\Program Files (x86)\Exact Audio Copy\FLAC\FLAC.EXE
Additional command line options : -6 -V -T "ARTIST=%artist%" -T "TITLE=%title%" -T "ALBUM=%albumtitle%" -T "DATE=%year%" -T "TRACKNUMBER=%tracknr%" -T "GENRE=%genre%" -T "COMMENT=%comment%" -T "BAND=%albuminterpret%" -T "ALBUMARTIST=%albuminterpret%" -T "COMPOSER=%composer%" %haslyrics%–tag-from-file=LYRICS="%lyricsfile%"%haslyrics% -T "DISCNUMBER=%cdnumber%" -T "TOTALDISCS=%totalcds%" -T "TOTALTRACKS=%numtracks%" %hascover%–picture="%coverfile%"%hascover% %source% -o %dest%


TOC of the extracted CD

Track | Start | Length | Start sector | End sector
––––––––––––––––––––––––––––-
1 | 0:00.00 | 4:58.13 | 0 | 22362
2 | 4:58.13 | 3:54.13 | 22363 | 39925
3 | 8:52.26 | 6:10.01 | 39926 | 67676
4 | 15:02.27 | 3:39.63 | 67677 | 84164
5 | 18:42.15 | 2:27.47 | 84165 | 95236
6 | 21:09.62 | 2:37.70 | 95237 | 107081
7 | 23:47.57 | 2:50.03 | 107082 | 119834
8 | 26:37.60 | 3:37.68 | 119835 | 136177
9 | 30:15.53 | 2:54.00 | 136178 | 149227
10 | 33:09.53 | 3:29.70 | 149228 | 164972
11 | 36:39.48 | 3:25.56 | 164973 | 180403
12 | 40:05.29 | 3:00.01 | 180404 | 193904
13 | 43:05.30 | 4:20.34 | 193905 | 213438
14 | 47:25.64 | 2:58.48 | 213439 | 226836
15 | 50:24.37 | 2:45.28 | 226837 | 239239
16 | 53:09.65 | 3:35.29 | 239240 | 255393
17 | 56:45.19 | 1:59.17 | 255394 | 264335
18 | 58:44.36 | 3:02.62 | 264336 | 278047
19 | 61:47.23 | 4:03.37 | 278048 | 296309
20 | 65:50.60 | 3:06.35 | 296310 | 310294
21 | 68:57.20 | 2:46.37 | 310295 | 322781


Range status and errors

Selected range

Filename C:\EACRip\VIVALDI NAIVE EDITION\VIVALDI - CONCERTOS 2 (naive, 6CD) [Boxset](2013)\5. Vivaldi - Concerti per oboe (Alfredo Bernardini & Zefiro) (2009)\Vivaldi - Concerti per oboe - Alfredo Bernardini.wav

Peak level 97.1 %
Extraction speed 8.9 X
Range quality 100.0 %
Test CRC 663F88FD
Copy CRC 663F88FD
Copy OK

No errors occurred


AccurateRip summary

Track 1 accurately ripped (confidence 43) [E1F1C5B0] (AR v2)
Track 2 accurately ripped (confidence 44) [880D4A34] (AR v2)
Track 3 accurately ripped (confidence 44) [7D671675] (AR v2)
Track 4 accurately ripped (confidence 44) [FCF55636] (AR v2)
Track 5 accurately ripped (confidence 44) [9B15B439] (AR v2)
Track 6 accurately ripped (confidence 44) [FDD11DC7] (AR v2)
Track 7 accurately ripped (confidence 44) [64B6929F] (AR v2)
Track 8 accurately ripped (confidence 45) [31599FCE] (AR v2)
Track 9 accurately ripped (confidence 45) [C537106D] (AR v2)
Track 10 accurately ripped (confidence 45) [146F50D3] (AR v2)
Track 11 accurately ripped (confidence 45) [E3FCE92F] (AR v2)
Track 12 accurately ripped (confidence 45) [D335BD0F] (AR v2)
Track 13 accurately ripped (confidence 45) [27992B48] (AR v2)
Track 14 accurately ripped (confidence 45) [FB4C970C] (AR v2)
Track 15 accurately ripped (confidence 45) [20B709C5] (AR v2)
Track 16 accurately ripped (confidence 45) [E7AF68CC] (AR v2)
Track 17 accurately ripped (confidence 45) [FC9641BF] (AR v2)
Track 18 accurately ripped (confidence 45) [9D516A35] (AR v2)
Track 19 accurately ripped (confidence 45) [29F9CC1B] (AR v2)
Track 20 accurately ripped (confidence 45) [035B00D5] (AR v2)
Track 21 accurately ripped (confidence 45) [F237E88A] (AR v2)

All tracks accurately ripped

End of status report

–– CUETools DB Plugin V2.1.6

[CTDB TOCID: 5k3Tzq0veD_k6RU3fQPCGJkp_IY-] found
Submit result: 5k3Tzq0veD_k6RU3fQPCGJkp_IY- has been confirmed
Track | CTDB Status
1 | (48/49) Accurately ripped
2 | (48/49) Accurately ripped
3 | (48/49) Accurately ripped
4 | (48/49) Accurately ripped
5 | (48/49) Accurately ripped
6 | (48/49) Accurately ripped
7 | (48/49) Accurately ripped
8 | (48/49) Accurately ripped
9 | (48/49) Accurately ripped
10 | (49/49) Accurately ripped
11 | (48/49) Accurately ripped
12 | (47/49) Accurately ripped
13 | (48/49) Accurately ripped
14 | (48/49) Accurately ripped
15 | (48/49) Accurately ripped
16 | (48/49) Accurately ripped
17 | (49/49) Accurately ripped
18 | (48/49) Accurately ripped
19 | (48/49) Accurately ripped
20 | (48/49) Accurately ripped
21 | (48/49) Accurately ripped


==== Log checksum F0D5B27C536649D69CCE140522FC51BDA0D14138135E033F943B06454D881B0F ====


Exact Audio Copy V1.3 from 2. September 2016

EAC extraction logfile from 21. August 2019, 18:32

Sergio Azzolini / Vivaldi: Concerti per fagotto II

Used drive : ATAPI iHAS124 F Adapter: 1 ID: 0

Read mode : Secure
Utilize accurate stream : Yes
Defeat audio cache : Yes
Make use of C2 pointers : No

Read offset correction : 6
Overread into Lead-In and Lead-Out : No
Fill up missing offset samples with silence : Yes
Delete leading and trailing silent blocks : No
Null samples used in CRC calculations : Yes
Used interface : Native Win32 interface for Win NT & 2000

Used output format : User Defined Encoder
Selected bitrate : 1024 kBit/s
Quality : High
Add ID3 tag : No
Command line compressor : C:\Program Files (x86)\Exact Audio Copy\FLAC\FLAC.EXE
Additional command line options : -6 -V -T "ARTIST=%artist%" -T "TITLE=%title%" -T "ALBUM=%albumtitle%" -T "DATE=%year%" -T "TRACKNUMBER=%tracknr%" -T "GENRE=%genre%" -T "COMMENT=%comment%" -T "BAND=%albuminterpret%" -T "ALBUMARTIST=%albuminterpret%" -T "COMPOSER=%composer%" %haslyrics%–tag-from-file=LYRICS="%lyricsfile%"%haslyrics% -T "DISCNUMBER=%cdnumber%" -T "TOTALDISCS=%totalcds%" -T "TOTALTRACKS=%numtracks%" %hascover%–picture="%coverfile%"%hascover% %source% -o %dest%


TOC of the extracted CD

Track | Start | Length | Start sector | End sector
––––––––––––––––––––––––––––-
1 | 0:00.00 | 3:24.51 | 0 | 15350
2 | 3:24.51 | 3:25.72 | 15351 | 30797
3 | 6:50.48 | 2:28.35 | 30798 | 41932
4 | 9:19.08 | 4:41.01 | 41933 | 63008
5 | 14:00.09 | 3:41.63 | 63009 | 79646
6 | 17:41.72 | 2:57.52 | 79647 | 92973
7 | 20:39.49 | 4:03.74 | 92974 | 111272
8 | 24:43.48 | 3:52.33 | 111273 | 128705
9 | 28:36.06 | 3:24.20 | 128706 | 144025
10 | 32:00.26 | 3:23.22 | 144026 | 159272
11 | 35:23.48 | 4:58.21 | 159273 | 181643
12 | 40:21.69 | 3:27.61 | 181644 | 197229
13 | 43:49.55 | 5:36.55 | 197230 | 222484
14 | 49:26.35 | 3:12.27 | 222485 | 236911
15 | 52:38.62 | 3:47.49 | 236912 | 253985
16 | 56:26.36 | 2:02.05 | 253986 | 263140
17 | 58:28.41 | 2:58.65 | 263141 | 276555
18 | 61:27.31 | 3:06.45 | 276556 | 290550
19 | 64:34.01 | 4:50.49 | 290551 | 312349
20 | 69:24.50 | 4:30.27 | 312350 | 332626
21 | 73:55.02 | 2:50.03 | 332627 | 345379


Range status and errors

Selected range

Filename C:\EACRip\VIVALDI NAIVE EDITION\VIVALDI - CONCERTOS 2 (naive, 6CD) [Boxset](2013)\6. Vivaldi - Concerti per fagotto II (Sergio Azzolini) (2011)\Vivaldi - Concerti per fagotto II - Sergio Azzolini, L'Aura Soave Cremona.wav

Peak level 100.0 %
Extraction speed 9.5 X
Range quality 100.0 %
Test CRC 7B518195
Copy CRC 7B518195
Copy OK

No errors occurred


AccurateRip summary

Track 1 accurately ripped (confidence 63) [FA2DBA70] (AR v2)
Track 2 accurately ripped (confidence 63) [AF25A20F] (AR v2)
Track 3 accurately ripped (confidence 63) [060199DF] (AR v2)
Track 4 accurately ripped (confidence 62) [D3D70B00] (AR v2)
Track 5 accurately ripped (confidence 63) [AB477111] (AR v2)
Track 6 accurately ripped (confidence 63) [1FCB7C23] (AR v2)
Track 7 accurately ripped (confidence 63) [12494F48] (AR v2)
Track 8 accurately ripped (confidence 63) [2016972E] (AR v2)
Track 9 accurately ripped (confidence 63) [8F4BA6E0] (AR v2)
Track 10 accurately ripped (confidence 63) [515E5576] (AR v2)
Track 11 accurately ripped (confidence 63) [1BA779E5] (AR v2)
Track 12 accurately ripped (confidence 63) [99756C39] (AR v2)
Track 13 accurately ripped (confidence 63) [858CAA89] (AR v2)
Track 14 accurately ripped (confidence 63) [C03F3561] (AR v2)
Track 15 accurately ripped (confidence 63) [43F26F69] (AR v2)
Track 16 accurately ripped (confidence 63) [4EFDE7A9] (AR v2)
Track 17 accurately ripped (confidence 63) [EFD52E8B] (AR v2)
Track 18 accurately ripped (confidence 63) [1CD9BAEF] (AR v2)
Track 19 accurately ripped (confidence 63) [395F4FDB] (AR v2)
Track 20 accurately ripped (confidence 63) [8AF95D30] (AR v2)
Track 21 accurately ripped (confidence 62) [9DBF7885] (AR v2)

All tracks accurately ripped

End of status report

–– CUETools DB Plugin V2.1.6

[CTDB TOCID: _dq5Q7kmN9xj_hGAysTB7Qpr.Ls-] found
Submit result: _dq5Q7kmN9xj_hGAysTB7Qpr.Ls- has been confirmed
Track | CTDB Status
1 | (71/71) Accurately ripped
2 | (71/71) Accurately ripped
3 | (71/71) Accurately ripped
4 | (70/71) Accurately ripped
5 | (71/71) Accurately ripped
6 | (71/71) Accurately ripped
7 | (71/71) Accurately ripped
8 | (71/71) Accurately ripped
9 | (71/71) Accurately ripped
10 | (71/71) Accurately ripped
11 | (71/71) Accurately ripped
12 | (71/71) Accurately ripped
13 | (71/71) Accurately ripped
14 | (71/71) Accurately ripped
15 | (71/71) Accurately ripped
16 | (71/71) Accurately ripped
17 | (71/71) Accurately ripped
18 | (71/71) Accurately ripped
19 | (71/71) Accurately ripped
20 | (71/71) Accurately ripped
21 | (70/71) Accurately ripped


==== Log checksum 40442D25FDB617D52943B717EBD4FA787F11B90C282DCAA289D02DA6A9A47ABF ====


Antonio Vivaldi - Concertos Vol II [6CDs] (2013)