Subcategories
Tags
Language
Tags

Arena - Live & Life (2004)

Posted By: gribovar
Arena - Live & Life (2004)

Arena - Live & Life (2004)
EAC Rip | FLAC (image+.cue+log) - 832 MB | Covers - 51 MB
Genre: Neo-Progressive Rock | RAR 3% Rec. | Label: Verglas Music (VGCD027)

Spanning the majority of their releases but largely focused on their Contagion album, Live & Life was recorded during their Contagion Tour and consists of a mix of audio from numerous shows rather than one single concert. On the first disc of this double live set they play the album Contagion almost in its entirety. Though some of the original's abstract magic is lost, this powerful rock star rendition recorded has a charm of its own! Rob Sowden shines throughout with vocals that mach the atmosphere of the original, whilst opening up registers of vocal strength on some major powerful moments. The guitars sound thicker and grittier, the keyboards are a bit more to the background the rythm section is playing in a higher gear throughout. The total mix sound fuller and more intense then the Contagion album itself.
On the second disc we get an overall 'best of' from the debut, Visitor and Immortal. Standout song like Solomon, The Butterfly Man and The Hanging Tree are glorious, whilst 'Chosen' seems to be the only song that doesn't benefit from this spiced up version of Arena. On songs from the first three Arena albums Rob Sowden again stands out as the best vocalist the band ever had.

CD 1 Tracklist:
01. Witch Hunt
02. An Angel Falls
03. Painted Man
04. This Way Madness Lies
05. Spectre At The Feast
06. Skin Game
07. Salamander
08. Bitter Harvest
09. City Of Lanterns
10. Riding The Tide
11. Cutting The Cards
12. Ascension

Total time: 46:04

CD 2 Tracklist:
01. Serenity
02. Chosen
03. Double Vision
04. The Hanging Tree
05. (Don't Forget To) Breathe
06. The Butterfly Man
07. Enemy Without
08. Solomon
09. Jericho
10. Crying For Help VII

Total time: 01:05:06

Exact Audio Copy V1.0 beta 2 from 29. April 2011

EAC extraction logfile from 5. July 2011, 12:55

Arena / Live (Disc 1)

Used drive : SONY DVD RW AD-7260S Adapter: 0 ID: 1

Read mode : Secure
Utilize accurate stream : Yes
Defeat audio cache : Yes
Make use of C2 pointers : No

Read offset correction : 48
Overread into Lead-In and Lead-Out : No
Fill up missing offset samples with silence : Yes
Delete leading and trailing silent blocks : No
Null samples used in CRC calculations : Yes
Used interface : Native Win32 interface for Win NT & 2000

Used output format : Internal WAV Routines
Sample format : 44.100 Hz; 16 Bit; Stereo


TOC of the extracted CD

Track | Start | Length | Start sector | End sector
––––––––––––––––––––––––––––-
1 | 0:00.06 | 4:14.72 | 6 | 19127
2 | 4:15.03 | 1:11.41 | 19128 | 24493
3 | 5:26.44 | 4:22.38 | 24494 | 44181
4 | 9:49.07 | 3:43.59 | 44182 | 60965
5 | 13:32.66 | 6:10.67 | 60966 | 88782
6 | 19:43.58 | 4:26.69 | 88783 | 108801
7 | 24:10.52 | 3:34.74 | 108802 | 124925
8 | 27:45.51 | 1:16.71 | 124926 | 130696
9 | 29:02.47 | 1:31.69 | 130697 | 137590
10 | 30:34.41 | 4:23.54 | 137591 | 157369
11 | 34:58.20 | 5:18.65 | 157370 | 181284
12 | 40:17.10 | 5:47.24 | 181285 | 207333


Range status and errors

Selected range

Filename D:\Downlod Torrents\Arena - 2004 - Live & Life\Arena - Live (Disc 1).wav

Peak level 98.8 %
Extraction speed 3.8 X
Range quality 100.0 %
Test CRC DA76B30F
Copy CRC DA76B30F
Copy OK

No errors occurred


AccurateRip summary

Track 1 accurately ripped (confidence 7) [A8472CA4] (AR v1)
Track 2 accurately ripped (confidence 7) [5C95D5B8] (AR v1)
Track 3 accurately ripped (confidence 7) [E13AF34F] (AR v1)
Track 4 accurately ripped (confidence 7) [DCE17D2B] (AR v1)
Track 5 accurately ripped (confidence 7) [4FF357AE] (AR v1)
Track 6 accurately ripped (confidence 7) [8B8442E1] (AR v1)
Track 7 accurately ripped (confidence 7) [FE8AF44A] (AR v1)
Track 8 accurately ripped (confidence 7) [72450DB0] (AR v1)
Track 9 accurately ripped (confidence 7) [D5C9DDF1] (AR v1)
Track 10 accurately ripped (confidence 7) [3748CBB3] (AR v1)
Track 11 accurately ripped (confidence 7) [A5163945] (AR v1)
Track 12 accurately ripped (confidence 7) [710DDDC6] (AR v1)

All tracks accurately ripped

End of status report

[CUETools log; Date: 27.06.2019 13:20:41; Version: 2.1.4]
Pregap length 00:00:06.
[CTDB TOCID: ZXRViuEF33e2ZVUMjV.EYfVnOXc-] found.
Track | CTDB Status
1 | (33/33) Accurately ripped
2 | (33/33) Accurately ripped
3 | (33/33) Accurately ripped
4 | (33/33) Accurately ripped
5 | (33/33) Accurately ripped
6 | (33/33) Accurately ripped
7 | (33/33) Accurately ripped
8 | (33/33) Accurately ripped
9 | (33/33) Accurately ripped
10 | (33/33) Accurately ripped
11 | (33/33) Accurately ripped
12 | (33/33) Accurately ripped
[AccurateRip ID: 00139dbc-00b7bb4d-9d0acc0c] found.
Track [ CRC | V2 ] Status
01 [a8472ca4|3559150a] (10+15/31) Accurately ripped
02 [5c95d5b8|ea65ee0a] (10+15/31) Accurately ripped
03 [e13af34f|5c9b970d] (10+15/31) Accurately ripped
04 [dce17d2b|9c16902c] (10+15/31) Accurately ripped
05 [4ff357ae|059b1b9c] (10+15/31) Accurately ripped
06 [8b8442e1|8648281f] (10+15/31) Accurately ripped
07 [fe8af44a|93a98770] (10+15/31) Accurately ripped
08 [72450db0|f55a0f7f] (10+15/31) Accurately ripped
09 [d5c9ddf1|6e37721b] (10+15/31) Accurately ripped
10 [3748cbb3|761f346c] (10+15/31) Accurately ripped
11 [a5163945|3b0d9a33] (10+15/31) Accurately ripped
12 [710dddc6|8c72bf1e] (10+15/31) Accurately ripped
Offsetted by -664:
01 [9d493abb] (02/31) Accurately ripped
02 [09edbd10] (02/31) Accurately ripped
03 [e8a0270b] (02/31) Accurately ripped
04 [6395f27f] (02/31) Accurately ripped
05 [e2905cfb] (02/31) Accurately ripped
06 [bea0c966] (02/31) Accurately ripped
07 [e2c089e0] (02/31) Accurately ripped
08 [ec08a3a3] (02/31) Accurately ripped
09 [f2a86687] (02/31) Accurately ripped
10 [84ee2f7c] (02/31) Accurately ripped
11 [eb5abd7c] (02/31) Accurately ripped
12 [1d3ef236] (02/31) Accurately ripped

Track Peak [ CRC32 ] [W/O NULL] [ LOG ]
– 98,8 [DA76B30F] [A777C85F] CRC32
01 98,6 [F6BDA47F] [10FAECC9]
02 92,1 [D2494F4F] [CD04E46B]
03 98,0 [446F3D2E] [6FE205D9]
04 97,0 [9846BD5E] [048D7F7A]
05 97,4 [307AFDDF] [AA76D47D]
06 97,6 [74888E8E] [0A60BD44]
07 98,8 [777D8605] [5E001FEE]
08 88,6 [4FA67B65] [7D49DC7C]
09 86,6 [A2D9FAB4] [24B11437]
10 98,0 [DC41D1C2] [69A0C346]
11 97,7 [ACEBB354] [C3F29118]
12 97,2 [E4D6AEE5] [068BAB6F]

Exact Audio Copy V1.0 beta 2 from 29. April 2011

EAC extraction logfile from 5. July 2011, 13:28

Arena / Live (disc 2)

Used drive : SONY DVD RW AD-7260S Adapter: 0 ID: 2

Read mode : Secure
Utilize accurate stream : Yes
Defeat audio cache : Yes
Make use of C2 pointers : No

Read offset correction : 48
Overread into Lead-In and Lead-Out : No
Fill up missing offset samples with silence : Yes
Delete leading and trailing silent blocks : No
Null samples used in CRC calculations : Yes
Used interface : Native Win32 interface for Win NT & 2000

Used output format : Internal WAV Routines
Sample format : 44.100 Hz; 16 Bit; Stereo


TOC of the extracted CD

Track | Start | Length | Start sector | End sector
––––––––––––––––––––––––––––-
1 | 0:00.13 | 2:27.69 | 13 | 11106
2 | 2:28.07 | 6:38.39 | 11107 | 40995
3 | 9:06.46 | 4:17.36 | 40996 | 60306
4 | 13:24.07 | 7:12.60 | 60307 | 92766
5 | 20:36.67 | 5:23.60 | 92767 | 117051
6 | 26:00.52 | 9:06.12 | 117052 | 158013
7 | 35:06.64 | 5:37.23 | 158014 | 183311
8 | 40:44.12 | 13:47.28 | 183312 | 245364
9 | 54:31.40 | 6:42.02 | 245365 | 275516
10 | 61:13.42 | 3:52.66 | 275517 | 292982


Range status and errors

Selected range

Filename D:\Downlod Torrents\Arena - 2004 - Live & Life\Arena - Live (Disc 2).wav

Peak level 99.0 %
Extraction speed 4.1 X
Range quality 100.0 %
Test CRC 56E56600
Copy CRC 56E56600
Copy OK

No errors occurred


AccurateRip summary

Track 1 accurately ripped (confidence 7) [D92C1680] (AR v1)
Track 2 accurately ripped (confidence 7) [B7CEB64E] (AR v1)
Track 3 accurately ripped (confidence 7) [D2077F9B] (AR v1)
Track 4 accurately ripped (confidence 7) [BD7C902B] (AR v1)
Track 5 accurately ripped (confidence 7) [E7E2DD67] (AR v1)
Track 6 accurately ripped (confidence 7) [E3F47125] (AR v1)
Track 7 accurately ripped (confidence 7) [46858B3C] (AR v1)
Track 8 accurately ripped (confidence 6) [DDE2278E] (AR v1)
Track 9 accurately ripped (confidence 7) [86A0AF7F] (AR v1)
Track 10 accurately ripped (confidence 7) [166D23BC] (AR v1)

All tracks accurately ripped

End of status report

[CUETools log; Date: 27.06.2019 13:21:21; Version: 2.1.4]
Pregap length 00:00:13.
[CTDB TOCID: TCyytPymwV2Qd9V5pL6LtcqkvnE-] found.
Track | CTDB Status
1 | (33/33) Accurately ripped
2 | (33/33) Accurately ripped
3 | (33/33) Accurately ripped
4 | (33/33) Accurately ripped
5 | (33/33) Accurately ripped
6 | (33/33) Accurately ripped
7 | (33/33) Accurately ripped
8 | (33/33) Accurately ripped
9 | (33/33) Accurately ripped
10 | (33/33) Accurately ripped
[AccurateRip ID: 00168b39-00bbdb9c-820f420a] found.
Track [ CRC | V2 ] Status
01 [d92c1680|419f790c] (09+17/29) Accurately ripped
02 [b7ceb64e|bdce4f70] (09+17/29) Accurately ripped
03 [d2077f9b|fa6d3b07] (09+17/29) Accurately ripped
04 [bd7c902b|320002f2] (09+17/29) Accurately ripped
05 [e7e2dd67|c77c208f] (09+17/29) Accurately ripped
06 [e3f47125|798745b8] (09+17/29) Accurately ripped
07 [46858b3c|55247d63] (09+17/29) Accurately ripped
08 [dde2278e|527c2002] (08+17/28) Accurately ripped
09 [86a0af7f|25622d43] (09+17/29) Accurately ripped
10 [166d23bc|dc62d4cc] (09+17/29) Accurately ripped
Offsetted by -664:
01 [48477692] (00/29) No match (V2 was not tested)
02 [70418e9c] (00/29) No match (V2 was not tested)
03 [2ae11cbb] (00/29) No match (V2 was not tested)
04 [00ea1257] (00/29) No match (V2 was not tested)
05 [01faa8d8] (00/29) No match (V2 was not tested)
06 [8768d5dc] (00/29) No match (V2 was not tested)
07 [17e202d5] (00/29) No match (V2 was not tested)
08 [069dc656] (00/28) No match (V2 was not tested)
09 [1c610fb7] (00/29) No match (V2 was not tested)
10 [369572bf] (00/29) No match (V2 was not tested)

Track Peak [ CRC32 ] [W/O NULL] [ LOG ]
– 99,0 [56E56600] [E3C2F420] CRC32
01 88,1 [598661B9] [83075BF7]
02 98,4 [ADFE20E4] [C81A41B8]
03 98,5 [FEC7C7D6] [59358458]
04 98,4 [FA7113EF] [75D2EF78]
05 97,7 [D483E7D9] [E002B943]
06 98,3 [34F11448] [08E4E3E3]
07 97,5 [B78DB7AD] [800661D2]
08 99,0 [C3DC4CC6] [AB545E11]
09 98,6 [57EDF9CD] [4895780B]
10 97,5 [0E34D961] [7E40A8CB]

Thanks to Vladimir Merzlov