Subcategories

Arild Andersen - Sagn (1990) {ECM 1435} [Re-Up]

Posted By: tiburon
Arild Andersen - Sagn (1990) {ECM 1435} [Re-Up]

Arild Andersen - Sagn (1990) {ECM 1435}
EAC 1.0b3 | FLAC tracks level 8 | Cue+Log+M3U | Full Scans 300dpi | 348MB + 5% Recovery
Genre: Jazz
Arild Andersen - Sagn (1990) {ECM 1435} [Re-Up]

Sagn was the result of a commission for the 1990 Vossajazz festival that sealed the collaborative spirits of singer Kirsten Bråten Berg and bassist Arild Andersen. Blending folk songs from their native Norway, along with jazz and rock elements, the two shared the stage with percussionist Nana Vasconcelos, saxophonist Bendik Hofseth, pianist Bugge Wesseltoft, and guitarist Frode Alnæs. While we don’t have (so far as I’m aware) a live recording of what was surely an historic occasion, we do have this ECM studio rendition, buffed and polished to a mirror’s shine. Sagn is a massive effort, one of ECM’s fullest on a single disc, and stands as Andersen’s most personal statement to date.
Track List
Part I
01. Sagn 6:36
02. Gardsjenta 2:57
03. Eisemo 2:18
04. Toll 4:40
05. Draum 6:04
06. Laurdagskveld 3:39

Part II
07. Tjovane 5:07
08. Sorgmild 6:24
09. Svarm 2:13
10. Gamlestev 2:29
11. Reven 5:11

Part III
12. Nystev 3:58
13. Lussi 5:33
14. Rysen 4:56
15. Belare 2:33
16. Sagn (2) 2:36

Composed and arranged by Arild Andersen

musicians
Arild Andersen - bass
Kirsten Bråten Berg - vocals
Bendik Hofseth - tenor and soprano saxophones
Frode Alnæs: guitar
Bugge Wesseltoft - keyboards
Nana Vasconcelos - percussion, vocals

Produced by Arild Andersen


Exact Audio Copy V1.0 beta 3 from 29. August 2011

EAC extraction logfile from 26. January 2013, 16:37

Arild Andersen / Sagn [ECM 1435]

Used drive : PLEXTOR DVDR PX-L890SA Adapter: 2 ID: 1

Read mode : Secure
Utilize accurate stream : Yes
Defeat audio cache : Yes
Make use of C2 pointers : No

Read offset correction : 6
Overread into Lead-In and Lead-Out : No
Fill up missing offset samples with silence : Yes
Delete leading and trailing silent blocks : No
Null samples used in CRC calculations : Yes
Used interface : Native Win32 interface for Win NT & 2000
Gap handling : Appended to previous track

Used output format : User Defined Encoder
Selected bitrate : 256 kBit/s
Quality : High
Add ID3 tag : No
Command line compressor : C:\Program Files (x86)\Exact Audio Copy\FLAC\FLAC.EXE
Additional command line options : -8 -V -T "ARTIST=%artist%" -T "TITLE=%title%" -T "ALBUM=%albumtitle%" -T "DATE=%year%" -T "TRACKNUMBER=%tracknr%" -T "TOTALTRACKS=%numtracks%" -T "GENRE=%genre%" -T "ALBUMARTIST=%albumartist%" -T "ALBUM ARTIST=%albumartist%" -T "COMMENT=EAC Secure Mode, Test & Copy, AccurateRip, FLAC -8" %source%


TOC of the extracted CD

Track | Start | Length | Start sector | End sector
––––––––––––––––––––––––––––-
1 | 0:00.32 | 6:35.28 | 32 | 29684
2 | 6:35.60 | 2:57.17 | 29685 | 42976
3 | 9:33.02 | 2:19.43 | 42977 | 53444
4 | 11:52.45 | 4:40.40 | 53445 | 74484
5 | 16:33.10 | 6:04.05 | 74485 | 101789
6 | 22:37.15 | 3:44.12 | 101790 | 118601
7 | 26:21.27 | 5:06.70 | 118602 | 141621
8 | 31:28.22 | 6:24.18 | 141622 | 170439
9 | 37:52.40 | 2:13.35 | 170440 | 180449
10 | 40:06.00 | 2:29.57 | 180450 | 191681
11 | 42:35.57 | 5:13.48 | 191682 | 215204
12 | 47:49.30 | 3:58.72 | 215205 | 233126
13 | 51:48.27 | 5:33.03 | 233127 | 258104
14 | 57:21.30 | 4:57.05 | 258105 | 280384
15 | 62:18.35 | 2:32.55 | 280385 | 291839
16 | 64:51.15 | 2:36.37 | 291840 | 303576


Track 1

Filename F:\Flac Rips\01 - Sagn.wav

Pre-gap length 0:00:02.32

Peak level 92.9 %
Extraction speed 3.7 X
Track quality 99.9 %
Test CRC C3E570A5
Copy CRC C3E570A5
Accurately ripped (confidence 2) [6DE49765] (AR v2)
Copy OK

Track 2

Filename F:\Flac Rips\02 - Gardsjenta.wav

Peak level 90.1 %
Extraction speed 4.2 X
Track quality 100.0 %
Test CRC 9094BF25
Copy CRC 9094BF25
Accurately ripped (confidence 2) [C3CE8592] (AR v2)
Copy OK

Track 3

Filename F:\Flac Rips\03 - Eisemo.wav

Peak level 25.7 %
Extraction speed 4.3 X
Track quality 100.0 %
Test CRC 7A054084
Copy CRC 7A054084
Accurately ripped (confidence 2) [C111B163] (AR v2)
Copy OK

Track 4

Filename F:\Flac Rips\04 - Toll.wav

Pre-gap length 0:00:00.40

Peak level 96.0 %
Extraction speed 4.2 X
Track quality 99.9 %
Test CRC 724F3A2D
Copy CRC 724F3A2D
Accurately ripped (confidence 11) [548A3A5A] (AR v1)
Copy OK

Track 5

Filename F:\Flac Rips\05 - Draum.wav

Peak level 77.8 %
Extraction speed 5.6 X
Track quality 100.0 %
Test CRC 4FBD6696
Copy CRC 4FBD6696
Accurately ripped (confidence 2) [C80DCEAB] (AR v2)
Copy OK

Track 6

Filename F:\Flac Rips\06 - Laurdagskveld.wav

Peak level 76.7 %
Extraction speed 5.5 X
Track quality 100.0 %
Test CRC ACF104EE
Copy CRC ACF104EE
Accurately ripped (confidence 2) [A13CEFFE] (AR v2)
Copy OK

Track 7

Filename F:\Flac Rips\07 - Tjovane.wav

Pre-gap length 0:00:05.12

Peak level 88.5 %
Extraction speed 6.0 X
Track quality 100.0 %
Test CRC AB02988E
Copy CRC AB02988E
Accurately ripped (confidence 2) [B0578014] (AR v2)
Copy OK

Track 8

Filename F:\Flac Rips\08 - Sorgmild.wav

Peak level 65.5 %
Extraction speed 6.6 X
Track quality 100.0 %
Test CRC A8901405
Copy CRC A8901405
Accurately ripped (confidence 2) [FD925817] (AR v2)
Copy OK

Track 9

Filename F:\Flac Rips\09 - Svarm.wav

Peak level 58.7 %
Extraction speed 4.1 X
Track quality 99.9 %
Test CRC 443A7FFF
Copy CRC 443A7FFF
Accurately ripped (confidence 2) [A035D541] (AR v2)
Copy OK

Track 10

Filename F:\Flac Rips\10 - Gamlestev.wav

Peak level 22.8 %
Extraction speed 6.0 X
Track quality 100.0 %
Test CRC EAA027C8
Copy CRC EAA027C8
Accurately ripped (confidence 2) [50F8AA3A] (AR v2)
Copy OK

Track 11

Filename F:\Flac Rips\11 - Reven.wav

Peak level 93.5 %
Extraction speed 7.0 X
Track quality 100.0 %
Test CRC 46978898
Copy CRC 46978898
Accurately ripped (confidence 2) [6D1DC9C3] (AR v2)
Copy OK

Track 12

Filename F:\Flac Rips\12 - Nystev.wav

Pre-gap length 0:00:02.38

Peak level 45.7 %
Extraction speed 7.0 X
Track quality 100.0 %
Test CRC 0AFEC160
Copy CRC 0AFEC160
Accurately ripped (confidence 2) [01A7CC84] (AR v2)
Copy OK

Track 13

Filename F:\Flac Rips\13 - Lussi.wav

Peak level 54.3 %
Extraction speed 7.5 X
Track quality 100.0 %
Test CRC 7F23C648
Copy CRC 7F23C648
Accurately ripped (confidence 2) [3BCB3F29] (AR v2)
Copy OK

Track 14

Filename F:\Flac Rips\14 - Rysen.wav

Peak level 99.3 %
Extraction speed 7.7 X
Track quality 100.0 %
Test CRC E01F4AD3
Copy CRC E01F4AD3
Accurately ripped (confidence 2) [471EAD6D] (AR v2)
Copy OK

Track 15

Filename F:\Flac Rips\15 - Belare.wav

Pre-gap length 0:00:00.45

Peak level 57.2 %
Extraction speed 5.1 X
Track quality 99.9 %
Test CRC 417B23D7
Copy CRC 417B23D7
Accurately ripped (confidence 2) [B90D0C17] (AR v2)
Copy OK

Track 16

Filename F:\Flac Rips\16 - Sagn (2).wav

Peak level 59.7 %
Extraction speed 7.2 X
Track quality 100.0 %
Test CRC A4D4CDDE
Copy CRC A4D4CDDE
Accurately ripped (confidence 12) [6FA9460D] (AR v1)
Copy OK


All tracks accurately ripped

No errors occurred

End of status report

==== Log checksum 415A0207FD4CE2EC40F088043B4489F75BCF9CE423FBF1A18315251778E4B606 ====


––––––––––––––––––––––––––––––––––––––––
Analyzed: Arild Andersen / Sagn [ECM 1435]
––––––––––––––––––––––––––––––––––––––––

DR Peak RMS Duration Track
––––––––––––––––––––––––––––––––––––––––
DR14 -0.64 dB -20.18 dB 6:35 01-Sagn
DR15 -0.90 dB -20.36 dB 2:57 02-Gardsjenta
DR12 -11.77 dB -27.91 dB 2:20 03-Eisemo
DR16 -0.35 dB -21.64 dB 4:41 04-Toll
DR13 -2.17 dB -20.88 dB 6:04 05-Draum
DR14 -2.30 dB -25.38 dB 3:44 06-Laurdagskveld
DR13 -1.06 dB -18.18 dB 5:07 07-Tjovane
DR14 -3.66 dB -23.72 dB 6:24 08-Sorgmild
DR13 -4.62 dB -22.56 dB 2:13 09-Svarm
DR14 -12.83 dB -30.57 dB 2:30 10-Gamlestev
DR14 -0.58 dB -18.90 dB 5:14 11-Reven
DR15 -6.79 dB -26.34 dB 3:59 12-Nystev
DR15 -5.30 dB -23.71 dB 5:33 13-Lussi
DR16 -0.06 dB -20.01 dB 4:57 14-Rysen
DR15 -4.84 dB -24.87 dB 2:33 15-Belare
DR12 -4.47 dB -21.26 dB 2:36 16-Sagn (2)
––––––––––––––––––––––––––––––––––––––––

Number of tracks: 16
Official DR value: DR14

Samplerate: 44100 Hz
Channels: 2
Bits per sample: 16
Bitrate: 518 kbps
Codec: FLAC
================================================================================

Arild Andersen - Sagn (1990) {ECM 1435} [Re-Up]
Arild Andersen - Sagn (1990) {ECM 1435} [Re-Up]
Arild Andersen - Sagn (1990) {ECM 1435} [Re-Up]


Thanks to the original ripper