Subcategories

Arnett Cobb & Eddie 'Lockjaw' Davis - Blow, Arnett, Blow (1959) Remastered 1993

Posted By: Designol
Arnett Cobb & Eddie 'Lockjaw' Davis - Blow, Arnett, Blow (1959) Remastered 1993

Arnett Cobb & Eddie 'Lockjaw' Davis - Blow, Arnett, Blow (1959) Remastered 1993
EAC | FLAC | Tracks (Cue&Log) ~ 222 Mb | Mp3 (CBR320) ~ 97 Mb | Scans included | 00:38:21
Soul-Jazz, Saxophone Jazz | Label: Original Jazz Classics, Prestige | # OJCCD-794-2, P-7151

Arnett Cobb's debut for Prestige and his first recording as a leader in three years (due to a serious car accident in 1956) is an explosive affair. Cobb is matched up with fellow tough tenor Eddie "Lockjaw" Davis, and there are plenty of sparks set off by their encounter. With organist Wild Bill Davis, bassist George Duvivier, and drummer Arthur Edgehill keeping the proceedings heated, Cobb and Davis tangle on a variety of basic material, alternating uptempo romps such as "Go Power" and "Go Red Go" with slightly more sober pieces highlighted by "When I Grow Too Old to Dream." This is a great matchup (reissued on CD through the OJC imprint) that lives up to its potential.

Review by Scott Yanow, Allmusic.com

Arnett Cobb at Allmusic
Arnett Cobb at Wiki

Eddie 'Lockjaw' Davis at Allmusic
Eddie 'Lockjaw' Davis at Wiki

Tenor Saxophone – Arnett Cobb, Eddie "Lockjaw" Davis
Bass – George Duvivier
Drums – Arthur Edgehill
Organ – Wild Bill Davis

Recorded in Hackensack, NJ; January 9, 1959
recording engineer – Rudy Van Gelder

Tracklist:

01. When I Grow Too Old To Dream (6:42)
02. Go Power (5:09)
03. Dutch Kitchen Bounce (7:01)
04. Go Red, Go (5:39)
05. The Eely One (8:18)
06. The Fluke (5:32)


Exact Audio Copy V0.99 prebeta 5 from 4. May 2009

Отчёт EAC об извлечении, выполненном 17. января 2010, 16:58

Blow Arnett Cobb / Blow Arnett Cobb & Eddie "LockJaw" Davis

Дисковод: _NEC DVD_RW ND-4570A Adapter: 0 ID: 0

Режим чтения : Достоверность
Использование точного потока : Да
Отключение кэша аудио : Да
Использование указателей C2 : Нет

Коррекция смещения при чтении : 48
Способность читать области Lead-in и Lead-out : Нет
Заполнение пропущенных сэмплов тишиной : Да
Удаление блоков с тишиной в начале и конце : Нет
При вычислениях CRC использовались нулевые сэмплы : Да
Интерфейс : Встроенный Win32-интерфейс для Win NT/2000
Обработка зазоров : Добавлено к предыдущему треку

Выходной формат : Пользовательский кодировщик
Выбранный битрейт : 128 kBit/s
Качество : Высокий
Добавление ID3-тэга : Нет
Утилита сжатия : D:\Закачка\Программы\Exact Audio Copy\FLAC\FLAC.EXE
Дополнительные параметры : -8 -V -T "ARTIST=%a" -T "TITLE=%t" -T "ALBUM=%g" -T "DATE=%y" -T "TRACKNUMBER=%n" -T "GENRE=%m" -T "COMMENT=EAC FLAC -8" %s


TOC извлечённого CD

Трек | Старт | Длительность | Начальный сектор | Конечный сектор
––––––––––––––––––––––––––––––––––-
1 | 0:00.00 | 6:44.48 | 0 | 30347
2 | 6:44.48 | 5:11.45 | 30348 | 53717
3 | 11:56.18 | 7:02.67 | 53718 | 85434
4 | 18:59.10 | 5:42.00 | 85435 | 111084
5 | 24:41.10 | 8:20.08 | 111085 | 148592
6 | 33:01.18 | 5:32.27 | 148593 | 173519


Трек 1

Имя файла D:\Закачка\Программы\Exact Audio Copy\Flac\ 01. Blow Arnett Cobb – When I Grow Too Old To Dream .wav

Длина предзазора 0:00:02.00

Пиковый уровень 100.0 %
Качество трека 100.0 %
CRC теста 581848A4
CRC копии 581848A4
Копирование… OK

Трек 2

Имя файла D:\Закачка\Программы\Exact Audio Copy\Flac\ 02. Blow Arnett Cobb – Go Power .wav

Длина предзазора 0:00:02.66

Пиковый уровень 100.0 %
Качество трека 100.0 %
CRC теста 60581915
CRC копии 60581915
Копирование… OK

Трек 3

Имя файла D:\Закачка\Программы\Exact Audio Copy\Flac\ 03. Blow Arnett Cobb – Dutch Kitchen Bounce .wav

Длина предзазора 0:00:02.24

Пиковый уровень 100.0 %
Качество трека 100.0 %
CRC теста D1C669BD
CRC копии D1C669BD
Копирование… OK

Трек 4

Имя файла D:\Закачка\Программы\Exact Audio Copy\Flac\ 04. Blow Arnett Cobb – Go Red, Go .wav

Длина предзазора 0:00:02.33

Пиковый уровень 100.0 %
Качество трека 100.0 %
CRC теста FD2C564F
CRC копии FD2C564F
Копирование… OK

Трек 5

Имя файла D:\Закачка\Программы\Exact Audio Copy\Flac\ 05. Blow Arnett Cobb – The Eely One .wav

Длина предзазора 0:00:02.60

Пиковый уровень 100.0 %
Качество трека 99.9 %
CRC теста 223EDF67
CRC копии 223EDF67
Копирование… OK

Трек 6

Имя файла D:\Закачка\Программы\Exact Audio Copy\Flac\ 06. Blow Arnett Cobb – The Fluke .wav

Длина предзазора 0:00:02.53

Пиковый уровень 100.0 %
Качество трека 100.0 %
CRC теста D9F1E10A
CRC копии D9F1E10A
Копирование… OK

Ошибок не произошло

Конец отчёта

[CUETools log; Date: 30.09.2017 0:22:40; Version: 2.1.4]
[CTDB TOCID: WOwjqVPQWCCHxsr7QFXatbdUG2w-] found.
Track | CTDB Status
1 | (3/3) Accurately ripped
2 | (3/3) Accurately ripped
3 | (3/3) Accurately ripped
4 | (3/3) Accurately ripped
5 | (3/3) Accurately ripped
6 | (3/3) Accurately ripped
[AccurateRip ID: 0009324b-0031367e-48090906] found.
Track [ CRC | V2 ] Status
01 [4b6c0eb6|62697f3f] (0+0/4) No match
02 [04885bd8|65b0e440] (0+0/4) No match
03 [164a1403|8dbae84d] (0+0/4) No match
04 [f736b6b4|ace11deb] (0+0/4) No match
05 [6d5e5e1c|d74589f4] (0+0/4) No match
06 [2e5a18e5|8166e133] (0+0/4) No match

Track Peak [ CRC32 ] [W/O NULL] [ LOG ]
– 100,0 [7A9CAA7E] [7B704434]
01 100,0 [581848A4] [90AA8DA3] CRC32
02 100,0 [60581915] [BD9C506E] CRC32
03 100,0 [D1C669BD] [9AFAF326] CRC32
04 100,0 [FD2C564F] [C7B0D14A] CRC32
05 100,0 [223EDF67] [DC3413C5] CRC32
06 100,0 [D9F1E10A] [B9CCAE6D] CRC32

foobar2000 1.2 / Dynamic Range Meter 1.1.1
log date: 2017-09-30 00:26:34

––––––––––––––––––––––––––––––––––––––––
Analyzed: Arnett Cobb & Eddie 'Lockjaw' Davis / Blow, Arnett, Blow
––––––––––––––––––––––––––––––––––––––––

DR Peak RMS Duration Track
––––––––––––––––––––––––––––––––––––––––
DR12 0.00 dB -13.90 dB 6:45 01-When I Grow Too Old To Dream
DR10 0.00 dB -11.90 dB 5:12 02-Go Power
DR12 0.00 dB -13.96 dB 7:03 03-Dutch Kitchen Bounce
DR11 0.00 dB -12.81 dB 5:42 04-Go Red, Go
DR11 0.00 dB -13.14 dB 8:20 05-The Eely One
DR10 0.00 dB -12.10 dB 5:32 06-The Fluke
––––––––––––––––––––––––––––––––––––––––

Number of tracks: 6
Official DR value: DR11

Samplerate: 44100 Hz
Channels: 2
Bits per sample: 16
Bitrate: 779 kbps
Codec: FLAC
================================================================================

Arnett Cobb & Eddie 'Lockjaw' Davis - Blow, Arnett, Blow (1959) Remastered 1993

Arnett Cobb & Eddie 'Lockjaw' Davis - Blow, Arnett, Blow (1959) Remastered 1993

All thanks to original releaser - htabbas

More interesting music in My Blog