Subcategories

Arno Paduch, Johann Rosenmüller Ensemble - Sebastian Knüpfer: Geistliche Konzerte (2018)

Posted By: ArlegZ
Arno Paduch, Johann Rosenmüller Ensemble - Sebastian Knüpfer: Geistliche Konzerte (2018)

Arno Paduch, Johann Rosenmüller Ensemble - Sebastian Knüpfer: Geistliche Konzerte (2018)
EAC | FLAC | Image (Cue & Log) ~ 297 Mb | Total time: 68:31 | Scans included
Classical | Label: Christophorus | CHR 77428 | Recorded: 2004

Im Gegensatz zum berühmten späteren Amtsnachfolger J. S. Bach konnte Thomaskantor Sebastian Knüpfer vom politischen Arm ungehindert seinen musikalischen Fähigkeiten freien Lauf lassen. Das Ergebnis sind prächtige Psalm- und Choralkonzerte für den feierlichen Gottesdienst an der Thomaskirche.
Aus Knüpfers geistlichem Oeuvre hat der Zinkenist und Musikwissenschaftler Arno Paduch acht der bedeutensten Werke ausgewählt und diese mit seinem Johann Rosenmüller Ensemble eingespielt.
Sie sind mit vier bis sechs Singstimmen, Streichern, Bläser und Continuo-Gruppe groß besetzt und geben (fast ausschließlich in Ersteinspielungen) ein eindrückliches Zeugnis ab vom hohen musikalischen Standard, der auch schon vor Johann Sebastian Bach an der Thomaskirche geherrscht hat.

Performer:
Johann Rosenmüller Ensemble
Arno Paduch, direction

Track List:
01. Was mein Gott will
02. De profundis clamavi
03. Lauda Jerusalem Dominum
04. Nun dancket alle Gott
05. Herr, hilf uns, wir verderben
06. Ecce quam bonum
07. Was werden wir essen
08. Herr Christ der einig Gottes Sohn


Exact Audio Copy V1.3 from 2. September 2016

EAC extraction logfile from 24. February 2019, 20:29

Johann Rosenmüller Ensemble, Arno Paduch / Sebastian Knüpfer - Sacred Concertos

Used drive : ASUS SDRW-08U7M-U Adapter: 1 ID: 0

Read mode : Secure
Utilize accurate stream : Yes
Defeat audio cache : Yes
Make use of C2 pointers : No

Read offset correction : 6
Overread into Lead-In and Lead-Out : No
Fill up missing offset samples with silence : Yes
Delete leading and trailing silent blocks : No
Null samples used in CRC calculations : Yes
Used interface : Native Win32 interface for Win NT & 2000

Used output format : User Defined Encoder
Selected bitrate : 128 kBit/s
Quality : High
Add ID3 tag : No
Command line compressor : C:\Program Files (x86)\Exact Audio Copy\Flac\flac.exe
Additional command line options : -V -8 -T "Date=%year%" -T "Genre=%genre%" %source%


TOC of the extracted CD

Track | Start | Length | Start sector | End sector
––––––––––––––––––––––––––––-
1 | 0:00.00 | 10:22.48 | 0 | 46697
2 | 10:22.48 | 7:22.22 | 46698 | 79869
3 | 17:44.70 | 11:06.45 | 79870 | 129864
4 | 28:51.40 | 8:13.02 | 129865 | 166841
5 | 37:04.42 | 4:11.61 | 166842 | 185727
6 | 41:16.28 | 7:30.68 | 185728 | 219545
7 | 48:47.21 | 10:41.61 | 219546 | 267681
8 | 59:29.07 | 8:59.55 | 267682 | 308161


Range status and errors

Selected range

Filename C:\temp\Knupfer - Sacred Concertos - Johann Rosenmuller Ensemble, Paduch - 2018\Knupfer - Sacred Concertos.wav

Peak level 99.5 %
Extraction speed 5.1 X
Range quality 99.9 %
Test CRC 554BF05A
Copy CRC 554BF05A
Copy OK

No errors occurred


AccurateRip summary

Track 1 cannot be verified as accurate (confidence 3) [93D62107], AccurateRip returned [C02F265A] (AR v2)
Track 2 cannot be verified as accurate (confidence 4) [117280AC], AccurateRip returned [6474195C] (AR v2)
Track 3 cannot be verified as accurate (confidence 4) [0649F7D6], AccurateRip returned [1D3F9089] (AR v2)
Track 4 cannot be verified as accurate (confidence 4) [4CD443D8], AccurateRip returned [47C91F84] (AR v2)
Track 5 cannot be verified as accurate (confidence 4) [E14413DA], AccurateRip returned [8C489086] (AR v2)
Track 6 cannot be verified as accurate (confidence 4) [49D507B4], AccurateRip returned [D08E91EF] (AR v2)
Track 7 cannot be verified as accurate (confidence 4) [D8838260], AccurateRip returned [E21533A3] (AR v2)
Track 8 cannot be verified as accurate (confidence 4) [9305191A], AccurateRip returned [615D2C6A] (AR v2)

No tracks could be verified as accurate
You may have a different pressing from the one(s) in the database

End of status report

==== Log checksum 4E9A6867425E2F3E8BDF529B716DAB0B2AE71DF10599CCB196143F6E8E523E56 ====

Arno Paduch, Johann Rosenmüller Ensemble - Sebastian Knüpfer: Geistliche Konzerte (2018)

Thanks to the original releaser