Subcategories

Semyon Snitkovsky - Art Of Semyon Snitkovsky. 75th Anniversary Edition (2008) 3CD Set

Posted By: Designol
Semyon Snitkovsky - Art Of Semyon Snitkovsky. 75th Anniversary Edition (2008) 3CD Set

Semyon Snitkovsky - Art Of Semyon Snitkovsky. 75th Anniversary Edition (2008) 3CD Set
J.S. Bach, Schubert, Paganini, Schumann, Kreisler, Bartok, Schedrin, Clérambault, Brahms
Szymanowski, Ysaÿe, Khachaturian, Debussy, de Falla, Glazunov, Liszt, Ravel, Stravinsky

EAC | FLAC | Image (Cue&Log) ~ 1.14 Gb | Mp3 (CBR320) ~ 499 Mb | Scans ~ 22 Mb
Genre: Classical | Label: Melodiya | # MEL CD 10 01169 | Time: 03:37:24

"Brilliant possession of the instrument, virtuosi technique, a versatile and expressive touch, an animated and emotional style of performance - these are the artistic traits possessed by Semyon Snitkovsky, that allow the brilliant musician to make deep, sincere connection with the audience." These words, spoken by David Oistrakh, come to mind every time one listens to any recording Snitkovsky made throughout his career. The violinist only lived to be 48 years old (1933-1981), but he left behind a large number of records. These records allow his listeners to enjoy the unique artistry that once thrilled audiences and critics in the former USSR and abroad. The CDs that are being released now, present Snitkovsky as a versatile interpreter of the solo, chamber, and solo with orchestra violin repertoire.

Semyon Snitkovsky was bom and raised in Odessa, a city that in the 20th century, gave the world many famous musicians. He has found a rightful place among them as a great performer and a talented pedagogue.

Snitkovsky started his musical education in 1940 at the famed school of P.S. Stolyarsky. Unfortunately, World War II interrupted his studies until 1946, when he was accepted to the class of great pedagogue - violinist, V.Z. Mordkovich, who later became a professor at the Odessa Conservatory. In 1949, Semyon gave his first solo concert performance, and in 1951 he was admitted into the Odessa Conservatory, studying under the same teacher. During his five years at the Conservatory, Snitkovsky evolved as a talented soloist and began to perform at Odessa Philharmonic Theater. The young violinist worked diligently; he mastered new pieces quickly and performed often. Each performance would bring more success.

In 1956, Simeon became a soloist with the Lvov Philharmonic; he also took a job as a professor of the conservatory there. However, his quest for improvement brings him to Moscow. In 1957 Snitkovsky was accepted into the post-graduate program at the famed Moscow Conservatory, studying under David Oistrakh. Very soon, he became the master violinists assistant and after a few years, was teaching classes himself, first as docent, then as a full professor. The young violinist quickly built his reputation. Well known performer and pedagogue S. Feinberg noted in a review of one of Snitkovsky's concerts: "Snitkovsky is a young musician, yet he is an independent thinker, able to resolve complex musical tasks." In 1957, Snitkovsky became a laureate at a national competition, then he received a bronze medal at the World Youth and Students Festival in Moscow, after that he participated in a popular music competition. His very first performance in front of the international audience brought him a high degree of success. The competition took place in Bucharest in 1958 as a part of George Enescu International Festival. He won first place, together with Romanian violinist Stefan Ruha. At the same event, Snitkovsky also won second prize together with gifted pianist O. Stupakova, in special category for the best performance, playing Third Sonata by Enescu for violin and piano.

Critics took note of the bright musician. "Unrestrained technique and deep understanding of modem music have allowed Snitkovsky to achieve great success." Snitkovskys per-formance of Glazunov's violin concerto during the final round of the competition was dubbed "perfective".

Following his triumph in Bucharest, Snitkovsky won the gold medal at the prestigious and very challenging Queen Elizabeth International Music Competition in Brussels in 1963. After the competition, the newspaper "Le Soir" wrote: “Snitkovsky is capable of interpreting the composer's thoughts not only with brilliance of his technique, but with the lightness of his inspiration. The technical part of his performance is dazzling." In 1967, he received a gold medal from the Eugene Ysaye Foundation in Belgium, an honor given once every five years.

The next few years of Semyons career were very intensive. He performed tirelessly, giving more than a hundred concerts every year. He is well known at home and abroad. He is invited to perform in international festivals and master-class concerts. His concerts in France, Switzerland, West Germany, Yugoslavia, Hungary, Turkey, and Eastern Europe were very successful.

The 1960s and 70s were the peak of Snitkovsky's career. Audiences were captivated by his creative and emotional interpretations, his originality, fiery temperament, intuitive phrasing, and brilliant virtuosity, which seemed to have no boundaries.

Snitkovsky performed with some of the worlds premier orchestras and conductors, including Natan Rakhlin, André Cluytens, Gennady Rozhdestvensky, and Karel Ancerl. Famous French conductor A.Cluytens once said of his collaboration with Snitkovsky: "I had the greatest pleasure of working with the wonderful artist Semyon Snitkovsky. I will always be happy to play music with this brilliant musician."

The violinists repertoire was constantly growing. His colleagues often said that Semyon Isaevich plays everything that has been composed for the violin, from Corelli and LeClerc to Schedrin, and plays it superbly. Many great masters of classical music were part of his repertoire. His execution of works by Bach, Mozart, Beethoven, or XIX century romantics, Tchaikovsky, Glazunov, was always a significant event.

With equal enthusiasm, Snitkovsky played classical music of the XX century; Stravinsky, Shostakovich, Prokofiev, Bartók, Hindemith, Britten, Villa-Lobos - he would give convincing interpretations of their innovative creations. He was especially fond of the works of modem Soviet composers - Khachaturian, Kabalevsky, Weinberg, Salmanov and others; some of them even wrote music for him.

Critics often noted that Snitkovsky is convincing and stylistically accurate in music of different epochs; he offers his own deep understanding of compositions, including well-known classical opuses.

Semyon Snitkovsky successfully complimented his performance career with teaching. He was a devoted talented pedagogue. He was a professor at Moscow Conservatory, and beginning 1976 he became a professor of violin at the Franz Liszt Academy of Music in Budapest. His master-classes at home and abroad were always successful. An article following master class at the festival in Tours, France, read: "Snitkovsky is not only a renowned virtuoso, but a brilliant professor." Many of Snitkovsky's students have become professional musicians; they keep good memory of their teacher decades after his passing.

Soviet and foreign press has offered a lot of praise of Snitkovsky's artistry. Here are just a few quotes:

"Sovetskaya Muzyka" (Soviet Music Journal) - "graceful style, complete mastery of the instrument, elegant touch, original phrasing."

"Tages Anzeiger" ascertains after a triumphant series of conserts in Zurich in 1977: "Without a doubt, Snitkovsky is one of the top violinists of his generation" calling his performance of excerpts from Stravinsky's Petrushka, "fireworks of violin virtuosity". Critic stated that "Snitkovsky amazes with his frighteningly consummate playing."

Nowadays, listening to Snitkovsky's recordings, we are inclined to agree with these reviews. Here's one of the countless examples: his interpretation of Schubert's Sonata A Major and "Rondo Brilliant", offered on this disk, leave a lasting impression. His fluid lyrical style in these pieces is breathtaking; it recalls the velvet tones of Schubert's lieder. Snitkovsky pushes the limit of virtuosity with his exceptional technique in the Rondo. Furthermore, the sensitivity, harmonious phrasing, and dynamics are astounding in this duet.

The magical sound of Snitkovskys violin transcends time with its beauty and expressiveness. Through these recordings, we are able to experience the feelings and emotions that his audiences enjoyed in concerts many years ago.

Dr. of Musicology Rufina Leytes, liner notes

Semyon Snitkovsky - Art Of Semyon Snitkovsky. 75th Anniversary Edition (2008) 3CD Set



Tracklist:

CD1:

Johann Sebastian Bach
1-3. Concerto for violin and orchestra in A minor

Franz Schubert
4-7. Duet for violin and piano in A major, op. 162

Nicolo Paganini
8. Sonata No.12, op.3 in E minor

Robert Schumann
9-11. Sonata No.1 for violin and piano

Fritz Kreisler
12. Rural serenade in Couperin style

Bela Bartok
13. Rhapsody No.2 for violin and piano

Radion Schedrin (treatment by Snitkovsky)
14-16. Three fragments from the ballet 'The magic humpbacked horse'

Semyon Snitkovsky, violin
Leonora Iosiovich, piano (4-16)
Chamber orchestra, conducted by L.Markiz (1-3)
Recorded in 1963—1975



CD2:

Louis-Nicolas Clérambault
1. Prelude and Allegro

Franz Schubert
2. Concertstück for violin and orchestra in D major

Karol Szymanowski
3-5. Sonata for violin and piano, op.9 in D major

N. Paganini - K. Szymanowski
6. Capriccio No.20, op.1 in D major
7. Capriccio No.21, op.1 in A major

Eugène Ysaÿe
8. Sonata-ballade No.1 in D minor for solo violin

Karen Khachaturian
9-11. Sonata for violin and piano in G minor

Claude Debussy (treatment by J. Heifetz)
12. Prélude à l'après-midi d'un faune

Manuel de Falla
13. Jota

Semyon Snitkovsky, violin
Leonora Iosiovich, piano (1, 3-7, 9-13)
Ensemble of soloists, conductor - L.Markiz (2)
Recorded in 1963-1978



CD3:

Alexander Glazunov
1. Concerto for violin and orchestra in A minor, op.82

Claude Debussy
2-4. Sonata for violin and piano in G minor

Franz Schubert
5. Rondo for violin and string orchestra (transcription for violin and piano) in B-flat minor

Maurice Ravel
6. Two waltzes from 'The noble and sentimental waltzes'

Franz Liszt
7. Hungarian rhapsody for violin and piano

Johannes Brahms
8. Scherzo (3rd movement from violin sonata in C major)

Cyril Scott
9. Lotus land. Piece for violin and piano

Igor Stravinsky
10. Russian Dances. The ballet suite 'Petroushka' (transcription vor violin and piano)

Semyon Snitkovsky, violin
Leonora Iosiovich, piano (2-10)
The Great Symphony Orchestra of the All-Union Radio
Conductor: Gennady Rozhdestvensky (1)
Recorded in 1965-1975


Exact Audio Copy V0.99 prebeta 4 from 23. January 2008

Отчёт EAC об извлечении, выполненном 3. мая 2014, 12:05

Unknown Artist / Unknown Title

Дисковод: Optiarc DVD RW AD-7280S Adapter: 4 ID: 1

Режим чтения : Достоверность
Использование точного потока : Да
Отключение кэша аудио : Да
Использование указателей C2 : Нет

Коррекция смещения при чтении : 48
Способность читать области Lead-in и Lead-out : Нет
Заполнение пропущенных сэмплов тишиной : Да
Удаление блоков с тишиной в начале и конце : Нет
При вычислениях CRC использовались нулевые сэмплы : Да
Интерфейс : Встроенный Win32-интерфейс для Win NT/2000

Выходной формат : Внутренние WAV-операции
Формат сэмплов : 44.100 Гц; 16 бит; стерео


TOC извлечённого CD

Трек | Старт | Длительность | Начальный сектор | Конечный сектор
––––––––––––––––––––––––––––––––––-
1 | 0:02.00 | 4:05.33 | 150 | 18557
2 | 4:07.33 | 7:11.65 | 18558 | 50947
3 | 11:19.23 | 4:00.17 | 50948 | 68964
4 | 15:19.40 | 6:15.62 | 68965 | 97151
5 | 21:35.27 | 4:13.45 | 97152 | 116171
6 | 25:48.72 | 4:34.45 | 116172 | 136766
7 | 30:23.42 | 3:46.00 | 136767 | 153716
8 | 34:09.42 | 3:19.45 | 153717 | 168686
9 | 37:29.12 | 7:24.24 | 168687 | 202010
10 | 44:53.36 | 3:16.66 | 202011 | 216776
11 | 48:10.27 | 5:08.00 | 216777 | 239876
12 | 53:18.27 | 2:35.67 | 239877 | 251568
13 | 55:54.19 | 10:13.29 | 251569 | 297572
14 | 66:07.48 | 2:46.11 | 297573 | 310033
15 | 68:53.59 | 2:06.00 | 310034 | 319483
16 | 70:59.59 | 2:03.16 | 319484 | 328724


Характеристики диапазона извлечения и сообщения об ошибках

Выбранный диапазон

Имя файла C:\002 - Снитковский\CD1\Unknown Artist - Unknown Title.wav

Пиковый уровень 99.9 %
Качество диапазона 100.0 %
CRC копии 5F0C9A49
Копирование… OK

Ошибок не произошло


AccurateRip: сводка

Трек 1 точность не определена (достоверность 1) [7D471BAF], AccurateRip вернул [0DE5B2DE]
Трек 2 точность не определена (достоверность 1) [88CFBAAE], AccurateRip вернул [D5E20B8E]
Трек 3 точность не определена (достоверность 1) [C58066C8], AccurateRip вернул [125755CC]
Трек 4 точность не определена (достоверность 1) [0E156BAF], AccurateRip вернул [0AD8665E]
Трек 5 точность не определена (достоверность 1) [29EF3EFD], AccurateRip вернул [3AB4F374]
Трек 6 точность не определена (достоверность 1) [B9C6566D], AccurateRip вернул [0AAC2AD2]
Трек 7 точность не определена (достоверность 1) [12503096], AccurateRip вернул [FF971455]
Трек 8 точность не определена (достоверность 1) [55A322CD], AccurateRip вернул [49F0A5BC]
Трек 9 точность не определена (достоверность 1) [0D745408], AccurateRip вернул [421F4FA1]
Трек 10 точность не определена (достоверность 1) [36B8D292], AccurateRip вернул [DDCBA6E8]
Трек 11 точность не определена (достоверность 1) [26F4CACC], AccurateRip вернул [A2D2E97C]
Трек 12 точность не определена (достоверность 1) [A2B25FDC], AccurateRip вернул [49A2B866]
Трек 13 точность не определена (достоверность 1) [15A61D0F], AccurateRip вернул [13345580]
Трек 14 точность не определена (достоверность 1) [AB78DDC0], AccurateRip вернул [77228397]
Трек 15 точность не определена (достоверность 1) [8B79786A], AccurateRip вернул [76DEBF05]
Трек 16 точность не определена (достоверность 1) [7A8B5DF5], AccurateRip вернул [1B240185]

Ни один трек не прошёл проверки на точность
В вашей базе может быть иной вариант штамповки диска

Конец отчёта

[CUETools log; Date: 27.11.2017 17:54:30; Version: 2.1.4]
Pregap length 00:02:00.
[CTDB TOCID: j1AudHTFYZTOyqoPksbqoW2jjJM-] disk not present in database.
[AccurateRip ID: 002d6d8e-021c87e5-e4111d10] found.
Track [ CRC | V2 ] Status
01 [7d471baf|0de5b2de] (0+1/1) Accurately ripped
02 [88cfbaae|d5e20b8e] (0+1/1) Accurately ripped
03 [c58066c8|125755cc] (0+1/1) Accurately ripped
04 [0e156baf|0ad8665e] (0+1/1) Accurately ripped
05 [29ef3efd|3ab4f374] (0+1/1) Accurately ripped
06 [b9c6566d|0aac2ad2] (0+1/1) Accurately ripped
07 [12503096|ff971455] (0+1/1) Accurately ripped
08 [55a322cd|49f0a5bc] (0+1/1) Accurately ripped
09 [0d745408|421f4fa1] (0+1/1) Accurately ripped
10 [36b8d292|ddcba6e8] (0+1/1) Accurately ripped
11 [26f4cacc|a2d2e97c] (0+1/1) Accurately ripped
12 [a2b25fdc|49a2b866] (0+1/1) Accurately ripped
13 [15a61d0f|13345580] (0+1/1) Accurately ripped
14 [ab78ddc0|77228397] (0+1/1) Accurately ripped
15 [8b79786a|76debf05] (0+1/1) Accurately ripped
16 [7a8b5df5|1b240185] (0+1/1) Accurately ripped

Track Peak [ CRC32 ] [W/O NULL] [ LOG ]
– 99,9 [5F0C9A49] [68691619] CRC32
01 98,8 [5ADF355D] [48436442]
02 67,2 [0AC9FB4D] [C1E1ECD0]
03 98,8 [D1B05BEE] [CEA90436]
04 98,8 [AF8E5A2A] [F7039346]
05 98,8 [EF4CF030] [E6EDCC2C]
06 99,9 [92BE4684] [70B11F25]
07 98,8 [F5BFFCA7] [1FEEA2CE]
08 99,0 [841B680A] [5FAAD891]
09 99,3 [6485787C] [44D85B87]
10 98,1 [57B9D374] [F50D1ABB]
11 98,2 [312C8210] [E459BA95]
12 90,4 [717E036A] [709D2B81]
13 98,8 [7CCB4480] [E1DF609A]
14 98,8 [6ABA0F17] [FA6C8886]
15 89,2 [C9C12D5B] [DA13810F]
16 98,8 [50202018] [335691DF]

foobar2000 1.2 / Dynamic Range Meter 1.1.1
log date: 2017-11-27 18:40:45

––––––––––––––––––––––––––––––––––––––––
Analyzed: Semyon Snitkovsky / The Art of Semyon Snitkovsky Disc 1
––––––––––––––––––––––––––––––––––––––––

DR Peak RMS Duration Track
––––––––––––––––––––––––––––––––––––––––
DR11 -0.10 dB -14.49 dB 4:05 01-JS Bach - Concerto for Violin and Orchestra in A minor I. Allegro moderato
DR14 -3.45 dB -21.27 dB 7:12 02-JS Bach - Concerto for Violin and Orchestra in A minor II. Andante
DR11 -0.10 dB -14.47 dB 4:00 03-Bach - Concerto for Violin and Orchestra in A minor III. Allegro assai
DR13 -0.10 dB -17.71 dB 6:16 04-Schubert - Duo for Violin and Piano in A major, op.162 I. Allegro moderato
DR12 -0.10 dB -15.68 dB 4:14 05-Schubert - Duo for Violin and Piano in A major, op.162 II. Scherzo - Presto
DR15 0.00 dB -19.30 dB 4:35 06-Schubert - Duo for Violin and Piano in A major, op.162 III. Andantino
DR12 -0.10 dB -15.70 dB 3:46 07-Schubert - Duo for Violin and Piano in A major, op.162 IV. Allegro vivace
DR14 -0.08 dB -17.72 dB 3:20 08-Paganini - Sonata No.12 in E minor, op.3 No.6
DR8 -0.06 dB -11.53 dB 7:24 09-Schumann - Sonata No.1 for Violin and Piano in A minor, op.46 I. Mit leidenschaftlichem Ausdruck
DR11 -0.17 dB -16.04 dB 3:17 10-Schumann - Sonata No.1 for Violin and Piano in A minor, op.46 II. Allegretto
DR11 -0.15 dB -15.21 dB 5:08 11-Schumann - Sonata No.1 for Violin and Piano in A minor, op.46 III. Lebhaft
DR13 -0.87 dB -19.93 dB 2:36 12-Kreisler - Country Serenade in the Style of Couperin
DR11 -0.10 dB -14.50 dB 10:13 13-Bartok - Rhapsody No.2 for Violin and Piano
DR14 -0.10 dB -18.54 dB 2:46 14-Shchedrin - Three Fragments from the ballet 'Konyok Gorbunok' (transcr.by Snitkovsky) - I.
DR12 -0.99 dB -19.38 dB 2:06 15-Shchedrin - Three Fragments from the ballet 'Konyok Gorbunok' (transcr.by Snitkovsky) - II.
DR12 -0.10 dB -14.98 dB 2:03 16-Shchedrin - Three Fragments from the ballet 'Konyok Gorbunok' (transcr.by Snitkovsky) - III.
––––––––––––––––––––––––––––––––––––––––

Number of tracks: 16
Official DR value: DR12

Samplerate: 44100 Hz
Channels: 2
Bits per sample: 16
Bitrate: 739 kbps
Codec: FLAC
================================================================================


Exact Audio Copy V0.99 prebeta 4 from 23. January 2008

Отчёт EAC об извлечении, выполненном 3. мая 2014, 12:45

Unknown Artist / Unknown Title

Дисковод: Optiarc DVD RW AD-7280S Adapter: 4 ID: 1

Режим чтения : Достоверность
Использование точного потока : Да
Отключение кэша аудио : Да
Использование указателей C2 : Нет

Коррекция смещения при чтении : 48
Способность читать области Lead-in и Lead-out : Нет
Заполнение пропущенных сэмплов тишиной : Да
Удаление блоков с тишиной в начале и конце : Нет
При вычислениях CRC использовались нулевые сэмплы : Да
Интерфейс : Встроенный Win32-интерфейс для Win NT/2000

Выходной формат : Внутренние WAV-операции
Формат сэмплов : 44.100 Гц; 16 бит; стерео


TOC извлечённого CD

Трек | Старт | Длительность | Начальный сектор | Конечный сектор
––––––––––––––––––––––––––––––––––-
1 | 0:02.00 | 3:08.38 | 150 | 14287
2 | 3:10.38 | 10:33.47 | 14288 | 61809
3 | 13:44.10 | 7:56.64 | 61810 | 97573
4 | 21:40.74 | 6:28.30 | 97574 | 126703
5 | 28:09.29 | 5:33.66 | 126704 | 151744
6 | 33:43.20 | 3:22.11 | 151745 | 166905
7 | 37:05.31 | 3:08.57 | 166906 | 181062
8 | 40:14.13 | 6:11.00 | 181063 | 208887
9 | 46:25.13 | 7:11.53 | 208888 | 241265
10 | 53:36.66 | 6:19.59 | 241266 | 269749
11 | 59:56.50 | 5:16.64 | 269750 | 293513
12 | 65:13.39 | 5:42.32 | 293514 | 319195
13 | 70:55.71 | 2:55.65 | 319196 | 332385


Характеристики диапазона извлечения и сообщения об ошибках

Выбранный диапазон

Имя файла C:\002 - Снитковский\CD2\Unknown Artist - Unknown Title.wav

Пиковый уровень 99.9 %
Качество диапазона 100.0 %
CRC копии 814F5848
Копирование… OK

Ошибок не произошло


AccurateRip: сводка

Трек 1 нет в базе данных
Трек 2 нет в базе данных
Трек 3 нет в базе данных
Трек 4 нет в базе данных
Трек 5 нет в базе данных
Трек 6 нет в базе данных
Трек 7 нет в базе данных
Трек 8 нет в базе данных
Трек 9 нет в базе данных
Трек 10 нет в базе данных
Трек 11 нет в базе данных
Трек 12 нет в базе данных
Трек 13 нет в базе данных

Ни одного трека нет в базе AccurateRip

Конец отчёта

[CUETools log; Date: 27.11.2017 17:54:47; Version: 2.1.4]
Pregap length 00:02:00.
[CTDB TOCID: KGAuwDJ3z9ykRo_fttrw_URBPwE-] disk not present in database.
[AccurateRip ID: 00259dd8-01738e66-bd114d0d] found.
Track [ CRC | V2 ] Status
01 [10e71895|6dcf16bc] (0+1/1) Accurately ripped
02 [f5a6baff|a8cafd8d] (0+1/1) Accurately ripped
03 [001a5783|28b55be6] (0+1/1) Accurately ripped
04 [33fdb1ea|4d7e27e7] (0+1/1) Accurately ripped
05 [f8bd5ca9|df75c044] (0+1/1) Accurately ripped
06 [266b4e17|196428dd] (0+1/1) Accurately ripped
07 [4a67f76a|18675f7b] (0+1/1) Accurately ripped
08 [a81870b4|b1c325e2] (0+1/1) Accurately ripped
09 [0eef8696|fe50e88e] (0+1/1) Accurately ripped
10 [4be6f438|fe61e597] (0+1/1) Accurately ripped
11 [d19d804d|0b860fed] (0+1/1) Accurately ripped
12 [f526d671|16d21f83] (0+1/1) Accurately ripped
13 [b52f00ae|486ff9fd] (0+1/1) Accurately ripped

Track Peak [ CRC32 ] [W/O NULL] [ LOG ]
– 99,9 [814F5848] [A9F915FF] CRC32
01 99,9 [A0B145F8] [3AD5A59D]
02 88,1 [B0E100C8] [1D93DD44]
03 93,5 [7105068C] [234D40AC]
04 96,2 [C47BB954] [8D696DD5]
05 91,6 [B7F62E27] [EBC496A5]
06 97,3 [2BB2DED5] [E3EC1EEF]
07 81,8 [87B61BE0] [C31682FB]
08 90,9 [C4D82172] [8DC199B5]
09 90,0 [9B860D1B] [ACBF132C]
10 91,3 [C9B7E58C] [F2709554]
11 89,3 [0719BF40] [F6D6FD93]
12 98,8 [44CD22D1] [CBEA98EC]
13 96,7 [5BBF3E0B] [09205FAC]

foobar2000 1.2 / Dynamic Range Meter 1.1.1
log date: 2017-11-27 18:41:13

––––––––––––––––––––––––––––––––––––––––
Analyzed: Semyon Snitkovsky / The Art of Semyon Snitkovsky Disc 2
––––––––––––––––––––––––––––––––––––––––

DR Peak RMS Duration Track
––––––––––––––––––––––––––––––––––––––––
DR9 0.00 dB -12.55 dB 3:09 01-Clerambeau - Prelude and Allegro
DR11 -1.10 dB -17.56 dB 10:34 02-Schubert - Konzertstuck for Violin and Orchestra in D major
DR10 -0.58 dB -14.96 dB 7:57 03-Szymanowski - Sonata for Violin and Piano in D major, op.9 - I. Allegro moderato
DR11 -0.34 dB -17.76 dB 6:28 04-Szymanowski - Sonata for Violin and Piano in D major, op.9 - II. Andantino tranquillo
DR10 -0.76 dB -14.43 dB 5:34 05-Szymanowski - Sonata for Violin and Piano in D major, op.9 - III. Allegro molto quasi presto
DR13 -0.24 dB -18.32 dB 3:22 06-Paganini-Szymanowski - Caprice No.20 in D major, op.1
DR12 -1.73 dB -18.50 dB 3:09 07-Paganini-Szymanowski - Caprice No.21 in A major, op.1
DR10 -0.82 dB -14.72 dB 6:11 08-Ysaye - Sonata No.3 for Violin Solo in D minor 'Ballade'
DR9 -0.91 dB -14.90 dB 7:12 09-Karen Khachaturian - Sonata for Violin and Piano in G minor, op.1 - I. Allegro
DR10 -0.78 dB -15.78 dB 6:20 10-Karen Khachaturian - Sonata for Violin and Piano in G minor, op.1 - II. Andante
DR9 -0.98 dB -13.14 dB 5:17 11-Karen Khachaturian - Sonata for Violin and Piano in G minor, op.1 - II. Presto
DR13 -0.10 dB -18.68 dB 5:42 12-Debussy - L'apres midi d'une faune (transcr.by Heifetz)
DR12 -0.29 dB -18.02 dB 2:56 13-de Falla - Jota
––––––––––––––––––––––––––––––––––––––––

Number of tracks: 13
Official DR value: DR11

Samplerate: 44100 Hz
Channels: 2
Bits per sample: 16
Bitrate: 750 kbps
Codec: FLAC
================================================================================


Exact Audio Copy V0.99 prebeta 4 from 23. January 2008

Отчёт EAC об извлечении, выполненном 3. мая 2014, 13:13

Unknown Artist / Unknown Title

Дисковод: Optiarc DVD RW AD-7280S Adapter: 4 ID: 1

Режим чтения : Достоверность
Использование точного потока : Да
Отключение кэша аудио : Да
Использование указателей C2 : Нет

Коррекция смещения при чтении : 48
Способность читать области Lead-in и Lead-out : Нет
Заполнение пропущенных сэмплов тишиной : Да
Удаление блоков с тишиной в начале и конце : Нет
При вычислениях CRC использовались нулевые сэмплы : Да
Интерфейс : Встроенный Win32-интерфейс для Win NT/2000

Выходной формат : Внутренние WAV-операции
Формат сэмплов : 44.100 Гц; 16 бит; стерео


TOC извлечённого CD

Трек | Старт | Длительность | Начальный сектор | Конечный сектор
––––––––––––––––––––––––––––––––––-
1 | 0:02.00 | 19:50.30 | 150 | 89429
2 | 19:52.30 | 4:48.38 | 89430 | 111067
3 | 24:40.68 | 4:00.22 | 111068 | 129089
4 | 28:41.15 | 3:59.56 | 129090 | 147070
5 | 32:40.71 | 14:49.19 | 147071 | 213764
6 | 47:30.15 | 4:07.00 | 213765 | 232289
7 | 51:37.15 | 9:05.62 | 232290 | 273226
8 | 60:43.02 | 2:53.18 | 273227 | 286219
9 | 63:36.20 | 4:17.48 | 286220 | 305542
10 | 67:53.68 | 2:41.31 | 305543 | 317648


Характеристики диапазона извлечения и сообщения об ошибках

Выбранный диапазон

Имя файла C:\002 - Снитковский\CD3\Unknown Artist - Unknown Title.wav

Пиковый уровень 98.7 %
Качество диапазона 100.0 %
CRC копии 861EF234
Копирование… OK

Ошибок не произошло


AccurateRip: сводка

Трек 1 нет в базе данных
Трек 2 нет в базе данных
Трек 3 нет в базе данных
Трек 4 нет в базе данных
Трек 5 нет в базе данных
Трек 6 нет в базе данных
Трек 7 нет в базе данных
Трек 8 нет в базе данных
Трек 9 нет в базе данных
Трек 10 нет в базе данных

Ни одного трека нет в базе AccurateRip

Конец отчёта

[CUETools log; Date: 27.11.2017 17:55:04; Version: 2.1.4]
Pregap length 00:02:00.
[CTDB TOCID: PGV..n_VeMx2izwTFpSj1JlzNsc-] disk not present in database.
[AccurateRip ID: 0020209f-00f3e52a-9d10890a] disk not present in database.

Track Peak [ CRC32 ] [W/O NULL] [ LOG ]
– 98,7 [861EF234] [77E74017] CRC32
01 95,9 [25AD0AF9] [1CA634DD]
02 96,4 [DDE9483C] [03D25661]
03 98,7 [3AA7EFB7] [16BA85A5]
04 97,5 [FFA3DB31] [828C75A9]
05 93,1 [67A61E4F] [D8B94507]
06 89,0 [F6563A76] [C5BAC702]
07 89,0 [103B0FD1] [3846C39A]
08 89,1 [66A020D9] [B3D5194E]
09 88,0 [3ADEA3C6] [95A99CFF]
10 90,6 [0D228C1B] [2BADAB92]

foobar2000 1.2 / Dynamic Range Meter 1.1.1
log date: 2017-11-27 18:41:40

––––––––––––––––––––––––––––––––––––––––
Analyzed: Semyon Snitkovsky / The Art of Semyon Snitkovsky Disc 3
––––––––––––––––––––––––––––––––––––––––

DR Peak RMS Duration Track
––––––––––––––––––––––––––––––––––––––––
DR11 -0.36 dB -15.90 dB 19:50 01-Glazunov - Concerto for Violin and Orchestra in A minor, op.82
DR11 -0.32 dB -16.03 dB 4:49 02-Debussy - Sonata for Violin and Piano in G minor - I. Allegro vivo
DR12 -0.11 dB -17.21 dB 4:00 03-Debussy - Sonata for Violin and Piano in G minor - II. Intermede - Fantastique Et Lager
DR10 -0.21 dB -14.29 dB 4:00 04-Debussy - Sonata for Violin and Piano in G minor - III. Finale - Tres anime
DR10 -0.61 dB -14.82 dB 14:49 05-Schubert - Rondo for Violin and String Orchestra in B minor 'Rondo Brillante', D.895
DR9 -1.01 dB -15.30 dB 4:07 06-Ravel - Two Waltzes from 'Valses Nobles et Sentimentales' (transcr by Heifetz)
DR8 -1.00 dB -13.36 dB 9:06 07-Liszt - Hungarian Rhapsody for Violin and Piano
DR11 -1.00 dB -15.05 dB 2:53 08-Brahms - Hungarian Dance in A minor
DR11 -1.11 dB -17.97 dB 4:18 09-Scott - Lotus Land for Violin and Pano
DR9 -0.86 dB -13.47 dB 2:41 10-Stravinsky - Russian Dance Suite from the ballet 'Petroushka'
––––––––––––––––––––––––––––––––––––––––

Number of tracks: 10
Official DR value: DR10

Samplerate: 44100 Hz
Channels: 2
Bits per sample: 16
Bitrate: 754 kbps
Codec: FLAC
================================================================================

Semyon Snitkovsky - Art Of Semyon Snitkovsky. 75th Anniversary Edition (2008) 3CD Set

All thanks to original releaser

More interesting music in My Blog