Subcategories
Tags
Language
Tags

Art Pepper - Art Pepper + Eleven: Modern Jazz Classics (1959) [Reissue 1988]

Posted By: gribovar
Art Pepper - Art Pepper + Eleven: Modern Jazz Classics (1959) [Reissue 1988]

Art Pepper - Art Pepper + Eleven: Modern Jazz Classics (1959) [Reissue 1988]
EAC Rip | FLAC (tracks+.cue+log) - 300 MB | MP3 CBR 320 kbps (LAME 3.93) - 131 MB | Covers - 18 MB
Genre: Cool Jazz, Bop, Big Band | RAR 3% Rec. | Label: OJC/Fantasy (OJCCD 341-2 (S-7568))

This is a true classic. Altoist Art Pepper is joined by an 11-piece band playing Marty Paich arrangements of a dozen jazz standards from the bop and cool jazz era. Trumpeter Jack Sheldon has a few solos, but the focus is very much on the altoist who is in peak form for this period. Throughout, Pepper sounds quite inspired by Paich's charts which feature the band as an active part of the music rather than just in the background. Highlights of this highly enjoyable set include "Move," "Four Brothers," "Shaw Nuff," "Anthropology," and "Donna Lee," but there is not a single throwaway track to be heard. Essential music for all serious jazz collections. This edition add two additional versions of "Walkin'" and one of "Donna Lee" to the original program.
Tracklist:
01. Move
02. Groovin' High
03. Opus De Funk
04. 'Round Midnight
05. Four Brothers
06. Shaw Nuff
07. Bernie's Tune
08. Walkin' Shoes
09. Anthropology
10. Airegin
11. Walkin' (Original Take)
12. Walkin' (Alternate Take 1) (Bonus track)
13. Walkin' (Alternate Take 2) (Bonus track)
14. Donna Lee (Original Take)
15. Donna Lee (Alternate Take) (Bonus track)

Total time: 55:33

Exact Audio Copy V1.0 beta 3 from 29. August 2011

EAC extraction logfile from 19. June 2014, 14:38

Art Pepper / Art Pepper + Eleven: Modern Jazz Classics

Used drive : HL-DT-STDVD-RAM GH22NP20 Adapter: 0 ID: 0

Read mode : Secure
Utilize accurate stream : Yes
Defeat audio cache : Yes
Make use of C2 pointers : No

Read offset correction : 102
Overread into Lead-In and Lead-Out : No
Fill up missing offset samples with silence : Yes
Delete leading and trailing silent blocks : No
Null samples used in CRC calculations : Yes
Used interface : Native Win32 interface for Win NT & 2000
Gap handling : Not detected, thus appended to previous track

Used output format : User Defined Encoder
Selected bitrate : 1024 kBit/s
Quality : High
Add ID3 tag : No
Command line compressor : C:\Program Files\Exact Audio Copy\Flac\flac.exe
Additional command line options : -V -8 -T "Genre=%genre%" -T "Artist=%artist%" -T "Title=%title%" -T "Album=%albumtitle%" -T "Date=%year%" -T "Tracknumber=%tracknr%" -T "Comment=%comment%" %source%


TOC of the extracted CD

Track | Start | Length | Start sector | End sector
––––––––––––––––––––––––––––-
1 | 0:00.00 | 3:29.00 | 0 | 15674
2 | 3:29.00 | 3:25.60 | 15675 | 31109
3 | 6:54.60 | 3:16.53 | 31110 | 45862
4 | 10:11.38 | 3:36.37 | 45863 | 62099
5 | 13:48.00 | 3:02.18 | 62100 | 75767
6 | 16:50.18 | 2:59.52 | 75768 | 89244
7 | 19:49.70 | 2:48.73 | 89245 | 101917
8 | 22:38.68 | 3:33.62 | 101918 | 117954
9 | 26:12.55 | 3:21.68 | 117955 | 133097
10 | 29:34.48 | 3:03.60 | 133098 | 146882
11 | 32:38.33 | 5:18.10 | 146883 | 170742
12 | 37:56.43 | 4:59.35 | 170743 | 193202
13 | 42:56.03 | 5:03.57 | 193203 | 215984
14 | 47:59.60 | 3:23.48 | 215985 | 231257
15 | 51:23.33 | 4:09.52 | 231258 | 249984


Track 1

Filename D:\music\Musicgate's rips\Art Pepper + Eleven - Modern Jazz Classics - 1959 (1988)\01 - Move.wav

Peak level 56.4 %
Extraction speed 1.5 X
Track quality 100.0 %
Test CRC 0544C0A3
Copy CRC 0544C0A3
Cannot be verified as accurate (confidence 6) [B4DE7901], AccurateRip returned [E9F6DDAA] (AR v2)
Copy OK

Track 2

Filename D:\music\Musicgate's rips\Art Pepper + Eleven - Modern Jazz Classics - 1959 (1988)\02 - Groovin' High.wav

Peak level 46.4 %
Extraction speed 1.6 X
Track quality 100.0 %
Test CRC BE970132
Copy CRC BE970132
Cannot be verified as accurate (confidence 6) [0140F748], AccurateRip returned [1BBA8D94] (AR v2)
Copy OK

Track 3

Filename D:\music\Musicgate's rips\Art Pepper + Eleven - Modern Jazz Classics - 1959 (1988)\03 - Opus de Funk.wav

Peak level 47.8 %
Extraction speed 1.8 X
Track quality 100.0 %
Test CRC 6F4507C1
Copy CRC 6F4507C1
Cannot be verified as accurate (confidence 6) [0D4AE451], AccurateRip returned [1C7DDFAA] (AR v2)
Copy OK

Track 4

Filename D:\music\Musicgate's rips\Art Pepper + Eleven - Modern Jazz Classics - 1959 (1988)\04 - 'Round Midnight.wav

Peak level 41.0 %
Extraction speed 1.9 X
Track quality 100.0 %
Test CRC 77EA33F6
Copy CRC 77EA33F6
Cannot be verified as accurate (confidence 6) [D11B4835], AccurateRip returned [DA3409BC] (AR v2)
Copy OK

Track 5

Filename D:\music\Musicgate's rips\Art Pepper + Eleven - Modern Jazz Classics - 1959 (1988)\05 - Four Brothers.wav

Peak level 51.9 %
Extraction speed 1.7 X
Track quality 99.9 %
Test CRC 0E086308
Copy CRC 0E086308
Cannot be verified as accurate (confidence 6) [D37AD789], AccurateRip returned [AAFFD432] (AR v2)
Copy OK

Track 6

Filename D:\music\Musicgate's rips\Art Pepper + Eleven - Modern Jazz Classics - 1959 (1988)\06 - Shaw Nuff.wav

Peak level 50.6 %
Extraction speed 2.1 X
Track quality 100.0 %
Test CRC 747C9859
Copy CRC 747C9859
Cannot be verified as accurate (confidence 6) [D6514C2C], AccurateRip returned [1F0AA56D] (AR v2)
Copy OK

Track 7

Filename D:\music\Musicgate's rips\Art Pepper + Eleven - Modern Jazz Classics - 1959 (1988)\07 - Bernie's Tune.wav

Peak level 41.1 %
Extraction speed 1.8 X
Track quality 99.9 %
Test CRC 594F479A
Copy CRC 594F479A
Cannot be verified as accurate (confidence 6) [0EE798EB], AccurateRip returned [F63ABE6A] (AR v2)
Copy OK

Track 8

Filename D:\music\Musicgate's rips\Art Pepper + Eleven - Modern Jazz Classics - 1959 (1988)\08 - Walkin' Shoes.wav

Peak level 45.4 %
Extraction speed 2.3 X
Track quality 100.0 %
Test CRC 129F9362
Copy CRC 129F9362
Cannot be verified as accurate (confidence 6) [E20A3E55], AccurateRip returned [6FCF9AEF] (AR v2)
Copy OK

Track 9

Filename D:\music\Musicgate's rips\Art Pepper + Eleven - Modern Jazz Classics - 1959 (1988)\09 - Anthropology.wav

Peak level 45.2 %
Extraction speed 2.4 X
Track quality 100.0 %
Test CRC 6A82B713
Copy CRC 6A82B713
Cannot be verified as accurate (confidence 6) [922A7455], AccurateRip returned [9B8F11CF] (AR v2)
Copy OK

Track 10

Filename D:\music\Musicgate's rips\Art Pepper + Eleven - Modern Jazz Classics - 1959 (1988)\10 - Airegin.wav

Peak level 51.5 %
Extraction speed 2.5 X
Track quality 100.0 %
Test CRC 877BF865
Copy CRC 877BF865
Cannot be verified as accurate (confidence 6) [EEC868F1], AccurateRip returned [B878B29D] (AR v2)
Copy OK

Track 11

Filename D:\music\Musicgate's rips\Art Pepper + Eleven - Modern Jazz Classics - 1959 (1988)\11 - Walkin'.wav

Peak level 52.3 %
Extraction speed 2.8 X
Track quality 100.0 %
Test CRC FB60E10A
Copy CRC FB60E10A
Cannot be verified as accurate (confidence 6) [0493544C], AccurateRip returned [E4AD78FC] (AR v2)
Copy OK

Track 12

Filename D:\music\Musicgate's rips\Art Pepper + Eleven - Modern Jazz Classics - 1959 (1988)\12 - Walkin' (alternate take 1).wav

Peak level 52.2 %
Extraction speed 2.6 X
Track quality 99.9 %
Test CRC B64B4522
Copy CRC B64B4522
Cannot be verified as accurate (confidence 5) [4489B901], AccurateRip returned [DCD04F4D] (AR v2)
Copy OK

Track 13

Filename D:\music\Musicgate's rips\Art Pepper + Eleven - Modern Jazz Classics - 1959 (1988)\13 - Walkin' (alternate take 2).wav

Peak level 75.8 %
Extraction speed 2.7 X
Track quality 99.9 %
Test CRC 4F1A20C6
Copy CRC 4F1A20C6
Cannot be verified as accurate (confidence 5) [CFECF052], AccurateRip returned [248DB57E] (AR v2)
Copy OK

Track 14

Filename D:\music\Musicgate's rips\Art Pepper + Eleven - Modern Jazz Classics - 1959 (1988)\14 - Donna Lee.wav

Peak level 46.6 %
Extraction speed 2.9 X
Track quality 100.0 %
Test CRC AF11E2D9
Copy CRC AF11E2D9
Cannot be verified as accurate (confidence 6) [6302792B], AccurateRip returned [78DE9223] (AR v2)
Copy OK

Track 15

Filename D:\music\Musicgate's rips\Art Pepper + Eleven - Modern Jazz Classics - 1959 (1988)\15 - Donna Lee (alternate take).wav

Peak level 59.5 %
Extraction speed 2.8 X
Track quality 99.9 %
Test CRC B367F779
Copy CRC B367F779
Cannot be verified as accurate (confidence 5) [6E34A305], AccurateRip returned [D43FBFB7] (AR v2)
Copy OK


No tracks could be verified as accurate
You may have a different pressing from the one(s) in the database

No errors occurred

End of status report

==== Log checksum E091408F51832FA82C6E21752C635BC0B9F0236A3EA1C8C696EB5C586742E094 ====

[CUETools log; Date: 30.07.2020 12:42:07; Version: 2.1.4]
[CTDB TOCID: Wi71GlbPUORm472krVXCgEWEOqc-] found.
Track | CTDB Status
1 | (15/16) Accurately ripped
2 | (16/16) Accurately ripped
3 | (15/16) Accurately ripped
4 | (16/16) Accurately ripped
5 | (16/16) Accurately ripped
6 | (16/16) Accurately ripped
7 | (16/16) Accurately ripped
8 | (16/16) Accurately ripped
9 | (16/16) Accurately ripped
10 | (15/16) Accurately ripped
11 | (15/16) Accurately ripped
12 | (15/16) Accurately ripped
13 | (15/16) Accurately ripped
14 | (15/16) Accurately ripped
15 | (15/16) Accurately ripped
[AccurateRip ID: 001cb2d5-014933a3-c20d050f] found.
Track [ CRC | V2 ] Status
01 [39a1ca6a|b4de7901] (00+00/13) No match
02 [9fe6d9db|0140f748] (00+00/13) No match
03 [b4dce7dd|0d4ae451] (00+00/13) No match
04 [9a62f670|d11b4835] (00+00/14) No match
05 [92a78fec|d37ad789] (00+00/13) No match
06 [7bba9b2c|d6514c2c] (00+00/13) No match
07 [fc882810|0ee798eb] (00+00/13) No match
08 [12aa05be|e20a3e55] (00+00/13) No match
09 [96f1987f|922a7455] (00+00/13) No match
10 [685164bb|eec868f1] (00+00/12) No match
11 [ca4b34c3|0493544c] (00+00/13) No match
12 [d1210e22|4489b901] (00+00/12) No match
13 [60362cd8|cfecf052] (00+00/12) No match
14 [ff461035|6302792b] (00+00/13) No match
15 [7e85fbe8|6e34a305] (00+00/12) No match
Offsetted by 71:
01 [6b2a3749] (04/13) Accurately ripped
02 [b37bc7e7] (04/13) Accurately ripped
03 [c2d41a9b] (04/13) Accurately ripped
04 [a114b179] (04/14) Accurately ripped
05 [67ec0e1a] (04/13) Accurately ripped
06 [c873505a] (04/13) Accurately ripped
07 [f3b0e39e] (04/13) Accurately ripped
08 [9b8cf67d] (04/13) Accurately ripped
09 [9fffc096] (04/13) Accurately ripped
10 [3318eb66] (03/12) Accurately ripped
11 [afd6bb1d] (04/13) Accurately ripped
12 [60bacd8a] (04/12) Accurately ripped
13 [c6a9df37] (04/12) Accurately ripped
14 [17907cd3] (04/13) Accurately ripped
15 [d1768762] (04/12) Accurately ripped

Track Peak [ CRC32 ] [W/O NULL] [ LOG ]
– 75,8 [6D748BCB] [9EBC8FE4]
01 56,4 [0544C0A3] [6A20C35E] CRC32
02 46,4 [BE970132] [CFBBCBF5] CRC32
03 47,8 [6F4507C1] [BB3B5DEF] CRC32
04 41,0 [77EA33F6] [85945682] CRC32
05 51,9 [0E086308] [A9B5396C] CRC32
06 50,6 [747C9859] [0976B690] CRC32
07 41,1 [594F479A] [FDF35F70] CRC32
08 45,4 [129F9362] [D201579F] CRC32
09 45,2 [6A82B713] [FB16D1FA] CRC32
10 51,5 [877BF865] [057F9E7F] CRC32
11 52,3 [FB60E10A] [32D01D08] CRC32
12 52,2 [B64B4522] [60658483] CRC32
13 75,8 [4F1A20C6] [56FA2172] CRC32
14 46,6 [AF11E2D9] [82F0490A] CRC32
15 59,5 [B367F779] [42C818D2] CRC32

Thanks to Musicgate

See also: