Subcategories

Artie Shaw And His Orchestra - 1945-1946 (2003)

Posted By: gribovar
Artie Shaw And His Orchestra - 1945-1946 (2003)

Artie Shaw And His Orchestra - 1945-1946 (2003)
EAC Rip | FLAC (tracks+.cue+log) - 204 MB | Covers (15 MB) included
Genre: Jazz, Big Band, Swing | RAR 3% Rec. | Label: Classics Records (CLASSICS1330)

Here lie the last of the Victor recordings by Artie Shaw and his orchestra, dating from July and November of 1945. The first nine titles are charming big band dance numbers. A lot of that charm comes straight up from Dodo Marmarosa's piano and Barney Kessel's guitar, through the trumpet of Roy Eldridge and out of Artie Shaw's elegant clarinet. Those are four good reasons to check these records out, up close. Anybody who loves Dodo Marmarosa needs to hear these recordings in order to be able to appreciate how this young man interacted with a big band. Fortunately, there are only a few vocals by syrupy singer Halsey Stevens. At the tail end of "Yolanda," Dodo executes a mildly dissonant run in an apparent response to the heavily sugared crooning. Every sappy vocal is countered by several handsome instrumental interpretations of melodies by George Gershwin, Jerome Kern and Rodgers & Hart. Five solid performances by Artie Shaw Gramercy Five constitute the artistic high point of this CD. But the clarinetist seems to have been unwilling to stick with one style for more than a little while. Personnel changes began to occur and the music itself soon became radically different. Beginning on November 14, 1945, Shaw switched from Victor to the Musicraft label. Eldridge was gone, and the hip team of Kessel and Marmarosa were on the way out, along with much of the jazz element. On April 30 1946 the orchestra was augmented with strings. Succumbing to some sort of Hollywood malaise, Shaw's orchestra found itself supporting the confectionary voices of Mel Tormé & the Mel-Tones. The session of June 6 featured Shaw's clarinet backed by an enormous ensemble consisting of 12 violins, five violas, four cellos, three basses [one of which was played by Art Shapiro], harp, piano, guitar, drums, oboe, flute, two bassoons, four French horns and five saxophones. Arrangements were by Teddy Walters. Pointing in the direction of Technicolor, television and Tupperware, these recordings are as different as can be from the exciting jazz cooked up by Shaw's band only a few months earlier. While Shaw had his own reasons for heading in this direction, he was also at the mercy of the entertainment industry, and said as much in his autobiography, The Trouble with Cinderella.
Tracklist:
01. No One But You
02. They Didn't Believe Me
03. Dancing On The Ceiling
04. I Can't Get Started
05. Just Floating Along
06. Don't Blame Me
07. Yolanda
08. I Can't Escape From You
09. But Not For Me
10. Scuttlebutt
11. The Gentle Grifter
12. Mysterioso
13. Hop, Skip And Jump
14. Let's Walk
15. Love Of My Life
16. Ghost Of A Chance
17. How Deep Is The Ocean
18. The Glider
19. The Hornet
20. I Got The Sun In The Morning
21. Along With Me
22. You Do Something To Me
23. In The Still Of The Night
24. Begin The Beguine
25. My Heart Belongs To Daddy

Total time: 01:16:32

Exact Audio Copy V1.0 beta 3 from 29. August 2011

EAC extraction logfile from 6. October 2014, 21:10

Artie Shaw & Orchestra / 1945-1946

Used drive : HL-DT-STDVD+-RW GHA2N Adapter: 0 ID: 0

Read mode : Secure
Utilize accurate stream : Yes
Defeat audio cache : Yes
Make use of C2 pointers : No

Read offset correction : 667
Overread into Lead-In and Lead-Out : No
Fill up missing offset samples with silence : Yes
Delete leading and trailing silent blocks : No
Null samples used in CRC calculations : Yes
Used interface : Native Win32 interface for Win NT & 2000
Gap handling : Appended to previous track

Used output format : User Defined Encoder
Selected bitrate : 896 kBit/s
Quality : High
Add ID3 tag : No
Command line compressor : C:\Program Files (x86)\Exact Audio Copy\Flac\flac.exe
Additional command line options : -8 -V -T "ARTIST=%artist%" -T "TITLE=%title%" -T "ALBUM=%albumtitle%" -T "DATE=%year%" -T "TRACKNUMBER=%tracknr%" -T "GENRE=%genre%" -T "PERFORMER=%albuminterpret%" -T "COMPOSER=%composer%" %haslyrics%–tag-from-file=LYRICS="%lyricsfile%"%haslyrics% -T "ALBUMARTIST=%albumartist%" -T "DISCNUMBER=%cdnumber%" -T "TOTALDISCS=%totalcds%" -T "TOTALTRACKS=%numtracks%" -T "COMMENT=%comment%" %source% -o %dest%


TOC of the extracted CD

Track | Start | Length | Start sector | End sector
––––––––––––––––––––––––––––-
1 | 0:00.32 | 3:02.64 | 32 | 13745
2 | 3:03.21 | 2:55.50 | 13746 | 26920
3 | 5:58.71 | 3:09.45 | 26921 | 41140
4 | 9:08.41 | 3:22.63 | 41141 | 56353
5 | 12:31.29 | 3:05.65 | 56354 | 70293
6 | 15:37.19 | 2:54.72 | 70294 | 83415
7 | 18:32.16 | 3:12.23 | 83416 | 97838
8 | 21:44.39 | 3:03.52 | 97839 | 111615
9 | 24:48.16 | 3:02.67 | 111616 | 125332
10 | 27:51.08 | 3:13.49 | 125333 | 139856
11 | 31:04.57 | 2:51.27 | 139857 | 152708
12 | 33:56.09 | 3:02.49 | 152709 | 166407
13 | 36:58.58 | 2:59.09 | 166408 | 179841
14 | 39:57.67 | 3:01.67 | 179842 | 193483
15 | 42:59.59 | 3:10.16 | 193484 | 207749
16 | 46:10.00 | 3:12.48 | 207750 | 222197
17 | 49:22.48 | 2:58.32 | 222198 | 235579
18 | 52:21.05 | 2:52.13 | 235580 | 248492
19 | 55:13.18 | 3:07.12 | 248493 | 262529
20 | 58:20.30 | 3:00.50 | 262530 | 276079
21 | 61:21.05 | 3:08.61 | 276080 | 290240
22 | 64:29.66 | 2:51.63 | 290241 | 303128
23 | 67:21.54 | 2:50.54 | 303129 | 315932
24 | 70:12.33 | 3:14.72 | 315933 | 330554
25 | 73:27.30 | 3:04.48 | 330555 | 344402


Track 1

Filename C:\What CD\European Episode\01 No One But You.wav

Pre-gap length 0:00:02.42

Peak level 99.4 %
Extraction speed 1.7 X
Track quality 100.0 %
Test CRC 48440EF7
Copy CRC 48440EF7
Accurately ripped (confidence 1) [AE66F705] (AR v2)
Copy OK

Track 2

Filename C:\What CD\European Episode\02 They Didn't Believe Me.wav

Pre-gap length 0:00:01.93

Peak level 99.4 %
Extraction speed 1.9 X
Track quality 100.0 %
Test CRC A6D7733B
Copy CRC A6D7733B
Accurately ripped (confidence 1) [99A1503A] (AR v2)
Copy OK

Track 3

Filename C:\What CD\European Episode\03 Dancing On The Ceiling.wav

Pre-gap length 0:00:01.93

Peak level 78.8 %
Extraction speed 2.0 X
Track quality 100.0 %
Test CRC A674D5C6
Copy CRC A674D5C6
Accurately ripped (confidence 1) [0E521608] (AR v2)
Copy OK

Track 4

Filename C:\What CD\European Episode\04 I Can't Get Started.wav

Pre-gap length 0:00:01.93

Peak level 99.4 %
Extraction speed 1.9 X
Track quality 99.9 %
Test CRC DF78E32D
Copy CRC DF78E32D
Accurately ripped (confidence 1) [1F1FB0F9] (AR v2)
Copy OK

Track 5

Filename C:\What CD\European Episode\05 Just Floating Along.wav

Pre-gap length 0:00:01.93

Peak level 99.4 %
Extraction speed 2.2 X
Track quality 100.0 %
Test CRC F10926C2
Copy CRC F10926C2
Accurately ripped (confidence 1) [9F45DF81] (AR v2)
Copy OK

Track 6

Filename C:\What CD\European Episode\06 Don't Blame Me.wav

Pre-gap length 0:00:01.93

Peak level 99.4 %
Extraction speed 2.0 X
Track quality 99.9 %
Test CRC D12CFFEB
Copy CRC D12CFFEB
Accurately ripped (confidence 1) [80B57D32] (AR v2)
Copy OK

Track 7

Filename C:\What CD\European Episode\07 Yolanda.wav

Pre-gap length 0:00:01.93

Peak level 99.4 %
Extraction speed 2.5 X
Track quality 100.0 %
Test CRC 71392CA0
Copy CRC 71392CA0
Accurately ripped (confidence 1) [9F2BB661] (AR v2)
Copy OK

Track 8

Filename C:\What CD\European Episode\08 I Can't Escape From You.wav

Pre-gap length 0:00:01.93

Peak level 99.4 %
Extraction speed 2.6 X
Track quality 100.0 %
Test CRC 333EE4BE
Copy CRC 333EE4BE
Accurately ripped (confidence 1) [E289E3D8] (AR v2)
Copy OK

Track 9

Filename C:\What CD\European Episode\09 But Not For Me.wav

Pre-gap length 0:00:01.93

Peak level 99.4 %
Extraction speed 2.2 X
Track quality 99.9 %
Test CRC 4BF1C0BD
Copy CRC 4BF1C0BD
Accurately ripped (confidence 1) [A811F291] (AR v2)
Copy OK

Track 10

Filename C:\What CD\European Episode\10 Scuttlebutt.wav

Pre-gap length 0:00:01.93

Peak level 93.5 %
Extraction speed 2.8 X
Track quality 100.0 %
Test CRC 51AFA970
Copy CRC 51AFA970
Accurately ripped (confidence 1) [CF7F6F1B] (AR v2)
Copy OK

Track 11

Filename C:\What CD\European Episode\11 The Gentle Grifter.wav

Pre-gap length 0:00:01.93

Peak level 82.9 %
Extraction speed 2.8 X
Track quality 100.0 %
Test CRC 9FF8CFA7
Copy CRC 9FF8CFA7
Accurately ripped (confidence 1) [A358CED6] (AR v2)
Copy OK

Track 12

Filename C:\What CD\European Episode\12 Mysterioso.wav

Pre-gap length 0:00:01.93

Peak level 99.4 %
Extraction speed 2.9 X
Track quality 100.0 %
Test CRC F543ED12
Copy CRC F543ED12
Accurately ripped (confidence 1) [FBC6543E] (AR v2)
Copy OK

Track 13

Filename C:\What CD\European Episode\13 Hop, Skip, And Jump.wav

Pre-gap length 0:00:01.93

Peak level 99.4 %
Extraction speed 3.0 X
Track quality 100.0 %
Test CRC D29D9C3C
Copy CRC D29D9C3C
Accurately ripped (confidence 1) [1608A783] (AR v2)
Copy OK

Track 14

Filename C:\What CD\European Episode\14 Let's Walk.wav

Pre-gap length 0:00:01.93

Peak level 99.4 %
Extraction speed 2.6 X
Track quality 99.9 %
Test CRC 85D5A3B0
Copy CRC 85D5A3B0
Accurately ripped (confidence 1) [4867E00D] (AR v2)
Copy OK

Track 15

Filename C:\What CD\European Episode\15 Love Of My Life.wav

Pre-gap length 0:00:01.93

Peak level 95.9 %
Extraction speed 2.7 X
Track quality 99.9 %
Test CRC 7EBBE035
Copy CRC 7EBBE035
Accurately ripped (confidence 1) [2229E9C3] (AR v2)
Copy OK

Track 16

Filename C:\What CD\European Episode\16 Ghost Of A Chance.wav

Pre-gap length 0:00:01.93

Peak level 99.4 %
Extraction speed 3.3 X
Track quality 100.0 %
Test CRC 75E9122D
Copy CRC 75E9122D
Accurately ripped (confidence 1) [A0DFA6BD] (AR v2)
Copy OK

Track 17

Filename C:\What CD\European Episode\17 How Deep Is The Ocean.wav

Pre-gap length 0:00:01.93

Peak level 99.4 %
Extraction speed 3.3 X
Track quality 100.0 %
Test CRC 91F87121
Copy CRC 91F87121
Accurately ripped (confidence 1) [9C1B575A] (AR v2)
Copy OK

Track 18

Filename C:\What CD\European Episode\18 The Glider.wav

Pre-gap length 0:00:01.93

Peak level 99.4 %
Extraction speed 3.3 X
Track quality 100.0 %
Test CRC 35649128
Copy CRC 35649128
Accurately ripped (confidence 1) [CE0BC3BA] (AR v2)
Copy OK

Track 19

Filename C:\What CD\European Episode\19 The Hornet.wav

Pre-gap length 0:00:01.93

Peak level 99.4 %
Extraction speed 3.4 X
Track quality 100.0 %
Test CRC B932FBD0
Copy CRC B932FBD0
Accurately ripped (confidence 1) [AD627F43] (AR v2)
Copy OK

Track 20

Filename C:\What CD\European Episode\20 I Got The Sun In The Morning.wav

Pre-gap length 0:00:01.93

Peak level 99.4 %
Extraction speed 3.5 X
Track quality 100.0 %
Test CRC C5E1280C
Copy CRC C5E1280C
Accurately ripped (confidence 1) [04490208] (AR v2)
Copy OK

Track 21

Filename C:\What CD\European Episode\21 Along With Me.wav

Pre-gap length 0:00:01.93

Peak level 87.7 %
Extraction speed 3.5 X
Track quality 100.0 %
Test CRC 2F246F4B
Copy CRC 2F246F4B
Accurately ripped (confidence 1) [967FD70F] (AR v2)
Copy OK

Track 22

Filename C:\What CD\European Episode\22 You Do Something To Me.wav

Pre-gap length 0:00:01.93

Peak level 90.8 %
Extraction speed 3.5 X
Track quality 100.0 %
Test CRC 5E2DD81E
Copy CRC 5E2DD81E
Accurately ripped (confidence 1) [39EF325A] (AR v2)
Copy OK

Track 23

Filename C:\What CD\European Episode\23 In The Sill Of The Night.wav

Pre-gap length 0:00:01.93

Peak level 83.9 %
Extraction speed 3.7 X
Track quality 100.0 %
Test CRC 4D968CF8
Copy CRC 4D968CF8
Accurately ripped (confidence 1) [84B4DCF3] (AR v2)
Copy OK

Track 24

Filename C:\What CD\European Episode\24 Begin The Beguine.wav

Pre-gap length 0:00:01.93

Peak level 99.4 %
Extraction speed 3.8 X
Track quality 100.0 %
Test CRC B455BB33
Copy CRC B455BB33
Accurately ripped (confidence 1) [74DB9887] (AR v2)
Copy OK

Track 25

Filename C:\What CD\European Episode\25 My Heart Belongs To Daddy.wav

Pre-gap length 0:00:01.93

Peak level 91.5 %
Extraction speed 3.3 X
Track quality 99.9 %
Test CRC DF776850
Copy CRC DF776850
Accurately ripped (confidence 1) [290D1BF2] (AR v2)
Copy OK


All tracks accurately ripped

No errors occurred

End of status report

==== Log checksum 39B17204B208622250F169D3D8F820AA69251F212D573477DB2AB9909393F631 ====

[CUETools log; Date: 11.01.2019 14:55:25; Version: 2.1.4]
Pregap length 00:00:32.
[CTDB TOCID: bBZTIADSOj8TcA1VpVPfQLm39EQ-] found.
Track | CTDB Status
1 | (2/2) Accurately ripped
2 | (2/2) Accurately ripped
3 | (2/2) Accurately ripped
4 | (2/2) Accurately ripped
5 | (2/2) Accurately ripped
6 | (2/2) Accurately ripped
7 | (2/2) Accurately ripped
8 | (2/2) Accurately ripped
9 | (2/2) Accurately ripped
10 | (2/2) Accurately ripped
11 | (2/2) Accurately ripped
12 | (2/2) Accurately ripped
13 | (2/2) Accurately ripped
14 | (2/2) Accurately ripped
15 | (2/2) Accurately ripped
16 | (2/2) Accurately ripped
17 | (2/2) Accurately ripped
18 | (2/2) Accurately ripped
19 | (2/2) Accurately ripped
20 | (2/2) Accurately ripped
21 | (2/2) Accurately ripped
22 | (2/2) Accurately ripped
23 | (2/2) Accurately ripped
24 | (2/2) Accurately ripped
25 | (2/2) Accurately ripped
[AccurateRip ID: 00449a0c-04d1493d-5d11f019] found.
Track [ CRC | V2 ] Status
01 [27e3ae06|ae66f705] (0+2/2) Accurately ripped
02 [47a076ef|99a1503a] (0+2/2) Accurately ripped
03 [8d0fc67f|0e521608] (0+2/2) Accurately ripped
04 [18ba3613|1f1fb0f9] (0+2/2) Accurately ripped
05 [a71b22ac|9f45df81] (0+2/2) Accurately ripped
06 [e49be5c9|80b57d32] (0+2/2) Accurately ripped
07 [154b3610|9f2bb661] (0+2/2) Accurately ripped
08 [9c83dd1c|e289e3d8] (0+2/2) Accurately ripped
09 [1f55bddf|a811f291] (0+2/2) Accurately ripped
10 [7436acc2|cf7f6f1b] (0+2/2) Accurately ripped
11 [10f50ac8|a358ced6] (0+2/2) Accurately ripped
12 [cbcbcf0b|fbc6543e] (0+2/2) Accurately ripped
13 [cf508e4d|1608a783] (0+2/2) Accurately ripped
14 [429a2324|4867e00d] (0+2/2) Accurately ripped
15 [0e009b5d|2229e9c3] (0+2/2) Accurately ripped
16 [427a6a3e|a0dfa6bd] (0+2/2) Accurately ripped
17 [69dae802|9c1b575a] (0+2/2) Accurately ripped
18 [8ef01843|ce0bc3ba] (0+2/2) Accurately ripped
19 [f5ec52c5|ad627f43] (0+2/2) Accurately ripped
20 [18008cbf|04490208] (0+2/2) Accurately ripped
21 [d50b5e3b|967fd70f] (0+2/2) Accurately ripped
22 [d8a32fca|39ef325a] (0+2/2) Accurately ripped
23 [211e7e8c|84b4dcf3] (0+2/2) Accurately ripped
24 [1b4a215f|74db9887] (0+2/2) Accurately ripped
25 [257e11d2|290d1bf2] (0+2/2) Accurately ripped

Track Peak [ CRC32 ] [W/O NULL] [ LOG ]
– 99,4 [444D5619] [A3D658F3]
01 99,4 [48440EF7] [5BC906C4] CRC32
02 99,4 [A6D7733B] [1DB9C12A] CRC32
03 78,8 [A674D5C6] [B0655860] CRC32
04 99,4 [DF78E32D] [0CB9AA21] CRC32
05 99,4 [F10926C2] [D1CE8E0E] CRC32
06 99,4 [D12CFFEB] [4C10720C] CRC32
07 99,4 [71392CA0] [8E05FABD] CRC32
08 99,4 [333EE4BE] [D25A2554] CRC32
09 99,4 [4BF1C0BD] [079BC024] CRC32
10 93,5 [51AFA970] [701D2DC4] CRC32
11 82,9 [9FF8CFA7] [C7188A47] CRC32
12 99,4 [F543ED12] [6242C015] CRC32
13 99,4 [D29D9C3C] [12E797E6] CRC32
14 99,4 [85D5A3B0] [330E8125] CRC32
15 95,9 [7EBBE035] [4669D5EF] CRC32
16 99,4 [75E9122D] [93FAAF57] CRC32
17 99,4 [91F87121] [753E1D9F] CRC32
18 99,4 [35649128] [15203A53] CRC32
19 99,4 [B932FBD0] [E4B9C28F] CRC32
20 99,4 [C5E1280C] [4DBA23D5] CRC32
21 87,7 [2F246F4B] [0F4CA2D2] CRC32
22 90,8 [5E2DD81E] [84745E6C] CRC32
23 83,9 [4D968CF8] [C140693D] CRC32
24 99,4 [B455BB33] [59E9F03E] CRC32
25 91,5 [DF776850] [14169196] CRC32

Thanks to brunches

See also:
Artie Shaw And His Orchestra - 1939-1940 (1999)
Chronological Classics