Subcategories

Arturo Benedetti Michelangeli - The Art Of Arturo Benedetti Michelangeli (DG Collectors Edition) (2003)

Posted By: SERTiL
Arturo Benedetti Michelangeli - The Art Of Arturo Benedetti Michelangeli (DG Collectors Edition) (2003)

Arturo Benedetti Michelangeli - The Art Of Arturo Benedetti Michelangeli (DG Collectors Edition)
EAC Rip | FLAC (tracks)+cue, log, m3u, artwork | 543:29 min | 2.05 GB
Label: Deutsche Grammophon ‎– 469 820-2 | Tracks: 111 | Rls.date: 2003
Classical, Romantic

This is the best – the noblest, the grandest, the most tragic – Ballade in G minor ever recorded. This is the best – the most virtuostic, the most colorful, the most imaginative – set of Book I Preludes ever recorded. This is the best – the most Romantic, the most heartfelt, the funniest – Carnaval ever recorded. This is the best – the most elegant, the most witty, the most athletic – recording of Beethoven's Piano Concerto No. 1 ever recorded. This is the best – the most brooding, the most violent, the most consoling – set of Brahms Ballades ever recorded. This is the best – the most loving, the most awe-inspiring, the most transcendent – "Emperor" Concerto ever recorded. This is the best – the subtlest, the most sorrowful, the most sublime – set of Chopin mazurkas ever recorded. And on and on and on. While there are some performances here that are not the best ever recorded, this box of recordings by Arturo Benedetti Michelangeli from 1957 through 1990 is arguably the greatest single set of piano recordings ever released. And while there have been a few better recordings than Michelangeli's of the four Mozart piano concertos, Michelangeli's are at such an extraordinarily high level, so beautifully toned and so ethereally interpreted, that they are still among the best ever recorded. And while there have been more passionate recordings of Beethoven's Piano Concerto No. 3, Michelangeli's is so brilliantly played that passion would only be an untoward intrusion in Michelangeli's ideal world. But as for the rest, these are simply the best piano performances of the works ever recorded. And the remastered sound is the best any of them have ever had. This is absolutely essential for every man, woman, and child.

CD1: Mozart. Konzerte Nrn. 13, 15
CD2: Mozart. Konzerte Nrn. 20, 25
CD3: Beethoven. Konzerte Nrn. 1, 3
CD4: Beethoven. Konzert Nr. 5 • Sonate Nr. 4
CD5: Schubert • Chopin
CD6: Schumann • Brahms
CD7: Debussy. Préludes I • Children's Corner
CD8: Debussy. Préludes II • Images I, II

TRACKLIST

CD1
1. Mozart: Piano Concertos Nos.13 & 15: Applause
2. Mozart: Piano Concerto No.13 in C, K.415; 1. Allegro
3. 2. Andante
4. 3. Rondeau (Allegro)
5. Mozart: Piano Concerto No.15 in B flat, K.450; 1. Allegro
6. 2. (Andante)
7. 3. Allegro

Exact Audio Copy V1.0 beta 3 from 29. August 2011

EAC extraction logfile from 15. December 2012, 9:56

Arturo Benedetti Michelangeli / The art of Arturo Benedetti Michelangeli CD1

Used drive : PLEXTOR CD-R PX-W4012A Adapter: 0 ID: 0

Read mode : Secure
Utilize accurate stream : Yes
Defeat audio cache : Yes
Make use of C2 pointers : No

Read offset correction : 98
Overread into Lead-In and Lead-Out : No
Fill up missing offset samples with silence : Yes
Delete leading and trailing silent blocks : No
Null samples used in CRC calculations : Yes
Used interface : Native Win32 interface for Win NT & 2000
Gap handling : Appended to previous track

Used output format : User Defined Encoder
Selected bitrate : 1024 kBit/s
Quality : High
Add ID3 tag : No
Command line compressor : D:\Program Files\Exact Audio Copy\Flac\flac.exe
Additional command line options : -8 -V -T "ARTIST=%artist%" -T "TITLE=%title%" -T "ALBUM=%albumtitle%" -T "DATE=%year%" -T "TRACKNUMBER=%tracknr%" -T "GENRE=%genre%" -T "PERFORMER=%albuminterpret%" -T "COMPOSER=%composer%" %haslyrics%–tag-from-file=LYRICS="%lyricsfile%"%haslyrics% -T "ALBUMARTIST=%albumartist%" -T "DISCNUMBER=%cdnumber%" -T "TOTALDISCS=%totalcds%" -T "TOTALTRACKS=%numtracks%" -T "COMMENT=%comment%" %source% -o %dest%


TOC of the extracted CD

Track | Start | Length | Start sector | End sector
––––––––––––––––––––––––––––-
1 | 0:00.33 | 0:22.01 | 33 | 1683
2 | 0:22.34 | 11:40.06 | 1684 | 54189
3 | 12:02.40 | 8:18.04 | 54190 | 91543
4 | 20:20.44 | 9:34.42 | 91544 | 134635
5 | 29:55.11 | 11:42.30 | 134636 | 187315
6 | 41:37.41 | 6:15.37 | 187316 | 215477
7 | 47:53.03 | 9:55.33 | 215478 | 260135


Track 1

Filename E:\[469820-2]Arturo Benedetti Michelangeli - The art of Arturo Benedetti Michelangeli\CD1\01 - (Applause).wav

Pre-gap length 0:00:02.44

Peak level 22.4 %
Extraction speed 1.4 X
Track quality 100.0 %
Test CRC D8D8BE1C
Copy CRC D8D8BE1C
Accurately ripped (confidence 15) [D6CA81C5] (AR v1)
Copy OK

Track 2

Filename E:\[469820-2]Arturo Benedetti Michelangeli - The art of Arturo Benedetti Michelangeli\CD1\02 - Mozart - Piano Concerto No.13 K.415 (387b) - I. Allegro.wav

Peak level 97.7 %
Extraction speed 1.9 X
Track quality 100.0 %
Test CRC CB8E25AC
Copy CRC CB8E25AC
Accurately ripped (confidence 18) [71E7C0C8] (AR v1)
Copy OK

Track 3

Filename E:\[469820-2]Arturo Benedetti Michelangeli - The art of Arturo Benedetti Michelangeli\CD1\03 - Mozart - Piano Concerto No.13 K.415 (387b) - II. Andante.wav

Peak level 70.9 %
Extraction speed 1.9 X
Track quality 100.0 %
Test CRC 22CBA613
Copy CRC 22CBA613
Accurately ripped (confidence 17) [C12CFB56] (AR v1)
Copy OK

Track 4

Filename E:\[469820-2]Arturo Benedetti Michelangeli - The art of Arturo Benedetti Michelangeli\CD1\04 - Mozart - Piano Concerto No.13 K.415 (387b) - III. Rondeau. Allegro.wav

Peak level 99.1 %
Extraction speed 1.9 X
Track quality 100.0 %
Test CRC 6E8A0A76
Copy CRC 6E8A0A76
Accurately ripped (confidence 18) [CE32FD38] (AR v1)
Copy OK

Track 5

Filename E:\[469820-2]Arturo Benedetti Michelangeli - The art of Arturo Benedetti Michelangeli\CD1\05 - Mozart - Piano Concerto No.15 K.450 - I. Allegro.wav

Peak level 76.8 %
Extraction speed 1.9 X
Track quality 100.0 %
Test CRC 0F9017D2
Copy CRC 0F9017D2
Accurately ripped (confidence 17) [940AEBBB] (AR v1)
Copy OK

Track 6

Filename E:\[469820-2]Arturo Benedetti Michelangeli - The art of Arturo Benedetti Michelangeli\CD1\06 - Mozart - Piano Concerto No.15 K.450 - II. Andante.wav

Peak level 67.8 %
Extraction speed 1.8 X
Track quality 99.9 %
Test CRC 6D42CD41
Copy CRC 6D42CD41
Accurately ripped (confidence 18) [903E522E] (AR v1)
Copy OK

Track 7

Filename E:\[469820-2]Arturo Benedetti Michelangeli - The art of Arturo Benedetti Michelangeli\CD1\07 - Mozart - Piano Concerto No.15 K.450 - III. Allegro.wav

Peak level 93.5 %
Extraction speed 1.7 X
Track quality 100.0 %
Test CRC 86478143
Copy CRC 86478143
Accurately ripped (confidence 18) [C2D91459] (AR v1)
Copy OK


All tracks accurately ripped

No errors occurred

End of status report

==== Log checksum 8662874B864DF00B787E00302F1F7919475A679490A97E6E7D27A0C4D210C1D8 ====


CD2
1. Mozart: Piano Concertos nos. 20 & 25
2. Applause
3. Mozart: Piano Concerto No.20 in D minor, K.466; 1. Allegro
4. 2. Romance
5. (Cadenzas: Ludwig van Beethoven)
6. 2. Romance (Allegro assai)
7. Applause
8. Mozart: Piano Concerto No.25 in C, K.503; 1. Allegro maestoso
9. 2. Andante
10. 3. Allegretto
11. Applause

Exact Audio Copy V1.0 beta 3 from 29. August 2011

EAC extraction logfile from 15. December 2012, 11:33

Arturo benedetti Michelangeli / The art of Arturo Benedetti Michelangeli CD2

Used drive : PLEXTOR CD-R PX-W4012A Adapter: 0 ID: 0

Read mode : Secure
Utilize accurate stream : Yes
Defeat audio cache : Yes
Make use of C2 pointers : No

Read offset correction : 98
Overread into Lead-In and Lead-Out : No
Fill up missing offset samples with silence : Yes
Delete leading and trailing silent blocks : No
Null samples used in CRC calculations : Yes
Used interface : Native Win32 interface for Win NT & 2000
Gap handling : Appended to previous track

Used output format : User Defined Encoder
Selected bitrate : 1024 kBit/s
Quality : High
Add ID3 tag : No
Command line compressor : D:\Program Files\Exact Audio Copy\Flac\flac.exe
Additional command line options : -8 -V -T "ARTIST=%artist%" -T "TITLE=%title%" -T "ALBUM=%albumtitle%" -T "DATE=%year%" -T "TRACKNUMBER=%tracknr%" -T "GENRE=%genre%" -T "PERFORMER=%albuminterpret%" -T "COMPOSER=%composer%" %haslyrics%–tag-from-file=LYRICS="%lyricsfile%"%haslyrics% -T "ALBUMARTIST=%albumartist%" -T "DISCNUMBER=%cdnumber%" -T "TOTALDISCS=%totalcds%" -T "TOTALTRACKS=%numtracks%" -T "COMMENT=%comment%" %source% -o %dest%


TOC of the extracted CD

Track | Start | Length | Start sector | End sector
––––––––––––––––––––––––––––-
1 | 0:00.00 | 0:40.40 | 0 | 3039
2 | 0:40.40 | 15:11.57 | 3040 | 71421
3 | 15:52.22 | 9:35.18 | 71422 | 114564
4 | 25:27.40 | 8:44.40 | 114565 | 153904
5 | 34:12.05 | 0:44.55 | 153905 | 157259
6 | 34:56.60 | 15:45.69 | 157260 | 228203
7 | 50:42.54 | 7:25.66 | 228204 | 261644
8 | 58:08.45 | 9:40.30 | 261645 | 305174
9 | 67:49.00 | 0:49.00 | 305175 | 308849


Track 1

Filename E:\[469820-2]Arturo Benedetti Michelangeli - The art of Arturo Benedetti Michelangeli\CD2\01 - (Applause).wav

Pre-gap length 0:00:02.00

Peak level 78.0 %
Extraction speed 1.6 X
Track quality 100.0 %
Test CRC 59243F79
Copy CRC 59243F79
Accurately ripped (confidence 17) [4823EBB4] (AR v1)
Copy OK

Track 2

Filename E:\[469820-2]Arturo Benedetti Michelangeli - The art of Arturo Benedetti Michelangeli\CD2\02 - Mozart - Piano Concerto No.20 K.466 - I. Allegro - cad. Beethoven.wav

Pre-gap length 0:00:12.80

Peak level 98.7 %
Extraction speed 1.9 X
Track quality 100.0 %
Test CRC 8A9769AF
Copy CRC 8A9769AF
Accurately ripped (confidence 19) [085A3636] (AR v1)
Copy OK

Track 3

Filename E:\[469820-2]Arturo Benedetti Michelangeli - The art of Arturo Benedetti Michelangeli\CD2\03 - Mozart - Piano Concerto No.20 K.466 - II. Romance.wav

Pre-gap length 0:00:10.49

Peak level 80.9 %
Extraction speed 1.9 X
Track quality 100.0 %
Test CRC D7B7BA1C
Copy CRC D7B7BA1C
Accurately ripped (confidence 19) [097C0B5E] (AR v1)
Copy OK

Track 4

Filename E:\[469820-2]Arturo Benedetti Michelangeli - The art of Arturo Benedetti Michelangeli\CD2\04 - Mozart - Piano Concerto No.20 K.466 - III. Allegro assai - cad. Beethoven.wav

Peak level 97.7 %
Extraction speed 1.8 X
Track quality 99.9 %
Test CRC 03443D67
Copy CRC 03443D67
Accurately ripped (confidence 19) [3E3B5865] (AR v1)
Copy OK

Track 5

Filename E:\[469820-2]Arturo Benedetti Michelangeli - The art of Arturo Benedetti Michelangeli\CD2\05 - (Applause).wav

Peak level 72.9 %
Extraction speed 1.6 X
Track quality 100.0 %
Test CRC 08EF1CA0
Copy CRC 08EF1CA0
Accurately ripped (confidence 17) [6F946AFC] (AR v1)
Copy OK

Track 6

Filename E:\[469820-2]Arturo Benedetti Michelangeli - The art of Arturo Benedetti Michelangeli\CD2\06 - Mozart - Piano Concerto No.25 K.503 - I. Allegro maestoso - cad. Camillo Togni.wav

Pre-gap length 0:00:10.40

Peak level 92.5 %
Extraction speed 1.9 X
Track quality 100.0 %
Test CRC BC75E673
Copy CRC BC75E673
Accurately ripped (confidence 19) [750565D4] (AR v1)
Copy OK

Track 7

Filename E:\[469820-2]Arturo Benedetti Michelangeli - The art of Arturo Benedetti Michelangeli\CD2\07 - Mozart - Piano Concerto No.25 K.503 - II. Andante.wav

Pre-gap length 0:00:09.72

Peak level 61.6 %
Extraction speed 1.8 X
Track quality 99.9 %
Test CRC 30E1F77F
Copy CRC 30E1F77F
Accurately ripped (confidence 19) [DB5808ED] (AR v1)
Copy OK

Track 8

Filename E:\[469820-2]Arturo Benedetti Michelangeli - The art of Arturo Benedetti Michelangeli\CD2\08 - Mozart - Piano Concerto No.25 K.503 - III. Allegretto.wav

Peak level 99.5 %
Extraction speed 1.9 X
Track quality 100.0 %
Test CRC 9CF468AB
Copy CRC 9CF468AB
Accurately ripped (confidence 18) [EB3212EF] (AR v1)
Copy OK

Track 9

Filename E:\[469820-2]Arturo Benedetti Michelangeli - The art of Arturo Benedetti Michelangeli\CD2\09 - (Applause).wav

Peak level 83.1 %
Extraction speed 0.9 X
Track quality 100.0 %
Test CRC 691D91CD
Copy CRC 691D91CD
Accurately ripped (confidence 17) [3939C5C8] (AR v1)
Copy OK


All tracks accurately ripped

No errors occurred

End of status report

–– CUETools DB Plugin V2.1.3

[CTDB TOCID: N_xHQhLZZyuGcGehQ3Qd5l2NAHM-] found, Submit result: N_xHQhLZZyuGcGehQ3Qd5l2NAHM- has been confirmed
[cdb0ccc1] (1/1) Accurately ripped


==== Log checksum 3EFF558400241D5F109498B5C0F39FFC19809EA3E7071DD7180770625CAC5966 ====


CD3
1. Beethoven: Piano Concerto No.1 in C major, Op.15; 1. Allegro con brio
2. 2. Largo
3. 3. Rondo. Allegro
4. Beethoven: Concerto No.3 in C minor, Op.37; 1. Allegro con brio
5. 2. Largo
6. 3. Rondo (Allegro)

Exact Audio Copy V1.0 beta 3 from 29. August 2011

EAC extraction logfile from 16. December 2012, 8:15

Arturo Benedetti Michelangeli / The art of Arturo Benedetti Michelangeli CD3

Used drive : PLEXTOR CD-R PX-W4012A Adapter: 0 ID: 0

Read mode : Secure
Utilize accurate stream : Yes
Defeat audio cache : Yes
Make use of C2 pointers : No

Read offset correction : 98
Overread into Lead-In and Lead-Out : No
Fill up missing offset samples with silence : Yes
Delete leading and trailing silent blocks : No
Null samples used in CRC calculations : Yes
Used interface : Native Win32 interface for Win NT & 2000
Gap handling : Appended to previous track

Used output format : User Defined Encoder
Selected bitrate : 1024 kBit/s
Quality : High
Add ID3 tag : No
Command line compressor : D:\Program Files\Exact Audio Copy\Flac\flac.exe
Additional command line options : -8 -V -T "ARTIST=%artist%" -T "TITLE=%title%" -T "ALBUM=%albumtitle%" -T "DATE=%year%" -T "TRACKNUMBER=%tracknr%" -T "GENRE=%genre%" -T "PERFORMER=%albuminterpret%" -T "COMPOSER=%composer%" %haslyrics%–tag-from-file=LYRICS="%lyricsfile%"%haslyrics% -T "ALBUMARTIST=%albumartist%" -T "DISCNUMBER=%cdnumber%" -T "TOTALDISCS=%totalcds%" -T "TOTALTRACKS=%numtracks%" -T "COMMENT=%comment%" %source% -o %dest%


TOC of the extracted CD

Track | Start | Length | Start sector | End sector
––––––––––––––––––––––––––––-
1 | 0:00.00 | 18:38.33 | 0 | 83882
2 | 18:38.33 | 10:42.18 | 83883 | 132050
3 | 29:20.51 | 9:09.52 | 132051 | 173277
4 | 38:30.28 | 18:12.18 | 173278 | 255195
5 | 56:42.46 | 11:23.60 | 255196 | 306480
6 | 68:06.31 | 10:48.07 | 306481 | 355087


Track 1

Filename E:\[469820-2]Arturo Benedetti Michelangeli - The art of Arturo Benedetti Michelangeli\CD3\01 - Beethoven - Piano Concerto No.1 Op.15 - I. Allegro con brio.wav

Pre-gap length 0:00:02.00

Peak level 82.2 %
Extraction speed 1.9 X
Track quality 100.0 %
Test CRC FA6CE948
Copy CRC FA6CE948
Accurately ripped (confidence 19) [15D82D44] (AR v1)
Copy OK

Track 2

Filename E:\[469820-2]Arturo Benedetti Michelangeli - The art of Arturo Benedetti Michelangeli\CD3\02 - Beethoven - Piano Concerto No.1 Op.15 - II. Largo.wav

Pre-gap length 0:00:09.66

Peak level 47.6 %
Extraction speed 1.9 X
Track quality 100.0 %
Test CRC 55DED6CE
Copy CRC 55DED6CE
Accurately ripped (confidence 19) [A384A345] (AR v1)
Copy OK

Track 3

Filename E:\[469820-2]Arturo Benedetti Michelangeli - The art of Arturo Benedetti Michelangeli\CD3\03 - Beethoven - Piano Concerto No.1 Op.15 - III. Rondo. Allegro.wav

Pre-gap length 0:00:04.10

Peak level 87.5 %
Extraction speed 1.9 X
Track quality 100.0 %
Test CRC A4DAD8DF
Copy CRC A4DAD8DF
Accurately ripped (confidence 20) [E299CC94] (AR v1)
Copy OK

Track 4

Filename E:\[469820-2]Arturo Benedetti Michelangeli - The art of Arturo Benedetti Michelangeli\CD3\04 - Beethoven - Piano Concerto No.3 Op.37 - I. Allegro con brio.wav

Pre-gap length 0:00:03.72

Peak level 95.5 %
Extraction speed 1.9 X
Track quality 99.9 %
Test CRC 8AF4B61B
Copy CRC 8AF4B61B
Accurately ripped (confidence 19) [5C1F41F4] (AR v1)
Copy OK

Track 5

Filename E:\[469820-2]Arturo Benedetti Michelangeli - The art of Arturo Benedetti Michelangeli\CD3\05 - Beethoven - Piano Concerto No.3 Op.37 - II. Largo.wav

Pre-gap length 0:00:29.93

Peak level 47.2 %
Extraction speed 1.9 X
Track quality 100.0 %
Test CRC 004EC361
Copy CRC 004EC361
Accurately ripped (confidence 19) [2748A641] (AR v1)
Copy OK

Track 6

Filename E:\[469820-2]Arturo Benedetti Michelangeli - The art of Arturo Benedetti Michelangeli\CD3\06 - Beethoven - Piano Concerto No.3 Op.37 - III. Rondo. Allegro.wav

Pre-gap length 0:00:19.69

Peak level 95.5 %
Extraction speed 1.7 X
Track quality 99.9 %
Test CRC F43BD3C5
Copy CRC F43BD3C5
Accurately ripped (confidence 18) [AA68F978] (AR v1)
Copy OK


All tracks accurately ripped

No errors occurred

End of status report

–– CUETools DB Plugin V2.1.3

[CTDB TOCID: hfLJaLzzYlIPnB56BSh_sQco5FA-] found, Submit result: hfLJaLzzYlIPnB56BSh_sQco5FA- has been confirmed
[5fe0da12] (1/1) Accurately ripped


==== Log checksum 9729FFB2356F5CD83F10A5CB2182FA2B9760602BCC39CF31C804D57927B6C404 ====


CD4
1. Beethoven: Piano Concerto No.5 in E flat major Op.73 -"Emperor"; 1. Allegro
2. 2. Adagio un poco mosso
3. 3. Rondo (Allegro)
4. Beethoven: Piano Sonata No.4 in E flat, Op.7; 1. Allegro molto e con brio
5. 2. Largo, con gran espressione
6. 3. Allegro
7. 4. Rondo (Poco allegretto e grazioso)

Exact Audio Copy V1.0 beta 3 from 29. August 2011

EAC extraction logfile from 16. December 2012, 16:25

Arturo Benedetti Michelangeli / The art of Arturo Benedetti Michelangeli CD4

Used drive : PLEXTOR CD-R PREMIUM Adapter: 0 ID: 0

Read mode : Secure
Utilize accurate stream : Yes
Defeat audio cache : Yes
Make use of C2 pointers : No

Read offset correction : 30
Overread into Lead-In and Lead-Out : No
Fill up missing offset samples with silence : Yes
Delete leading and trailing silent blocks : No
Null samples used in CRC calculations : Yes
Used interface : Native Win32 interface for Win NT & 2000
Gap handling : Appended to previous track

Used output format : User Defined Encoder
Selected bitrate : 1024 kBit/s
Quality : High
Add ID3 tag : No
Command line compressor : D:\Program Files\Exact Audio Copy\Flac\flac.exe
Additional command line options : -8 -V -T "ARTIST=%artist%" -T "TITLE=%title%" -T "ALBUM=%albumtitle%" -T "DATE=%year%" -T "TRACKNUMBER=%tracknr%" -T "GENRE=%genre%" -T "PERFORMER=%albuminterpret%" -T "COMPOSER=%composer%" %haslyrics%–tag-from-file=LYRICS="%lyricsfile%"%haslyrics% -T "ALBUMARTIST=%albumartist%" -T "DISCNUMBER=%cdnumber%" -T "TOTALDISCS=%totalcds%" -T "TOTALTRACKS=%numtracks%" -T "COMMENT=%comment%" %source% -o %dest%


TOC of the extracted CD

Track | Start | Length | Start sector | End sector
––––––––––––––––––––––––––––-
1 | 0:00.00 | 21:35.02 | 0 | 97126
2 | 21:35.02 | 8:36.29 | 97127 | 135855
3 | 30:11.31 | 12:15.00 | 135856 | 190980
4 | 42:26.31 | 9:49.65 | 190981 | 235220
5 | 52:16.21 | 8:39.11 | 235221 | 274156
6 | 60:55.32 | 5:28.14 | 274157 | 298770
7 | 66:23.46 | 7:40.70 | 298771 | 333340


Track 1

Filename E:\[469820-2]Arturo Benedetti Michelangeli - The art of Arturo Benedetti Michelangeli\CD4\01 - Beethoven - Piano Concerto No. 5 'Emperor' - 1. Allegro.wav

Pre-gap length 0:00:02.00

Peak level 93.3 %
Extraction speed 1.9 X
Track quality 100.0 %
Test CRC F47B7382
Copy CRC F47B7382
Accurately ripped (confidence 19) [8B392A14] (AR v1)
Copy OK

Track 2

Filename E:\[469820-2]Arturo Benedetti Michelangeli - The art of Arturo Benedetti Michelangeli\CD4\02 - Beethoven - Piano Concerto No. 5 'Emperor' - 2. Adagio un poco mosso - attacca-.wav

Pre-gap length 0:00:34.48

Peak level 40.0 %
Extraction speed 1.8 X
Track quality 100.0 %
Test CRC 800F7072
Copy CRC 800F7072
Accurately ripped (confidence 19) [5A410F18] (AR v1)
Copy OK

Track 3

Filename E:\[469820-2]Arturo Benedetti Michelangeli - The art of Arturo Benedetti Michelangeli\CD4\03 - Beethoven - Piano Concerto No. 5 'Emperor' - 3. Rondo. Allegro.wav

Peak level 95.5 %
Extraction speed 1.9 X
Track quality 100.0 %
Test CRC 6DFB6228
Copy CRC 6DFB6228
Accurately ripped (confidence 19) [67DF1875] (AR v1)
Copy OK

Track 4

Filename E:\[469820-2]Arturo Benedetti Michelangeli - The art of Arturo Benedetti Michelangeli\CD4\04 - Beethoven - Piano Sonata No. 4 'Grand Sonata' - 1. Allegro molto e con brio.wav

Pre-gap length 0:00:03.09

Peak level 67.4 %
Extraction speed 1.9 X
Track quality 100.0 %
Test CRC 80ADB835
Copy CRC 80ADB835
Accurately ripped (confidence 19) [6A87E1A4] (AR v1)
Copy OK

Track 5

Filename E:\[469820-2]Arturo Benedetti Michelangeli - The art of Arturo Benedetti Michelangeli\CD4\05 - Beethoven - Piano Sonata No. 4 'Grand Sonata' - 2. Largo, con gran espressione.wav

Pre-gap length 0:00:04.86

Peak level 62.0 %
Extraction speed 1.9 X
Track quality 100.0 %
Test CRC 1744E821
Copy CRC 1744E821
Accurately ripped (confidence 19) [DF7A7DB0] (AR v1)
Copy OK

Track 6

Filename E:\[469820-2]Arturo Benedetti Michelangeli - The art of Arturo Benedetti Michelangeli\CD4\06 - Beethoven - Piano Sonata No. 4 'Grand Sonata' - 3. Allegro - Minore - Allegro.wav

Pre-gap length 0:00:02.74

Peak level 67.6 %
Extraction speed 1.8 X
Track quality 100.0 %
Test CRC FBE257DA
Copy CRC FBE257DA
Accurately ripped (confidence 19) [98FC4F51] (AR v1)
Copy OK

Track 7

Filename E:\[469820-2]Arturo Benedetti Michelangeli - The art of Arturo Benedetti Michelangeli\CD4\07 - Beethoven - Piano Sonata No. 4 'Grand Sonata' - 4. Rondo. Poco Allegretto e grazioso.wav

Pre-gap length 0:00:03.16

Peak level 73.2 %
Extraction speed 1.8 X
Track quality 100.0 %
Test CRC 4491694D
Copy CRC 4491694D
Accurately ripped (confidence 20) [F1A19DA3] (AR v1)
Copy OK


All tracks accurately ripped

No errors occurred

End of status report

–– CUETools DB Plugin V2.1.3

[CTDB TOCID: InudGuTsCMFJE1sXQDDOI.Fb6FQ-] found, Submit result: already submitted
[a6308cf5] (1/1) Accurately ripped


==== Log checksum 85F62E319B5E174695BA9A75FF8E1E72C69E30B62E0B5986D7AF8FE03129DE31 ====


CD5
1. Schubert: Piano Sonata No.4 in A minor, D.537; 1. Allegro ma non troppo
2. 2. Allegretto quasi andantino
3. 3. Allegro vivace
4. Chopin: Mazurka No.45 in G minor Op.67 No.2; Cantabile
5. Chopin: Mazurka No.34 in C Op.56 No.2; Vivace
6. Chopin: Mazurka No.47 in A minor Op.67 No.4; Moderato amimato
7. Chopin: Mazurka No.49 in A minor Op.68 No.2; Lento
8. Chopin: Mazurka No.48 in C Op.68 No.1; Vivace
9. Chopin: Mazurka No.22 in G sharp minor Op.33 No.1; Mesto
10. Chopin: Mazurka No.20 in D flat Op.30 No.3; Allegro non troppo - Risoluto
11. Chopin: Mazurka No.19 in B minor, Op.30 No.2; Allegretto
12. Chopin: Mazurka No.25 in B minor Op.33 No.4; Mesto
13. Chopin: Mazurka No.51 in F minor Op.68 No.4; Andantino
14. Chopin: Prélude No.25 in C sharp minor, Op.45; Sostenuto
15. Chopin: Ballade No.1 in G minor, Op.23; Largo - Moderato - Con fuoco
16. Chopin: Scherzo No.2 in B flat minor, Op.31; Presto - Sostenuto

Exact Audio Copy V1.0 beta 3 from 29. August 2011

EAC extraction logfile from 16. December 2012, 22:40

Arturo Benedetti Michelangeli / The art of Arturo Benedetti Michelangeli CD5

Used drive : PLEXTOR CD-R PREMIUM Adapter: 0 ID: 0

Read mode : Secure
Utilize accurate stream : Yes
Defeat audio cache : Yes
Make use of C2 pointers : No

Read offset correction : 30
Overread into Lead-In and Lead-Out : No
Fill up missing offset samples with silence : Yes
Delete leading and trailing silent blocks : No
Null samples used in CRC calculations : Yes
Used interface : Native Win32 interface for Win NT & 2000
Gap handling : Appended to previous track

Used output format : User Defined Encoder
Selected bitrate : 1024 kBit/s
Quality : High
Add ID3 tag : No
Command line compressor : D:\Program Files\Exact Audio Copy\Flac\flac.exe
Additional command line options : -8 -V -T "ARTIST=%artist%" -T "TITLE=%title%" -T "ALBUM=%albumtitle%" -T "DATE=%year%" -T "TRACKNUMBER=%tracknr%" -T "GENRE=%genre%" -T "PERFORMER=%albuminterpret%" -T "COMPOSER=%composer%" %haslyrics%–tag-from-file=LYRICS="%lyricsfile%"%haslyrics% -T "ALBUMARTIST=%albumartist%" -T "DISCNUMBER=%cdnumber%" -T "TOTALDISCS=%totalcds%" -T "TOTALTRACKS=%numtracks%" -T "COMMENT=%comment%" %source% -o %dest%


TOC of the extracted CD

Track | Start | Length | Start sector | End sector
––––––––––––––––––––––––––––-
1 | 0:00.00 | 10:05.00 | 0 | 45374
2 | 10:05.00 | 7:31.00 | 45375 | 79199
3 | 17:36.00 | 5:05.00 | 79200 | 102074
4 | 22:41.00 | 2:02.00 | 102075 | 111224
5 | 24:43.00 | 1:48.50 | 111225 | 119374
6 | 26:31.50 | 3:10.25 | 119375 | 133649
7 | 29:42.00 | 3:09.00 | 133650 | 147824
8 | 32:51.00 | 1:33.00 | 147825 | 154799
9 | 34:24.00 | 2:05.25 | 154800 | 164199
10 | 36:29.25 | 3:18.00 | 164200 | 179049
11 | 39:47.25 | 1:38.25 | 179050 | 186424
12 | 41:25.50 | 6:20.01 | 186425 | 214925
13 | 47:45.51 | 3:45.24 | 214926 | 231824
14 | 51:31.00 | 4:54.00 | 231825 | 253874
15 | 56:25.00 | 9:16.00 | 253875 | 295574
16 | 65:41.00 | 11:03.00 | 295575 | 345299


Track 1

Filename E:\[469820-2]Arturo Benedetti Michelangeli - The art of Arturo Benedetti Michelangeli\CD5\01 - Schubert - Piano Sonata No. 4 in A minor, D. 537 - 1. Allegro, ma non troppo.wav

Pre-gap length 0:00:02.00

Peak level 99.9 %
Extraction speed 1.8 X
Track quality 100.0 %
Test CRC 095B9CD9
Copy CRC 095B9CD9
Accurately ripped (confidence 14) [C7606FF5] (AR v1)
Copy OK

Track 2

Filename E:\[469820-2]Arturo Benedetti Michelangeli - The art of Arturo Benedetti Michelangeli\CD5\02 - Schubert - Piano Sonata No. 4 in A minor, D. 537 - 2. Allegretto, quasi andantino.wav

Peak level 51.7 %
Extraction speed 1.8 X
Track quality 100.0 %
Test CRC A8BFE144
Copy CRC A8BFE144
Accurately ripped (confidence 14) [B2165A47] (AR v1)
Copy OK

Track 3

Filename E:\[469820-2]Arturo Benedetti Michelangeli - The art of Arturo Benedetti Michelangeli\CD5\03 - Schubert - Piano Sonata No. 4 in A minor, D. 537 - 3. Allegro vivace.wav

Peak level 78.8 %
Extraction speed 1.8 X
Track quality 100.0 %
Test CRC 64BBE41B
Copy CRC 64BBE41B
Accurately ripped (confidence 14) [F05062A5] (AR v1)
Copy OK

Track 4

Filename E:\[469820-2]Arturo Benedetti Michelangeli - The art of Arturo Benedetti Michelangeli\CD5\04 - Chopin - Mazurka for piano No. 43 in G minor, Op. 67-2, CT. 93.wav

Pre-gap length 0:00:08.00

Peak level 24.9 %
Extraction speed 1.8 X
Track quality 100.0 %
Test CRC 6BF833D8
Copy CRC 6BF833D8
Accurately ripped (confidence 13) [7627D7F0] (AR v1)
Copy OK

Track 5

Filename E:\[469820-2]Arturo Benedetti Michelangeli - The art of Arturo Benedetti Michelangeli\CD5\05 - Chopin - Mazurka for piano No. 34 in C major, Op. 56-2, CT. 84.wav

Peak level 58.6 %
Extraction speed 1.8 X
Track quality 100.0 %
Test CRC 9DBF4011
Copy CRC 9DBF4011
Accurately ripped (confidence 14) [377C0A24] (AR v1)
Copy OK

Track 6

Filename E:\[469820-2]Arturo Benedetti Michelangeli - The art of Arturo Benedetti Michelangeli\CD5\06 - Chopin - Mazurka for piano No. 45 in A minor, Op. 67-4, CT. 95.wav

Peak level 27.3 %
Extraction speed 1.8 X
Track quality 100.0 %
Test CRC CFC84BC7
Copy CRC CFC84BC7
Accurately ripped (confidence 14) [0094B906] (AR v1)
Copy OK

Track 7

Filename E:\[469820-2]Arturo Benedetti Michelangeli - The art of Arturo Benedetti Michelangeli\CD5\07 - Chopin - Mazurka for piano No. 47 in A minor, Op. 68-2, CT. 97.wav

Peak level 50.5 %
Extraction speed 1.8 X
Track quality 100.0 %
Test CRC 1CF44355
Copy CRC 1CF44355
Accurately ripped (confidence 14) [C0D4A78A] (AR v1)
Copy OK

Track 8

Filename E:\[469820-2]Arturo Benedetti Michelangeli - The art of Arturo Benedetti Michelangeli\CD5\08 - Chopin - Mazurka for piano No. 46 in C major, Op. 68-1, CT. 96.wav

Peak level 63.9 %
Extraction speed 1.7 X
Track quality 100.0 %
Test CRC 032FF02E
Copy CRC 032FF02E
Accurately ripped (confidence 14) [28C19898] (AR v1)
Copy OK

Track 9

Filename E:\[469820-2]Arturo Benedetti Michelangeli - The art of Arturo Benedetti Michelangeli\CD5\09 - Chopin - Mazurka for piano No. 22 in G sharp minor, Op. 33-1, CT. 72.wav

Peak level 39.1 %
Extraction speed 1.8 X
Track quality 100.0 %
Test CRC 7F799B92
Copy CRC 7F799B92
Accurately ripped (confidence 14) [20B11099] (AR v1)
Copy OK

Track 10

Filename E:\[469820-2]Arturo Benedetti Michelangeli - The art of Arturo Benedetti Michelangeli\CD5\10 - Chopin - Mazurka for piano No. 20 in D flat major, Op. 30-3, CT. 70.wav

Peak level 50.7 %
Extraction speed 1.8 X
Track quality 100.0 %
Test CRC 59BCA0F6
Copy CRC 59BCA0F6
Accurately ripped (confidence 14) [2EA9FB94] (AR v1)
Copy OK

Track 11

Filename E:\[469820-2]Arturo Benedetti Michelangeli - The art of Arturo Benedetti Michelangeli\CD5\11 - Chopin - Mazurka for piano No. 19 in B minor, Op. 30-2, CT. 69.wav

Peak level 59.0 %
Extraction speed 1.7 X
Track quality 100.0 %
Test CRC 4BEDBD4B
Copy CRC 4BEDBD4B
Accurately ripped (confidence 14) [B77A36DE] (AR v1)
Copy OK

Track 12

Filename E:\[469820-2]Arturo Benedetti Michelangeli - The art of Arturo Benedetti Michelangeli\CD5\12 - Chopin - Mazurka for piano No. 25 in B minor, Op. 33-4, CT. 75.wav

Peak level 59.9 %
Extraction speed 1.9 X
Track quality 100.0 %
Test CRC A35F869A
Copy CRC A35F869A
Accurately ripped (confidence 13) [A1CC77E8] (AR v1)
Copy OK

Track 13

Filename E:\[469820-2]Arturo Benedetti Michelangeli - The art of Arturo Benedetti Michelangeli\CD5\13 - Chopin - Mazurka for piano No. 49 in F minor, Op. 68-4, CT. 99.wav

Peak level 47.7 %
Extraction speed 1.8 X
Track quality 100.0 %
Test CRC 9A1469DE
Copy CRC 9A1469DE
Accurately ripped (confidence 13) [A6E091EF] (AR v1)
Copy OK

Track 14

Filename E:\[469820-2]Arturo Benedetti Michelangeli - The art of Arturo Benedetti Michelangeli\CD5\14 - Chopin - Prelude for piano No. 25 in C sharp minor, Op. 45, CT. 190.wav

Peak level 39.4 %
Extraction speed 1.8 X
Track quality 100.0 %
Test CRC E7FA763F
Copy CRC E7FA763F
Accurately ripped (confidence 14) [5D2A029F] (AR v1)
Copy OK

Track 15

Filename E:\[469820-2]Arturo Benedetti Michelangeli - The art of Arturo Benedetti Michelangeli\CD5\15 - Chopin - Ballade for piano No. 1 in G minor, Op. 23, CT. 2.wav

Peak level 90.8 %
Extraction speed 1.9 X
Track quality 100.0 %
Test CRC D4DE5EE2
Copy CRC D4DE5EE2
Accurately ripped (confidence 14) [DE1297DA] (AR v1)
Copy OK

Track 16

Filename E:\[469820-2]Arturo Benedetti Michelangeli - The art of Arturo Benedetti Michelangeli\CD5\16 - Chopin - Scherzo for piano No. 2 in B flat minor, Op. 31, CT. 198.wav

Peak level 89.7 %
Extraction speed 1.7 X
Track quality 99.9 %
Test CRC C82E42F2
Copy CRC C82E42F2
Accurately ripped (confidence 12) [D2A41F11] (AR v1)
Copy OK


All tracks accurately ripped

No errors occurred

End of status report

–– CUETools DB Plugin V2.1.3

[CTDB TOCID: 732fgTutAuHmH_JVe4o8.TJq3wg-] found, Submit result: 732fgTutAuHmH_JVe4o8.TJq3wg- has been confirmed
[dbfceb9f] (1/1) Accurately ripped


==== Log checksum 7FB2BF6DD3ADA1EFE07A5E98C8C152AC733F82CA017BBDA7753D58DBC98C94EC ====


CD6
1. Schumann: Carnaval, Op.9; 1. Préambule
2. 2. Pierrot
3. 3. Arlequin
4. 4. Valse noble
5. 5. Eusebius
6. 6. Florestan
7. 7. Coquette
8. 8. Réplique - Sphinxes
9. 9. Papillons
10. 10. A.S.C.H.-S.C.H.A. (Lettres dansantes)
11. 11. Chiarina
12. 12. Chopin
13. 13. Estrella
14. 14. Reconnaissance
15. 15. Pantalon et Colombine
16. 16a. Valse Allemande
17. 16b. Intermezzo: Paganini
18. 17. Aveu
19. 18. Promenade
20. 19. Pause
21. 20. Marche des "Davidsbündler" contre les Philistins
22. Schumann: Faschingsschwank aus Wien, Op.26; 1. Allegro (Vivace assai)
23. 2. Romanze (Piuttosto lento)
24. 3. Scherzino
25. 4. Intermezzo (Colla più grande energia)
26. 5. Finale (Il più vivace possibile)
27. Brahms: 4 Ballades, Op.10; No.1 in D minor
28. No.2 in D
29. No.3 in B minor
30. No.4 in B

Exact Audio Copy V1.0 beta 3 from 29. August 2011

EAC extraction logfile from 17. December 2012, 7:25

Arturo Benedetti Michelangeli / The art of Arturo Benedetti Michelangeli CD6

Used drive : PLEXTOR CD-R PREMIUM Adapter: 0 ID: 0

Read mode : Secure
Utilize accurate stream : Yes
Defeat audio cache : Yes
Make use of C2 pointers : No

Read offset correction : 30
Overread into Lead-In and Lead-Out : No
Fill up missing offset samples with silence : Yes
Delete leading and trailing silent blocks : No
Null samples used in CRC calculations : Yes
Used interface : Native Win32 interface for Win NT & 2000
Gap handling : Appended to previous track

Used output format : User Defined Encoder
Selected bitrate : 1024 kBit/s
Quality : High
Add ID3 tag : No
Command line compressor : D:\Program Files\Exact Audio Copy\Flac\flac.exe
Additional command line options : -8 -V -T "ARTIST=%artist%" -T "TITLE=%title%" -T "ALBUM=%albumtitle%" -T "DATE=%year%" -T "TRACKNUMBER=%tracknr%" -T "GENRE=%genre%" -T "PERFORMER=%albuminterpret%" -T "COMPOSER=%composer%" %haslyrics%–tag-from-file=LYRICS="%lyricsfile%"%haslyrics% -T "ALBUMARTIST=%albumartist%" -T "DISCNUMBER=%cdnumber%" -T "TOTALDISCS=%totalcds%" -T "TOTALTRACKS=%numtracks%" -T "COMMENT=%comment%" %source% -o %dest%


TOC of the extracted CD

Track | Start | Length | Start sector | End sector
––––––––––––––––––––––––––––-
1 | 0:00.00 | 2:30.06 | 0 | 11255
2 | 2:30.06 | 2:15.05 | 11256 | 21385
3 | 4:45.11 | 1:09.59 | 21386 | 26619
4 | 5:54.70 | 1:53.21 | 26620 | 35115
5 | 7:48.16 | 1:19.25 | 35116 | 41065
6 | 9:07.41 | 0:57.41 | 41066 | 45381
7 | 10:05.07 | 1:37.71 | 45382 | 52727
8 | 11:43.03 | 1:09.45 | 52728 | 57947
9 | 12:52.48 | 0:38.12 | 57948 | 60809
10 | 13:30.60 | 0:58.23 | 60810 | 65182
11 | 14:29.08 | 1:35.65 | 65183 | 72372
12 | 16:04.73 | 1:13.23 | 72373 | 77870
13 | 17:18.21 | 0:28.30 | 77871 | 80000
14 | 17:46.51 | 1:40.62 | 80001 | 87562
15 | 19:27.38 | 0:57.13 | 87563 | 91850
16 | 20:24.51 | 1:03.10 | 91851 | 96585
17 | 21:27.61 | 1:29.17 | 96586 | 103277
18 | 22:57.03 | 1:14.33 | 103278 | 108860
19 | 24:11.36 | 2:40.12 | 108861 | 120872
20 | 26:51.48 | 0:16.07 | 120873 | 122079
21 | 27:07.55 | 4:04.55 | 122080 | 140434
22 | 31:12.35 | 10:10.32 | 140435 | 186216
23 | 41:22.67 | 3:09.38 | 186217 | 200429
24 | 44:32.30 | 2:20.57 | 200430 | 210986
25 | 46:53.12 | 2:18.18 | 210987 | 221354
26 | 49:11.30 | 5:01.32 | 221355 | 243961
27 | 54:12.62 | 4:31.05 | 243962 | 264291
28 | 58:43.67 | 7:11.18 | 264292 | 296634
29 | 65:55.10 | 4:15.14 | 296635 | 315773
30 | 70:10.24 | 9:28.66 | 315774 | 358439


Track 1

Filename E:\[469820-2]Arturo Benedetti Michelangeli - The art of Arturo Benedetti Michelangeli\CD6\01 - Schumann - Carnaval op.9 - 1. Preambule.wav

Pre-gap length 0:00:02.00

Peak level 71.3 %
Extraction speed 1.7 X
Track quality 99.9 %
Test CRC 76EC53F6
Copy CRC 76EC53F6
Accurately ripped (confidence 18) [DE20CE58] (AR v1)
Copy OK

Track 2

Filename E:\[469820-2]Arturo Benedetti Michelangeli - The art of Arturo Benedetti Michelangeli\CD6\02 - Schumann - Carnaval op.9 - 2. Pierrot.wav

Peak level 48.8 %
Extraction speed 1.8 X
Track quality 100.0 %
Test CRC D048C972
Copy CRC D048C972
Accurately ripped (confidence 18) [AC1CC691] (AR v1)
Copy OK

Track 3

Filename E:\[469820-2]Arturo Benedetti Michelangeli - The art of Arturo Benedetti Michelangeli\CD6\03 - Schumann - Carnaval op.9 - 3. Arlequin.wav

Peak level 53.0 %
Extraction speed 1.8 X
Track quality 100.0 %
Test CRC 3E7E3259
Copy CRC 3E7E3259
Accurately ripped (confidence 18) [ED0AF826] (AR v1)
Copy OK

Track 4

Filename E:\[469820-2]Arturo Benedetti Michelangeli - The art of Arturo Benedetti Michelangeli\CD6\04 - Schumann - Carnaval op.9 - 4. Valse noble.wav

Peak level 62.8 %
Extraction speed 1.7 X
Track quality 100.0 %
Test CRC 2AF73C17
Copy CRC 2AF73C17
Accurately ripped (confidence 18) [B585C14A] (AR v1)
Copy OK

Track 5

Filename E:\[469820-2]Arturo Benedetti Michelangeli - The art of Arturo Benedetti Michelangeli\CD6\05 - Schumann - Carnaval op.9 - 5. Eusebius.wav

Peak level 43.0 %
Extraction speed 1.6 X
Track quality 99.8 %
Test CRC BD1766BA
Copy CRC BD1766BA
Accurately ripped (confidence 18) [A1AC2678] (AR v1)
Copy OK

Track 6

Filename E:\[469820-2]Arturo Benedetti Michelangeli - The art of Arturo Benedetti Michelangeli\CD6\06 - Schumann - Carnaval op.9 - 6. Florestan.wav

Peak level 57.5 %
Extraction speed 1.6 X
Track quality 100.0 %
Test CRC 21A49669
Copy CRC 21A49669
Accurately ripped (confidence 18) [303ECD40] (AR v1)
Copy OK

Track 7

Filename E:\[469820-2]Arturo Benedetti Michelangeli - The art of Arturo Benedetti Michelangeli\CD6\07 - Schumann - Carnaval op.9 - 7. Coquette.wav

Peak level 49.2 %
Extraction speed 1.7 X
Track quality 99.8 %
Test CRC 11A748D4
Copy CRC 11A748D4
Accurately ripped (confidence 19) [530EC9CB] (AR v1)
Copy OK

Track 8

Filename E:\[469820-2]Arturo Benedetti Michelangeli - The art of Arturo Benedetti Michelangeli\CD6\08 - Schumann - Carnaval op.9 - 8. Replique - Sphinxes.wav

Peak level 23.1 %
Extraction speed 1.7 X
Track quality 100.0 %
Test CRC 9203E1BD
Copy CRC 9203E1BD
Accurately ripped (confidence 18) [6B73108D] (AR v1)
Copy OK

Track 9

Filename E:\[469820-2]Arturo Benedetti Michelangeli - The art of Arturo Benedetti Michelangeli\CD6\09 - Schumann - Carnaval op.9 - 9. Papillons.wav

Peak level 54.1 %
Extraction speed 1.4 X
Track quality 99.7 %
Test CRC 0C2F53D7
Copy CRC 0C2F53D7
Accurately ripped (confidence 18) [A64B4A1E] (AR v1)
Copy OK

Track 10

Filename E:\[469820-2]Arturo Benedetti Michelangeli - The art of Arturo Benedetti Michelangeli\CD6\10 - Schumann - Carnaval op.9 - 10. A.S.C.H.-S.C.H.A. (Lettres dansantes).wav

Peak level 58.8 %
Extraction speed 1.7 X
Track quality 100.0 %
Test CRC E4E0129C
Copy CRC E4E0129C
Accurately ripped (confidence 18) [D60317B5] (AR v1)
Copy OK

Track 11

Filename E:\[469820-2]Arturo Benedetti Michelangeli - The art of Arturo Benedetti Michelangeli\CD6\11 - Schumann - Carnaval op.9 - 11. Chiarina.wav

Peak level 64.9 %
Extraction speed 1.8 X
Track quality 100.0 %
Test CRC 526DA3D5
Copy CRC 526DA3D5
Accurately ripped (confidence 19) [E48DA655] (AR v1)
Copy OK

Track 12

Filename E:\[469820-2]Arturo Benedetti Michelangeli - The art of Arturo Benedetti Michelangeli\CD6\12 - Schumann - Carnaval op.9 - 12. Chopin.wav

Peak level 32.3 %
Extraction speed 1.7 X
Track quality 100.0 %
Test CRC E63F10EF
Copy CRC E63F10EF
Accurately ripped (confidence 18) [605C7C1F] (AR v1)
Copy OK

Track 13

Filename E:\[469820-2]Arturo Benedetti Michelangeli - The art of Arturo Benedetti Michelangeli\CD6\13 - Schumann - Carnaval op.9 - 13. Estrella.wav

Peak level 72.2 %
Extraction speed 1.5 X
Track quality 100.0 %
Test CRC FA5CEBB3
Copy CRC FA5CEBB3
Accurately ripped (confidence 18) [54281978] (AR v1)
Copy OK

Track 14

Filename E:\[469820-2]Arturo Benedetti Michelangeli - The art of Arturo Benedetti Michelangeli\CD6\14 - Schumann - Carnaval op.9 - 14. Reconnaissance.wav

Peak level 36.1 %
Extraction speed 1.8 X
Track quality 100.0 %
Test CRC 7457F29B
Copy CRC 7457F29B
Accurately ripped (confidence 19) [42AEA11B] (AR v1)
Copy OK

Track 15

Filename E:\[469820-2]Arturo Benedetti Michelangeli - The art of Arturo Benedetti Michelangeli\CD6\15 - Schumann - Carnaval op.9 - 15. Pantalon et Colombine.wav

Peak level 55.1 %
Extraction speed 1.7 X
Track quality 100.0 %
Test CRC 89E4B521
Copy CRC 89E4B521
Accurately ripped (confidence 19) [A5B15848] (AR v1)
Copy OK

Track 16

Filename E:\[469820-2]Arturo Benedetti Michelangeli - The art of Arturo Benedetti Michelangeli\CD6\16 - Schumann - Carnaval op.9 - 16a. Valse Allemande.wav

Peak level 69.8 %
Extraction speed 1.7 X
Track quality 100.0 %
Test CRC A84A1706
Copy CRC A84A1706
Accurately ripped (confidence 18) [75BABC14] (AR v1)
Copy OK

Track 17

Filename E:\[469820-2]Arturo Benedetti Michelangeli - The art of Arturo Benedetti Michelangeli\CD6\17 - Schumann - Carnaval op.9 - 16b. Intermezzo-Paganini.wav

Peak level 60.2 %
Extraction speed 1.8 X
Track quality 100.0 %
Test CRC 66088E43
Copy CRC 66088E43
Accurately ripped (confidence 19) [83EAB592] (AR v1)
Copy OK

Track 18

Filename E:\[469820-2]Arturo Benedetti Michelangeli - The art of Arturo Benedetti Michelangeli\CD6\18 - Schumann - Carnaval op.9 - 17. Aveu.wav

Peak level 9.7 %
Extraction speed 1.7 X
Track quality 100.0 %
Test CRC A8E84174
Copy CRC A8E84174
Accurately ripped (confidence 18) [CC41DA9C] (AR v1)
Copy OK

Track 19

Filename E:\[469820-2]Arturo Benedetti Michelangeli - The art of Arturo Benedetti Michelangeli\CD6\19 - Schumann - Carnaval op.9 - 18. Promenade.wav

Peak level 62.7 %
Extraction speed 1.8 X
Track quality 100.0 %
Test CRC F9EC0ABB
Copy CRC F9EC0ABB
Accurately ripped (confidence 18) [16358DB0] (AR v1)
Copy OK

Track 20

Filename E:\[469820-2]Arturo Benedetti Michelangeli - The art of Arturo Benedetti Michelangeli\CD6\20 - Schumann - Carnaval op.9 - 19. Pause.wav

Peak level 64.2 %
Extraction speed 1.4 X
Track quality 100.0 %
Test CRC C6932EB8
Copy CRC C6932EB8
Accurately ripped (confidence 18) [7D7FF23E] (AR v1)
Copy OK

Track 21

Filename E:\[469820-2]Arturo Benedetti Michelangeli - The art of Arturo Benedetti Michelangeli\CD6\21 - Schumann - Carnaval op.9 - 20. Marche des ''Davidsbundler'' contre les Philistins.wav

Peak level 71.2 %
Extraction speed 1.8 X
Track quality 100.0 %
Test CRC A5646EEE
Copy CRC A5646EEE
Accurately ripped (confidence 19) [0E1DFA0C] (AR v1)
Copy OK

Track 22

Filename E:\[469820-2]Arturo Benedetti Michelangeli - The art of Arturo Benedetti Michelangeli\CD6\22 - Schumann - Faschingsschwank aus Wien, Op.26 - 1. Allegro (Vivace assai).wav

Pre-gap length 0:00:08.25

Peak level 79.6 %
Extraction speed 1.9 X
Track quality 100.0 %
Test CRC F4AA9198
Copy CRC F4AA9198
Accurately ripped (confidence 19) [F1B69609] (AR v1)
Copy OK

Track 23

Filename E:\[469820-2]Arturo Benedetti Michelangeli - The art of Arturo Benedetti Michelangeli\CD6\23 - Schumann - Faschingsschwank aus Wien, Op.26 - 2. Romanze (Piuttosto lento).wav

Peak level 56.6 %
Extraction speed 1.8 X
Track quality 100.0 %
Test CRC 2D2A2D39
Copy CRC 2D2A2D39
Accurately ripped (confidence 19) [1B08EF5E] (AR v1)
Copy OK

Track 24

Filename E:\[469820-2]Arturo Benedetti Michelangeli - The art of Arturo Benedetti Michelangeli\CD6\24 - Schumann - Faschingsschwank aus Wien, Op.26 - 3. Scherzino.wav

Peak level 63.0 %
Extraction speed 1.7 X
Track quality 99.9 %
Test CRC E7235B49
Copy CRC E7235B49
Accurately ripped (confidence 19) [C5254950] (AR v1)
Copy OK

Track 25

Filename E:\[469820-2]Arturo Benedetti Michelangeli - The art of Arturo Benedetti Michelangeli\CD6\25 - Schumann - Faschingsschwank aus Wien, Op.26 - 4. Intermezzo (Colla piu grande energia).wav

Peak level 61.3 %
Extraction speed 1.8 X
Track quality 100.0 %
Test CRC 1AAFAFEC
Copy CRC 1AAFAFEC
Accurately ripped (confidence 19) [2D9E638F] (AR v1)
Copy OK

Track 26

Filename E:\[469820-2]Arturo Benedetti Michelangeli - The art of Arturo Benedetti Michelangeli\CD6\26 - Schumann - Faschingsschwank aus Wien, Op.26 - 5. Finale (Il piu vivace possibile).wav

Peak level 76.2 %
Extraction speed 1.8 X
Track quality 99.9 %
Test CRC 729BCD60
Copy CRC 729BCD60
Accurately ripped (confidence 19) [DE5208E3] (AR v1)
Copy OK

Track 27

Filename E:\[469820-2]Arturo Benedetti Michelangeli - The art of Arturo Benedetti Michelangeli\CD6\27 - Brahms - 4 Ballades op.10 - No.1 in D minor.wav

Pre-gap length 0:00:09.45

Peak level 99.9 %
Extraction speed 1.8 X
Track quality 100.0 %
Test CRC 5AFADFB2
Copy CRC 5AFADFB2
Accurately ripped (confidence 19) [C2FA88CE] (AR v1)
Copy OK

Track 28

Filename E:\[469820-2]Arturo Benedetti Michelangeli - The art of Arturo Benedetti Michelangeli\CD6\28 - Brahms - 4 Ballades op.10 - No.2 in D.wav

Peak level 99.4 %
Extraction speed 1.8 X
Track quality 99.9 %
Test CRC 48ACB139
Copy CRC 48ACB139
Accurately ripped (confidence 19) [17B3F6A0] (AR v1)
Copy OK

Track 29

Filename E:\[469820-2]Arturo Benedetti Michelangeli - The art of Arturo Benedetti Michelangeli\CD6\29 - Brahms - 4 Ballades op.10 - No.3 in B minor.wav

Peak level 71.3 %
Extraction speed 1.8 X
Track quality 100.0 %
Test CRC D07B9DC4
Copy CRC D07B9DC4
Accurately ripped (confidence 19) [BDB41636] (AR v1)
Copy OK

Track 30

Filename E:\[469820-2]Arturo Benedetti Michelangeli - The art of Arturo Benedetti Michelangeli\CD6\30 - Brahms - 4 Ballades op.10 - No.4 in B.wav

Peak level 32.3 %
Extraction speed 1.7 X
Track quality 100.0 %
Test CRC DA7D2AE8
Copy CRC DA7D2AE8
Accurately ripped (confidence 20) [87C6C6CB] (AR v1)
Copy OK


All tracks accurately ripped

No errors occurred

End of status report

–– CUETools DB Plugin V2.1.3

[CTDB TOCID: XWDi2LCKqoRWrw.tKog9z2dzoLg-] disk not present in database, Submit result: database access error: 请求被中止: 请求已被取消。


==== Log checksum 558E06CCA8CB4DA46512976934A342D436B9DE023C1211B412CD286D69D20918 ====


CD7
1. Debussy: Préludes - Book 1; 1. Danseuses de Delphes
2. 2. Voiles
3. 3. Le vent dans la plaine
4. 4. Les sons et les parfums tournent dans l'air du soir
5. 5. Les collines d'Anacapri
6. 6. Des pas sur la neige
7. 7. Ce qu'a vu le vent d'ouest
8. 8. La fille aux cheveux de lin
9. 9. La sérénade interrompue
10. 10. La cathédrale engloutie
11. 11. La danse de Puck
12. 12. Minstrels
13. Debussy: Children's Corner; 1. Doctor Gradus ad Parnassum
14. 2. Jimbo's Lullaby
15. 3. Serenade for the Doll
16. 4. The Snow is dancing
17. 5. The little Shepherd
18. 6. Golliwogg's Cakewalk

Exact Audio Copy V1.0 beta 3 from 29. August 2011

EAC extraction logfile from 18. December 2012, 7:16

Arturo Benedetti Michelangeli / The art of Arturo Benedetti Michelangeli CD7

Used drive : PLEXTOR CD-R PREMIUM Adapter: 0 ID: 0

Read mode : Secure
Utilize accurate stream : Yes
Defeat audio cache : Yes
Make use of C2 pointers : No

Read offset correction : 30
Overread into Lead-In and Lead-Out : No
Fill up missing offset samples with silence : Yes
Delete leading and trailing silent blocks : No
Null samples used in CRC calculations : Yes
Used interface : Native Win32 interface for Win NT & 2000
Gap handling : Appended to previous track

Used output format : User Defined Encoder
Selected bitrate : 1024 kBit/s
Quality : High
Add ID3 tag : No
Command line compressor : D:\Program Files\Exact Audio Copy\Flac\flac.exe
Additional command line options : -8 -V -T "ARTIST=%artist%" -T "TITLE=%title%" -T "ALBUM=%albumtitle%" -T "DATE=%year%" -T "TRACKNUMBER=%tracknr%" -T "GENRE=%genre%" -T "PERFORMER=%albuminterpret%" -T "COMPOSER=%composer%" %haslyrics%–tag-from-file=LYRICS="%lyricsfile%"%haslyrics% -T "ALBUMARTIST=%albumartist%" -T "DISCNUMBER=%cdnumber%" -T "TOTALDISCS=%totalcds%" -T "TOTALTRACKS=%numtracks%" -T "COMMENT=%comment%" %source% -o %dest%


TOC of the extracted CD

Track | Start | Length | Start sector | End sector
––––––––––––––––––––––––––––-
1 | 0:00.00 | 3:18.00 | 0 | 14849
2 | 3:18.00 | 4:30.00 | 14850 | 35099
3 | 7:48.00 | 2:13.00 | 35100 | 45074
4 | 10:01.00 | 3:39.00 | 45075 | 61499
5 | 13:40.00 | 3:19.00 | 61500 | 76424
6 | 16:59.00 | 4:58.50 | 76425 | 98824
7 | 21:57.50 | 3:41.50 | 98825 | 115449
8 | 25:39.25 | 2:54.50 | 115450 | 128549
9 | 28:34.00 | 2:43.00 | 128550 | 140774
10 | 31:17.00 | 6:52.00 | 140775 | 171674
11 | 38:09.00 | 3:12.00 | 171675 | 186074
12 | 41:21.00 | 2:42.00 | 186075 | 198224
13 | 44:03.00 | 2:15.50 | 198225 | 208399
14 | 46:18.50 | 3:28.50 | 208400 | 224049
15 | 49:47.25 | 2:16.00 | 224050 | 234249
16 | 52:03.25 | 2:38.25 | 234250 | 246124
17 | 54:41.50 | 2:28.25 | 246125 | 257249
18 | 57:10.00 | 2:57.00 | 257250 | 270524


Track 1

Filename E:\[469820-2]Arturo Benedetti Michelangeli - The art of Arturo Benedetti Michelangeli\CD7\01 - Debussy - Preludes - 1er Livre - I. Danseuses de Delphes.wav

Pre-gap length 0:00:02.00

Peak level 78.8 %
Extraction speed 1.8 X
Track quality 100.0 %
Test CRC 4754E0D5
Copy CRC 4754E0D5
Accurately ripped (confidence 18) [B42D3C71] (AR v1)
Copy OK

Track 2

Filename E:\[469820-2]Arturo Benedetti Michelangeli - The art of Arturo Benedetti Michelangeli\CD7\02 - Debussy - Preludes - 1er Livre - II. Voiles.wav

Peak level 68.7 %
Extraction speed 1.8 X
Track quality 100.0 %
Test CRC 3750C6B1
Copy CRC 3750C6B1
Accurately ripped (confidence 18) [DEDCC969] (AR v1)
Copy OK

Track 3

Filename E:\[469820-2]Arturo Benedetti Michelangeli - The art of Arturo Benedetti Michelangeli\CD7\03 - Debussy - Preludes - 1er Livre - III. Le vent dans la plaine.wav

Peak level 76.3 %
Extraction speed 1.7 X
Track quality 100.0 %
Test CRC E8E403D4
Copy CRC E8E403D4
Accurately ripped (confidence 18) [C80B2944] (AR v1)
Copy OK

Track 4

Filename E:\[469820-2]Arturo Benedetti Michelangeli - The art of Arturo Benedetti Michelangeli\CD7\04 - Debussy - Preludes - 1er Livre - IV. Les sons et les parfums tournent dans l'air du soir.wav

Peak level 54.0 %
Extraction speed 1.8 X
Track quality 100.0 %
Test CRC 5472FA38
Copy CRC 5472FA38
Accurately ripped (confidence 18) [F3A1D540] (AR v1)
Copy OK

Track 5

Filename E:\[469820-2]Arturo Benedetti Michelangeli - The art of Arturo Benedetti Michelangeli\CD7\05 - Debussy - Preludes - 1er Livre - V. Les collines d'Anacapri.wav

Peak level 90.5 %
Extraction speed 1.8 X
Track quality 100.0 %
Test CRC 478D158C
Copy CRC 478D158C
Accurately ripped (confidence 18) [62EBD1D8] (AR v1)
Copy OK

Track 6

Filename E:\[469820-2]Arturo Benedetti Michelangeli - The art of Arturo Benedetti Michelangeli\CD7\06 - Debussy - Preludes - 1er Livre - VI. Des pas sur la neige.wav

Peak level 33.2 %
Extraction speed 1.8 X
Track quality 100.0 %
Test CRC 34F5A9A5
Copy CRC 34F5A9A5
Accurately ripped (confidence 18) [440A0CD2] (AR v1)
Copy OK

Track 7

Filename E:\[469820-2]Arturo Benedetti Michelangeli - The art of Arturo Benedetti Michelangeli\CD7\07 - Debussy - Preludes - 1er Livre - VII. Ce qu'a vu le vent d'Ouest.wav

Peak level 90.7 %
Extraction speed 1.8 X
Track quality 100.0 %
Test CRC FFBEE0A6
Copy CRC FFBEE0A6
Accurately ripped (confidence 18) [856297A1] (AR v1)
Copy OK

Track 8

Filename E:\[469820-2]Arturo Benedetti Michelangeli - The art of Arturo Benedetti Michelangeli\CD7\08 - Debussy - Preludes - 1er Livre - VIII. La fille aux cheveux de lin.wav

Peak level 72.6 %
Extraction speed 1.8 X
Track quality 100.0 %
Test CRC B3742709
Copy CRC B3742709
Accurately ripped (confidence 18) [8DD33AFD] (AR v1)
Copy OK

Track 9

Filename E:\[469820-2]Arturo Benedetti Michelangeli - The art of Arturo Benedetti Michelangeli\CD7\09 - Debussy - Preludes - 1er Livre - IX. La serenade interrompue.wav

Peak level 72.1 %
Extraction speed 1.8 X
Track quality 99.9 %
Test CRC 56AD4B6C
Copy CRC 56AD4B6C
Accurately ripped (confidence 17) [BB022505] (AR v1)
Copy OK

Track 10

Filename E:\[469820-2]Arturo Benedetti Michelangeli - The art of Arturo Benedetti Michelangeli\CD7\10 - Debussy - Preludes - 1er Livre - X. La cathedrale engloutie.wav

Peak level 96.0 %
Extraction speed 1.8 X
Track quality 99.9 %
Test CRC 668DCC36
Copy CRC 668DCC36
Accurately ripped (confidence 18) [A8BE5D40] (AR v1)
Copy OK

Track 11

Filename E:\[469820-2]Arturo Benedetti Michelangeli - The art of Arturo Benedetti Michelangeli\CD7\11 - Debussy - Preludes - 1er Livre - XI. La danse de Puck.wav

Peak level 68.5 %
Extraction speed 1.8 X
Track quality 100.0 %
Test CRC FD584E35
Copy CRC FD584E35
Accurately ripped (confidence 18) [46F4F6A6] (AR v1)
Copy OK

Track 12

Filename E:\[469820-2]Arturo Benedetti Michelangeli - The art of Arturo Benedetti Michelangeli\CD7\12 - Debussy - Preludes - 1er Livre - XII. Minstrels.wav

Peak level 87.5 %
Extraction speed 1.8 X
Track quality 99.9 %
Test CRC BCEB97A3
Copy CRC BCEB97A3
Accurately ripped (confidence 17) [0696CE94] (AR v1)
Copy OK

Track 13

Filename E:\[469820-2]Arturo Benedetti Michelangeli - The art of Arturo Benedetti Michelangeli\CD7\13 - Debussy - Children's Corner - I. Doctor Gradus ad Parnassum.wav

Pre-gap length 0:00:11.00

Peak level 85.4 %
Extraction speed 1.8 X
Track quality 100.0 %
Test CRC F1909D60
Copy CRC F1909D60
Accurately ripped (confidence 19) [07569A93] (AR v1)
Copy OK

Track 14

Filename E:\[469820-2]Arturo Benedetti Michelangeli - The art of Arturo Benedetti Michelangeli\CD7\14 - Debussy - Children's Corner - II. Jimbo's Lullaby.wav

Peak level 40.1 %
Extraction speed 1.8 X
Track quality 100.0 %
Test CRC CBDD4974
Copy CRC CBDD4974
Accurately ripped (confidence 19) [B2F2C6A7] (AR v1)
Copy OK

Track 15

Filename E:\[469820-2]Arturo Benedetti Michelangeli - The art of Arturo Benedetti Michelangeli\CD7\15 - Debussy - Children's Corner - III. Serenade for the Doll.wav

Peak level 41.1 %
Extraction speed 1.8 X
Track quality 100.0 %
Test CRC 08DC02F2
Copy CRC 08DC02F2
Accurately ripped (confidence 19) [6945987D] (AR v1)
Copy OK

Track 16

Filename E:\[469820-2]Arturo Benedetti Michelangeli - The art of Arturo Benedetti Michelangeli\CD7\16 - Debussy - Children's Corner - IV. The Snow is Dancing.wav

Peak level 62.5 %
Extraction speed 1.7 X
Track quality 99.9 %
Test CRC 43BFBBAB
Copy CRC 43BFBBAB
Accurately ripped (confidence 19) [88F6805B] (AR v1)
Copy OK

Track 17

Filename E:\[469820-2]Arturo Benedetti Michelangeli - The art of Arturo Benedetti Michelangeli\CD7\17 - Debussy - Children's Corner - V. The Little Shepherd.wav

Peak level 38.7 %
Extraction speed 1.8 X
Track quality 100.0 %
Test CRC 55CE2C86
Copy CRC 55CE2C86
Accurately ripped (confidence 19) [DA01A5E7] (AR v1)
Copy OK

Track 18

Filename E:\[469820-2]Arturo Benedetti Michelangeli - The art of Arturo Benedetti Michelangeli\CD7\18 - Debussy - Children's Corner - VI. Golliwogg's Cake-walk.wav

Peak level 99.9 %
Extraction speed 1.8 X
Track quality 100.0 %
Test CRC FFF25963
Copy CRC FFF25963
Accurately ripped (confidence 19) [CAE11931] (AR v1)
Copy OK


All tracks accurately ripped

No errors occurred

End of status report

–– CUETools DB Plugin V2.1.3

[CTDB TOCID: IQ_pS3ETqTauaGTahmJVjUk1hXw-] found, Submit result: IQ_pS3ETqTauaGTahmJVjUk1hXw- has been confirmed
[e1f79ce7] (1/1) Accurately ripped


==== Log checksum 608550EF2C72996E6914CBC61EC8B52DE59C789A4DBDE7A355D1ECB8FAE1ABA3 ====


CD 8
1. Debussy: Préludes - Book 2; 1. Brouillards
2. 2. Feuilles mortes
3. 3. La puerta del vino
4. 4. "Les fées sont d'exquises danseuses"
5. 5. Bruyères
6. 6. "General Lavine" - eccentric
7. 7. La terrasse des audiences du clair de lune
8. 8. Ondine
9. 9. Hommage à S. Pickwick, Esq., P.P.M.P.C.
10. 10. Canope
11. 11. Les tierces alternées
12. 12. Feux d'artifice
13. Debussy: Images - Book 1; 1. Reflets dans l'eau
14. 2. Hommage à Rameau
15. 3. Mouvement
16. Debussy: Images - Book 2; 1. Cloches à travers les feuilles
17. 2. Et la lune descend sur le temple qui fût
18. 3. Poissons d'or
19. 2. Et la lune descend sur le temple qui fût
20. 3. Poissons d'or

Exact Audio Copy V1.0 beta 3 from 29. August 2011

EAC extraction logfile from 18. December 2012, 18:07

Arturo Benedetti Michelangeli / The art of Arturo Benedetti Michelangeli CD8

Used drive : PLEXTOR CD-R PREMIUM Adapter: 0 ID: 0

Read mode : Secure
Utilize accurate stream : Yes
Defeat audio cache : Yes
Make use of C2 pointers : No

Read offset correction : 30
Overread into Lead-In and Lead-Out : No
Fill up missing offset samples with silence : Yes
Delete leading and trailing silent blocks : No
Null samples used in CRC calculations : Yes
Used interface : Native Win32 interface for Win NT & 2000
Gap handling : Appended to previous track

Used output format : User Defined Encoder
Selected bitrate : 1024 kBit/s
Quality : High
Add ID3 tag : No
Command line compressor : D:\Program Files\Exact Audio Copy\Flac\flac.exe
Additional command line options : -8 -V -T "ARTIST=%artist%" -T "TITLE=%title%" -T "ALBUM=%albumtitle%" -T "DATE=%year%" -T "TRACKNUMBER=%tracknr%" -T "GENRE=%genre%" -T "PERFORMER=%albuminterpret%" -T "COMPOSER=%composer%" %haslyrics%–tag-from-file=LYRICS="%lyricsfile%"%haslyrics% -T "ALBUMARTIST=%albumartist%" -T "DISCNUMBER=%cdnumber%" -T "TOTALDISCS=%totalcds%" -T "TOTALTRACKS=%numtracks%" -T "COMMENT=%comment%" %source% -o %dest%


TOC of the extracted CD

Track | Start | Length | Start sector | End sector
––––––––––––––––––––––––––––-
1 | 0:00.00 | 2:56.00 | 0 | 13199
2 | 2:56.00 | 3:19.25 | 13200 | 28149
3 | 6:15.25 | 4:07.25 | 28150 | 46699
4 | 10:22.50 | 3:07.25 | 46700 | 60749
5 | 13:30.00 | 2:54.00 | 60750 | 73799
6 | 16:24.00 | 2:38.50 | 73800 | 85699
7 | 19:02.50 | 3:59.25 | 85700 | 103649
8 | 23:02.00 | 3:27.00 | 103650 | 119174
9 | 26:29.00 | 2:27.00 | 119175 | 130199
10 | 28:56.00 | 2:36.25 | 130200 | 141924
11 | 31:32.25 | 2:55.50 | 141925 | 155099
12 | 34:28.00 | 4:47.00 | 155100 | 176624
13 | 39:15.00 | 4:54.00 | 176625 | 198674
14 | 44:09.00 | 6:35.00 | 198675 | 228299
15 | 50:44.00 | 3:43.00 | 228300 | 245024
16 | 54:27.00 | 4:23.00 | 245025 | 264749
17 | 58:50.00 | 5:15.00 | 264750 | 288374
18 | 64:05.00 | 4:02.00 | 288375 | 306524


Track 1

Filename E:\[469820-2]Arturo Benedetti Michelangeli - The art of Arturo Benedetti Michelangeli\CD8\01 - Debussy - Preludes - 2e Livre - I. Brouillards.wav

Pre-gap length 0:00:02.00

Peak level 75.8 %
Extraction speed 1.8 X
Track quality 100.0 %
Test CRC B619ABA4
Copy CRC B619ABA4
Accurately ripped (confidence 17) [BEA7B7B2] (AR v1)
Copy OK

Track 2

Filename E:\[469820-2]Arturo Benedetti Michelangeli - The art of Arturo Benedetti Michelangeli\CD8\02 - Debussy - Preludes - 2e Livre - II. Feuilles mortes.wav

Peak level 47.9 %
Extraction speed 1.8 X
Track quality 100.0 %
Test CRC EE77E3FE
Copy CRC EE77E3FE
Accurately ripped (confidence 17) [926E5BAA] (AR v1)
Copy OK

Track 3

Filename E:\[469820-2]Arturo Benedetti Michelangeli - The art of Arturo Benedetti Michelangeli\CD8\03 - Debussy - Preludes - 2e Livre - III. La Puerta del Vino.wav

Peak level 85.1 %
Extraction speed 1.8 X
Track quality 99.9 %
Test CRC 579EAEA3
Copy CRC 579EAEA3
Accurately ripped (confidence 17) [A0969482] (AR v1)
Copy OK

Track 4

Filename E:\[469820-2]Arturo Benedetti Michelangeli - The art of Arturo Benedetti Michelangeli\CD8\04 - Debussy - Preludes - 2e Livre - IV. ''Les Fees sont d'exquises danseuses''.wav

Peak level 66.6 %
Extraction speed 1.8 X
Track quality 100.0 %
Test CRC 42FF84C2
Copy CRC 42FF84C2
Accurately ripped (confidence 17) [5258B72C] (AR v1)
Copy OK

Track 5

Filename E:\[469820-2]Arturo Benedetti Michelangeli - The art of Arturo Benedetti Michelangeli\CD8\05 - Debussy - Preludes - 2e Livre - V. Bruyeres.wav

Peak level 54.9 %
Extraction speed 1.8 X
Track quality 100.0 %
Test CRC 733A3858
Copy CRC 733A3858
Accurately ripped (confidence 17) [48651DAB] (AR v1)
Copy OK

Track 6

Filename E:\[469820-2]Arturo Benedetti Michelangeli - The art of Arturo Benedetti Michelangeli\CD8\06 - Debussy - Preludes - 2e Livre - VI. ''General Lavine'' - eccentric.wav

Peak level 87.6 %
Extraction speed 1.7 X
Track quality 99.9 %
Test CRC CC17A3DD
Copy CRC CC17A3DD
Accurately ripped (confidence 17) [89BDE8CD] (AR v1)
Copy OK

Track 7

Filename E:\[469820-2]Arturo Benedetti Michelangeli - The art of Arturo Benedetti Michelangeli\CD8\07 - Debussy - Preludes - 2e Livre - VII. La Terrasse des audiences du clair de lune.wav

Peak level 69.2 %
Extraction speed 1.8 X
Track quality 100.0 %
Test CRC E7639305
Copy CRC E7639305
Accurately ripped (confidence 17) [56043464] (AR v1)
Copy OK

Track 8

Filename E:\[469820-2]Arturo Benedetti Michelangeli - The art of Arturo Benedetti Michelangeli\CD8\08 - Debussy - Preludes - 2e Livre - VIII. Ondine.wav

Peak level 44.7 %
Extraction speed 1.8 X
Track quality 100.0 %
Test CRC 25149436
Copy CRC 25149436
Accurately ripped (confidence 17) [E2B288D2] (AR v1)
Copy OK

Track 9

Filename E:\[469820-2]Arturo Benedetti Michelangeli - The art of Arturo Benedetti Michelangeli\CD8\09 - Debussy - Preludes - 2e Livre - IX. Hommage a S. Pickwick Esq. P.P.M.P.C..wav

Peak level 89.2 %
Extraction speed 1.8 X
Track quality 100.0 %
Test CRC CFE8BDE8
Copy CRC CFE8BDE8
Accurately ripped (confidence 17) [ACC77982] (AR v1)
Copy OK

Track 10

Filename E:\[469820-2]Arturo Benedetti Michelangeli - The art of Arturo Benedetti Michelangeli\CD8\10 - Debussy - Preludes - 2e Livre - X. Canope.wav

Peak level 25.0 %
Extraction speed 1.8 X
Track quality 99.9 %
Test CRC F25325D6
Copy CRC F25325D6
Accurately ripped (confidence 17) [2686128C] (AR v1)
Copy OK

Track 11

Filename E:\[469820-2]Arturo Benedetti Michelangeli - The art of Arturo Benedetti Michelangeli\CD8\11 - Debussy - Preludes - 2e Livre - XI. Les Tierces alternees.wav

Peak level 48.5 %
Extraction speed 1.8 X
Track quality 100.0 %
Test CRC 8319803B
Copy CRC 8319803B
Accurately ripped (confidence 17) [0E661B0A] (AR v1)
Copy OK

Track 12

Filename E:\[469820-2]Arturo Benedetti Michelangeli - The art of Arturo Benedetti Michelangeli\CD8\12 - Debussy - Preludes - 2e Livre - XII. Feux d'artifice.wav

Peak level 97.0 %
Extraction speed 1.8 X
Track quality 100.0 %
Test CRC 78A3AF80
Copy CRC 78A3AF80
Accurately ripped (confidence 17) [77D75262] (AR v1)
Copy OK

Track 13

Filename E:\[469820-2]Arturo Benedetti Michelangeli - The art of Arturo Benedetti Michelangeli\CD8\13 - Debussy - Images I - I. Reflets dans l'eau.wav

Pre-gap length 0:00:12.00

Peak level 82.4 %
Extraction speed 1.8 X
Track quality 100.0 %
Test CRC 49F40698
Copy CRC 49F40698
Accurately ripped (confidence 17) [5AAD467B] (AR v1)
Copy OK

Track 14

Filename E:\[469820-2]Arturo Benedetti Michelangeli - The art of Arturo Benedetti Michelangeli\CD8\14 - Debussy - Images I - II. Hommage a Rrameau.wav

Peak level 88.1 %
Extraction speed 1.9 X
Track quality 100.0 %
Test CRC C47E0B9B
Copy CRC C47E0B9B
Accurately ripped (confidence 17) [BAFE9616] (AR v1)
Copy OK

Track 15

Filename E:\[469820-2]Arturo Benedetti Michelangeli - The art of Arturo Benedetti Michelangeli\CD8\15 - Debussy - Images I - III. Mouvement.wav

Peak level 81.5 %
Extraction speed 1.8 X
Track quality 100.0 %
Test CRC B9B67CC4
Copy CRC B9B67CC4
Accurately ripped (confidence 17) [4B4441CF] (AR v1)
Copy OK

Track 16

Filename E:\[469820-2]Arturo Benedetti Michelangeli - The art of Arturo Benedetti Michelangeli\CD8\16 - Debussy - Images II - I. Cloches a travers les feuilles.wav

Pre-gap length 0:00:04.00

Peak level 70.6 %
Extraction speed 1.8 X
Track quality 100.0 %
Test CRC A6736179
Copy CRC A6736179
Accurately ripped (confidence 17) [88949609] (AR v1)
Copy OK

Track 17

Filename E:\[469820-2]Arturo Benedetti Michelangeli - The art of Arturo Benedetti Michelangeli\CD8\17 - Debussy - Images II - II. Et la lune descend sur le temple qui fut.wav

Peak level 53.6 %
Extraction speed 1.8 X
Track quality 100.0 %
Test CRC 60E6E61E
Copy CRC 60E6E61E
Accurately ripped (confidence 17) [F424013D] (AR v1)
Copy OK

Track 18

Filename E:\[469820-2]Arturo Benedetti Michelangeli - The art of Arturo Benedetti Michelangeli\CD8\18 - Debussy - Images II - III. Poissons d'or.wav

Peak level 93.1 %
Extraction speed 1.5 X
Track quality 99.9 %
Test CRC 9941BB56
Copy CRC 9941BB56
Accurately ripped (confidence 18) [1EA69BF4] (AR v1)
Copy OK


All tracks accurately ripped

No errors occurred

End of status report

–– CUETools DB Plugin V2.1.3

[CTDB TOCID: .UX1Xf.jIZYm1tqKAtL80t9TXTI-] found, Submit result: .UX1Xf.jIZYm1tqKAtL80t9TXTI- has been confirmed
[df677e6b] (1/1) Accurately ripped


==== Log checksum 8B962AEBA0C3790060AC0F1889DE673DF30C957AD17332427307D987AA61181A ====


Arturo Benedetti Michelangeli - The Art Of Arturo Benedetti Michelangeli (DG Collectors Edition) (2003)


Thanks to the Original customer.