Subcategories

Atsushi Yokozeki Project - Raid (1993) {KRECD54}

Posted By: tiburon
Atsushi Yokozeki Project - Raid (1993) {KRECD54}

Atsushi Yokozeki Project - Raid (1993) {KRECD54}
EAC 1.0b1 | FLAC tracks level 8 | Cue+Log+M3U+MD5 | Full Scans 300dpi | 320MB + 5% Recovery
Genre: Hard Rock

Another shining diamond from the past, the 1993 effort by Japanese six-string maestro Atsushi Yokozeki saw limited success (if any) in a period when melodic Hard Rock was really going down…The guitarist’s Far East fame plus the dozen of guests helping him out in this ambitious effort did not save the day and “Raid” did just make it to be a beloved album in the hands – or minds – of core guitar-driven melodic Rock fans.

Track List

01. Tears Of Sphinx
02. More Than Enough
03. Straight to Your Heart
04. Camel
05. All The Way To Heaven
06. Silence, Storm And Sunrise
07. A Little Bit More
08. Heartbreak
09. Mama Again
10. Raid

musicians

Atsushi Yokozeki - all guitars
Carmine Appice - drums
Frankie Banali - drums
James Kottak - drums
Bobby Blotzer - drums
Ken Mary - drums
Tim Bogert - bass
Rudy Sarzo - bass
Jeff Pilson - bass,vocals
Chuck Wright - bass
Greg Chaisson - bass
Kelly Hansen - vocals
David Glenn Eisley - vocals
Cherie Currie - vocals
Ray Gillen - vocals
Brad Gillis - solo guitar on track 4
Jake Lee - solo guitar on track 9
Graig Goldy - solo guitar on track 10

Produced by Joey Carbone


Exact Audio Copy V1.0 beta 1 from 15. November 2010

EAC extraction logfile from 9. March 2011, 11:07

Atsushi Yokozeki Project / Raid

Used drive : ASUS CRW-5232AS Adapter: 0 ID: 0

Read mode : Secure
Utilize accurate stream : Yes
Defeat audio cache : Yes
Make use of C2 pointers : No

Read offset correction : 6
Overread into Lead-In and Lead-Out : No
Fill up missing offset samples with silence : Yes
Delete leading and trailing silent blocks : No
Null samples used in CRC calculations : Yes
Used interface : Native Win32 interface for Win NT & 2000
Gap handling : Appended to previous track

Used output format : User Defined Encoder
Selected bitrate : 1024 kBit/s
Quality : High
Add ID3 tag : No
Command line compressor : C:\Program Files\Exact Audio Copy\Flac\flac.exe
Additional command line options : -8 -V -T "ARTIST=%a" -T "TITLE=%t" -T "ALBUM=%g" -T "DATE=%y" -T "TRACKNUMBER=%n" -T "TOTALTRACKS=%x" -T "GENRE=%m" -T "ALBUMARTIST=%v" -T "ALBUM ARTIST=%v" -T "COMMENT=EAC Secure Mode, Test & Copy, AccurateRip, FLAC -8" %s


TOC of the extracted CD

Track | Start | Length | Start sector | End sector
––––––––––––––––––––––––––––-
1 | 0:00.00 | 3:32.02 | 0 | 15901
2 | 3:32.02 | 4:54.00 | 15902 | 37951
3 | 8:26.02 | 4:19.64 | 37952 | 57440
4 | 12:45.66 | 3:48.68 | 57441 | 74608
5 | 16:34.59 | 4:43.14 | 74609 | 95847
6 | 21:17.73 | 4:16.45 | 95848 | 115092
7 | 25:34.43 | 3:22.66 | 115093 | 130308
8 | 28:57.34 | 4:24.38 | 130309 | 150146
9 | 33:21.72 | 4:50.72 | 150147 | 171968
10 | 38:12.69 | 4:44.61 | 171969 | 193329


Track 1

Filename G:\Atsushi Yokozeki Project - Raid (2010) {Krescendo KRECD54}\01 - Tears Of Sphinx.wav

Pre-gap length 0:00:02.00

Peak level 99.4 %
Extraction speed 1.9 X
Track quality 100.0 %
Test CRC 511E1EB1
Copy CRC 511E1EB1
Copy OK

Track 2

Filename G:\Atsushi Yokozeki Project - Raid (2010) {Krescendo KRECD54}\02 - More Than Enough.wav

Peak level 99.4 %
Extraction speed 2.2 X
Track quality 100.0 %
Test CRC 1E38CD16
Copy CRC 1E38CD16
Copy OK

Track 3

Filename G:\Atsushi Yokozeki Project - Raid (2010) {Krescendo KRECD54}\03 - Straight From The Heart.wav

Peak level 99.4 %
Extraction speed 2.4 X
Track quality 100.0 %
Test CRC 36E75DF2
Copy CRC 36E75DF2
Copy OK

Track 4

Filename G:\Atsushi Yokozeki Project - Raid (2010) {Krescendo KRECD54}\04 - Camel.wav

Peak level 99.4 %
Extraction speed 2.5 X
Track quality 100.0 %
Test CRC A58E5858
Copy CRC A58E5858
Copy OK

Track 5

Filename G:\Atsushi Yokozeki Project - Raid (2010) {Krescendo KRECD54}\05 - All The Way To Heaven.wav

Peak level 99.4 %
Extraction speed 2.7 X
Track quality 100.0 %
Test CRC 459EE631
Copy CRC 459EE631
Copy OK

Track 6

Filename G:\Atsushi Yokozeki Project - Raid (2010) {Krescendo KRECD54}\06 - Silence,Storm And Sunrise.wav

Peak level 99.4 %
Extraction speed 2.8 X
Track quality 100.0 %
Test CRC D36BB7A2
Copy CRC D36BB7A2
Copy OK

Track 7

Filename G:\Atsushi Yokozeki Project - Raid (2010) {Krescendo KRECD54}\07 - A Little Bit More.wav

Peak level 99.4 %
Extraction speed 2.3 X
Track quality 99.9 %
Test CRC 937C6D5D
Copy CRC 937C6D5D
Copy OK

Track 8

Filename G:\Atsushi Yokozeki Project - Raid (2010) {Krescendo KRECD54}\08 - Heartbreak.wav

Peak level 99.4 %
Extraction speed 2.9 X
Track quality 100.0 %
Test CRC 9A11393C
Copy CRC 9A11393C
Copy OK

Track 9

Filename G:\Atsushi Yokozeki Project - Raid (2010) {Krescendo KRECD54}\09 - Mama Again.wav

Peak level 99.4 %
Extraction speed 3.2 X
Track quality 100.0 %
Test CRC 7EF0F1F7
Copy CRC 7EF0F1F7
Copy OK

Track 10

Filename G:\Atsushi Yokozeki Project - Raid (2010) {Krescendo KRECD54}\10 - Raid.wav

Peak level 99.4 %
Extraction speed 3.4 X
Track quality 100.0 %
Test CRC 096FD3A7
Copy CRC 096FD3A7
Copy OK

No errors occurred

End of status report

==== Log checksum 666BE9FA46A703239E2A68FB796D086CBFC3458F3614532BCFB2D5CA95C307D6 ====
Atsushi Yokozeki Project - Raid (1993) {KRECD54}
Atsushi Yokozeki Project - Raid (1993) {KRECD54}




The Files Are Interchangeable

A Rip By tiburon

Visit My Blog