Tags
Language
Tags

Automatic Man - Visitors (1977) [Reissue 2005]

Posted By: gribovar
Automatic Man - Visitors (1977) [Reissue 2005]

Automatic Man - Visitors (1977) [Reissue 2005]
EAC Rip | FLAC (tracks+.cue+log) - 226 MB | MP3 CBR 320 kbps (LAME 3.93) - 85 MB | Covers - 72 MB
Genre: Progressive Rock, Funk | RAR 3% Rec. | Label: Lemon Recordings (CD LEM 66)

With its second and final album, Visitors, Automatic Man unveiled a new lineup. Lead singer/keyboardist Bayeté (real name: Todd Cochrane) and guitarist Pat Thrall were still on board, but bassist Doni Harvey and former Santana drummer Michael Shrieve were gone-and their replacements were bassist Jerome Rimson and drummer Glenn Symmonds. The Bay Area quartet was still interracial (half white, half black), but with the personnel changes came a more commercial approach. While Automatic Man's self-titled debut album of 1976 was an uncompromising, fairly abstract effort that had to be accepted on its own terms, Visitors finds the band making its progressive rock/space rock funkier and more accessible. Automatic Man definitely increased the funk/soul factor on this LP, and tunes like "Daughter of Neptune" and "Give It to Me" have an immediacy and a directness that the first album lacked. This isn't to say that Visitors is a better album; Automatic Man was the more creative and risk-taking of the two, although Visitors is generally likable. Nonetheless, Visitors wasn't the commercial breakthrough that Automatic Man was hoping for-and regrettably, the band broke up after this album.

Tracklist:
01. Give It to Me
02. Live Wire
03. So You Wanna Be Me
04. Y-2-Me
05. Visitors
06. Here I Am Now
07. Daughter of Neptune
08. What's Done

Total time: 36:26

Exact Audio Copy V1.0 beta 3 from 29. August 2011

EAC extraction logfile from 6. April 2013, 15:37

Automatic Man / Visitors

Used drive : TSSTcorpCDDVDW SH-224BB Adapter: 0 ID: 0

Read mode : Secure
Utilize accurate stream : Yes
Defeat audio cache : Yes
Make use of C2 pointers : No

Read offset correction : 6
Overread into Lead-In and Lead-Out : No
Fill up missing offset samples with silence : Yes
Delete leading and trailing silent blocks : No
Null samples used in CRC calculations : Yes
Used interface : Native Win32 interface for Win NT & 2000
Gap handling : Appended to previous track

Used output format : User Defined Encoder
Selected bitrate : 896 kBit/s
Quality : High
Add ID3 tag : No
Command line compressor : d:\Program Files (x86)\Exact Audio Copy\FLAC\FLAC.EXE
Additional command line options : -8 -V -T "ARTIST=%artist%" -T "TITLE=%title%" -T "ALBUM=%albumtitle%" -T "DATE=%year%" -T "TRACKNUMBER=%tracknr%" -T "TOTALTRACKS=%numtracks%" -T "GENRE=%genre%" -T "ALBUMARTIST=%albumartist%" -T "ALBUM ARTIST=%albumartist%" -T "COMMENT=EAC Secure Mode, Test & Copy, AccurateRip, FLAC -8" %source%


TOC of the extracted CD

Track | Start | Length | Start sector | End sector
––––––––––––––––––––––––––––-
1 | 0:00.00 | 3:53.69 | 0 | 17543
2 | 3:53.69 | 4:49.09 | 17544 | 39227
3 | 8:43.03 | 4:03.74 | 39228 | 57526
4 | 12:47.02 | 4:24.64 | 57527 | 77390
5 | 17:11.66 | 3:54.73 | 77391 | 95013
6 | 21:06.64 | 4:31.30 | 95014 | 115368
7 | 25:38.19 | 4:17.11 | 115369 | 134654
8 | 29:55.30 | 6:30.74 | 134655 | 163978


Track 1

Filename D:\Temporary\NEW\WCD\Automatic Man - Visitors (1977)\01. Give It To Me.wav

Pre-gap length 0:00:02.00

Peak level 82.7 %
Extraction speed 1.7 X
Track quality 100.0 %
Test CRC 78F1C4A9
Copy CRC 78F1C4A9
Accurately ripped (confidence 2) [B63B71BF] (AR v1)
Copy OK

Track 2

Filename D:\Temporary\NEW\WCD\Automatic Man - Visitors (1977)\02. Live Wire.wav

Peak level 100.0 %
Extraction speed 1.9 X
Track quality 100.0 %
Test CRC D2CFD3FE
Copy CRC D2CFD3FE
Accurately ripped (confidence 2) [1D665773] (AR v1)
Copy OK

Track 3

Filename D:\Temporary\NEW\WCD\Automatic Man - Visitors (1977)\03. So You Wanna Be.wav

Peak level 87.1 %
Extraction speed 1.8 X
Track quality 99.9 %
Test CRC 33C5303B
Copy CRC 33C5303B
Accurately ripped (confidence 2) [8BBDF3DB] (AR v1)
Copy OK

Track 4

Filename D:\Temporary\NEW\WCD\Automatic Man - Visitors (1977)\04. Y-2-Me.wav

Peak level 84.3 %
Extraction speed 2.3 X
Track quality 100.0 %
Test CRC 68FA7F1C
Copy CRC 68FA7F1C
Accurately ripped (confidence 2) [4E598A3C] (AR v1)
Copy OK

Track 5

Filename D:\Temporary\NEW\WCD\Automatic Man - Visitors (1977)\05. Visitors.wav

Peak level 94.4 %
Extraction speed 2.4 X
Track quality 100.0 %
Test CRC C649A2F1
Copy CRC C649A2F1
Accurately ripped (confidence 2) [9D01E222] (AR v1)
Copy OK

Track 6

Filename D:\Temporary\NEW\WCD\Automatic Man - Visitors (1977)\06. Here I Am Now.wav

Peak level 75.0 %
Extraction speed 2.6 X
Track quality 100.0 %
Test CRC 4811C1AC
Copy CRC 4811C1AC
Accurately ripped (confidence 2) [0C50D85C] (AR v1)
Copy OK

Track 7

Filename D:\Temporary\NEW\WCD\Automatic Man - Visitors (1977)\07. Daughter Of Neptune.wav

Peak level 90.5 %
Extraction speed 2.7 X
Track quality 100.0 %
Test CRC 40DE7C56
Copy CRC 40DE7C56
Accurately ripped (confidence 2) [95138046] (AR v1)
Copy OK

Track 8

Filename D:\Temporary\NEW\WCD\Automatic Man - Visitors (1977)\08. What's Done.wav

Peak level 97.5 %
Extraction speed 3.0 X
Track quality 100.0 %
Test CRC 98A8F010
Copy CRC 98A8F010
Accurately ripped (confidence 2) [B6104E63] (AR v1)
Copy OK


All tracks accurately ripped

No errors occurred

End of status report

–– CUETools DB Plugin V2.1.3

[CTDB TOCID: axhVKELG8blBK6CkqruGUpnWkzk-] disk not present in database, Submit result: axhVKELG8blBK6CkqruGUpnWkzk- has been uploaded


==== Log checksum FE3BA93491241D346DE6AF1CBA0BA6E0636361F56D7C369C7F3A11660FCC1A27 ====

––––––––––––––––––––––––––––––

Exact Audio Copy V1.0 beta 3 from 29. August 2011

EAC extraction logfile from 6. April 2013, 15:37

Automatic Man / Visitors

Used drive : TSSTcorpCDDVDW SH-224BB Adapter: 0 ID: 0

Read mode : Secure
Utilize accurate stream : Yes
Defeat audio cache : Yes
Make use of C2 pointers : No

Read offset correction : 6
Overread into Lead-In and Lead-Out : No
Fill up missing offset samples with silence : Yes
Delete leading and trailing silent blocks : No
Null samples used in CRC calculations : Yes
Used interface : Native Win32 interface for Win NT & 2000
Gap handling : Appended to previous track

Used output format : User Defined Encoder
Selected bitrate : 896 kBit/s
Quality : High
Add ID3 tag : No
Command line compressor : d:\Program Files (x86)\Exact Audio Copy\FLAC\FLAC.EXE
Additional command line options : -8 -V -T "ARTIST=%artist%" -T "TITLE=%title%" -T "ALBUM=%albumtitle%" -T "DATE=%year%" -T "TRACKNUMBER=%tracknr%" -T "TOTALTRACKS=%numtracks%" -T "GENRE=%genre%" -T "ALBUMARTIST=%albumartist%" -T "ALBUM ARTIST=%albumartist%" -T "COMMENT=EAC Secure Mode, Test & Copy, AccurateRip, FLAC -8" %source%


TOC of the extracted CD

Track | Start | Length | Start sector | End sector
––––––––––––––––––––––––––––-
1 | 0:00.00 | 3:53.69 | 0 | 17543
2 | 3:53.69 | 4:49.09 | 17544 | 39227
3 | 8:43.03 | 4:03.74 | 39228 | 57526
4 | 12:47.02 | 4:24.64 | 57527 | 77390
5 | 17:11.66 | 3:54.73 | 77391 | 95013
6 | 21:06.64 | 4:31.30 | 95014 | 115368
7 | 25:38.19 | 4:17.11 | 115369 | 134654
8 | 29:55.30 | 6:30.74 | 134655 | 163978


Track 1

Filename D:\Temporary\NEW\WCD\Automatic Man - Visitors (1977)\01. Give It To Me.wav

Pre-gap length 0:00:02.00

Peak level 82.7 %
Extraction speed 1.7 X
Track quality 100.0 %
Test CRC 78F1C4A9
Copy CRC 78F1C4A9
Accurately ripped (confidence 2) [B63B71BF] (AR v1)
Copy OK

Track 2

Filename D:\Temporary\NEW\WCD\Automatic Man - Visitors (1977)\02. Live Wire.wav

Peak level 100.0 %
Extraction speed 1.9 X
Track quality 100.0 %
Test CRC D2CFD3FE
Copy CRC D2CFD3FE
Accurately ripped (confidence 2) [1D665773] (AR v1)
Copy OK

Track 3

Filename D:\Temporary\NEW\WCD\Automatic Man - Visitors (1977)\03. So You Wanna Be.wav

Peak level 87.1 %
Extraction speed 1.8 X
Track quality 99.9 %
Test CRC 33C5303B
Copy CRC 33C5303B
Accurately ripped (confidence 2) [8BBDF3DB] (AR v1)
Copy OK

Track 4

Filename D:\Temporary\NEW\WCD\Automatic Man - Visitors (1977)\04. Y-2-Me.wav

Peak level 84.3 %
Extraction speed 2.3 X
Track quality 100.0 %
Test CRC 68FA7F1C
Copy CRC 68FA7F1C
Accurately ripped (confidence 2) [4E598A3C] (AR v1)
Copy OK

Track 5

Filename D:\Temporary\NEW\WCD\Automatic Man - Visitors (1977)\05. Visitors.wav

Peak level 94.4 %
Extraction speed 2.4 X
Track quality 100.0 %
Test CRC C649A2F1
Copy CRC C649A2F1
Accurately ripped (confidence 2) [9D01E222] (AR v1)
Copy OK

Track 6

Filename D:\Temporary\NEW\WCD\Automatic Man - Visitors (1977)\06. Here I Am Now.wav

Peak level 75.0 %
Extraction speed 2.6 X
Track quality 100.0 %
Test CRC 4811C1AC
Copy CRC 4811C1AC
Accurately ripped (confidence 2) [0C50D85C] (AR v1)
Copy OK

Track 7

Filename D:\Temporary\NEW\WCD\Automatic Man - Visitors (1977)\07. Daughter Of Neptune.wav

Peak level 90.5 %
Extraction speed 2.7 X
Track quality 100.0 %
Test CRC 40DE7C56
Copy CRC 40DE7C56
Accurately ripped (confidence 2) [95138046] (AR v1)
Copy OK

Track 8

Filename D:\Temporary\NEW\WCD\Automatic Man - Visitors (1977)\08. What's Done.wav

Peak level 97.5 %
Extraction speed 3.0 X
Track quality 100.0 %
Test CRC 98A8F010
Copy CRC 98A8F010
Accurately ripped (confidence 2) [B6104E63] (AR v1)
Copy OK


All tracks accurately ripped

No errors occurred

End of status report

–– CUETools DB Plugin V2.1.3

[CTDB TOCID: axhVKELG8blBK6CkqruGUpnWkzk-] disk not present in database, Submit result: axhVKELG8blBK6CkqruGUpnWkzk- has been uploaded


==== Log checksum FE3BA93491241D346DE6AF1CBA0BA6E0636361F56D7C369C7F3A11660FCC1A27 ====

[CUETools log; Date: 27.02.2022 20:53:39; Version: 2.1.4]
[CTDB TOCID: axhVKELG8blBK6CkqruGUpnWkzk-] found.
Track | CTDB Status
1 | (3/3) Accurately ripped
2 | (3/3) Accurately ripped
3 | (3/3) Accurately ripped
4 | (3/3) Accurately ripped
5 | (3/3) Accurately ripped
6 | (3/3) Accurately ripped
7 | (3/3) Accurately ripped
8 | (3/3) Accurately ripped
[AccurateRip ID: 000ab123-0047b98a-68088a08] found.
Track [ CRC | V2 ] Status
01 [b63b71bf|818d782e] (2+0/4) Accurately ripped
02 [1d665773|18af7e3b] (2+0/4) Accurately ripped
03 [8bbdf3db|68b6b257] (2+0/4) Accurately ripped
04 [4e598a3c|c888eb6f] (2+0/4) Accurately ripped
05 [9d01e222|ebf5536d] (2+0/4) Accurately ripped
06 [0c50d85c|7805a284] (2+0/4) Accurately ripped
07 [95138046|f6ebb4ef] (2+0/4) Accurately ripped
08 [b6104e63|c580214f] (2+0/4) Accurately ripped
Offsetted by -18:
01 [83219bdf] (0/4) No match (V2 was not tested)
02 [72349cd7] (0/4) No match (V2 was not tested)
03 [0972143b] (0/4) No match (V2 was not tested)
04 [e5f0f61d] (0/4) No match (V2 was not tested)
05 [32a4f8bc] (0/4) No match (V2 was not tested)
06 [23efff81] (0/4) No match (V2 was not tested)
07 [aa4dacfa] (0/4) No match (V2 was not tested)
08 [4f3f5b9f] (0/4) No match (V2 was not tested)

Track Peak [ CRC32 ] [W/O NULL] [ LOG ]
– 100,0 [8754AB8F] [21C0BCED]
01 82,7 [78F1C4A9] [044D9EEB] CRC32
02 100,0 [D2CFD3FE] [29C71A45] CRC32
03 87,1 [33C5303B] [07F9CCD5] CRC32
04 84,3 [68FA7F1C] [72711470] CRC32
05 94,4 [C649A2F1] [E9D6F3C7] CRC32
06 75,0 [4811C1AC] [193D9CE9] CRC32
07 90,5 [40DE7C56] [B0A01295] CRC32
08 97,5 [98A8F010] [412F14ED] CRC32

Thanks to BlackBetty