Tags
Language
Tags
February 2024
Su Mo Tu We Th Fr Sa
28 29 30 31 1 2 3
4 5 6 7 8 9 10
11 12 13 14 15 16 17
18 19 20 21 22 23 24
25 26 27 28 29 1 2
Attention❗ To save your time, in order to download anything on this site, you must be registered 👉 HERE. If you do not have a registration yet, it is better to do it right away. ✌

( • )( • ) ( ͡⚆ ͜ʖ ͡⚆ ) (‿ˠ‿)
SpicyMags.xyz

Average White Band - Warmer Communications (1978) [Japanese Edition 2019]

Posted By: gribovar
Average White Band - Warmer Communications (1978) [Japanese Edition 2019]

Average White Band - Warmer Communications (1978) [Japanese Edition 2019]
EAC Rip | FLAC (tracks+.cue+log) - 347 MB | MP3 CBR 320 kbps (LAME 3.93) - 111 MB | Covers - 38 MB
Genre: Funk, Soul | RAR 3% Rec. | Label: Solid Records (CDSOL-5187)

Like Earth, Wind & Fire and the Ohio Players, the Average White Band demonstrated that even the mightiest of funk bands can experience a creative and commercial decline. 1978's Warmer Communications was the last AWB album that went gold; by the time they came out with 1979's uneven Feel No Fret, AWB's popularity had decreased. That isn't to say that nothing they recorded after the '70s has merit; 1997's Soul Tattoo found AWB providing a decent and satisfying, if less than essential, CD 17 years after the '70s ended. Nonetheless, many AWB fans agree that Warmer Communications was the Scottish band's last truly excellent album. This 1978 LP didn't have a blockbuster single like "Cut the Cake" or "Pick Up the Pieces"; the funky single "Your Love Is a Miracle" only made it to number 33 on Billboard's R&B singles chart. But Warmer Communications (which Arif Mardin produced) didn't need a major single to sell at least half a million copies in the United States, where fans were willing the buy the record regardless of how much radio airplay it received. In fact, fans found that they could easily play this album from start to finish without ever feeling disappointed - and you can't say that about Feel No Fret, AWB's next album. Warmer Communications gets off to an impressive start with "Your Love Is a Miracle," and AWB keeps the creative momentum going whether they're getting funky on "Same Feeling, Different Song" and "Big City Lights" or chilling out on slow jams that include "One Look Over My Shoulder (Is This Really Goodbye?)," the ethereal "She's a Dream," and a memorable cover of James Taylor's "Daddy's All Gone." There are no dull moments on Warmer Communications, which was a welcome addition to AWB's catalog.
Tracklist:
01. Your Love Is A Miracle
02. Same Feeling, Different Song
03. Daddy's All Gone
04. Big City Lights
05. Seeds a Dream
06. Warmer Communications
07. Prize of the Dream
08. Sweet and Sour
09. One Look Over My Shoulder
10. Your Love Is A Miracle (Single Version) (Bonus Track)

Total time: 47:29

Exact Audio Copy V1.3 from 2. September 2016

Отчёт EAC об извлечении, выполненном 7. сентября 2020, 22:32

Average White Band / Warmer Communications

Дисковод: ASUS DRW-24D5MT Adapter: 1 ID: 0

Режим чтения : Достоверность
Использование точного потока : Да
Отключение кэша аудио : Да
Использование указателей C2 : Нет

Коррекция смещения при чтении : 6
Способность читать области Lead-in и Lead-out : Нет
Заполнение пропущенных сэмплов тишиной : Да
Удаление блоков с тишиной в начале и конце : Нет
При вычислениях CRC использовались нулевые сэмплы : Да
Интерфейс : Встроенный Win32-интерфейс для Win NT/2000
Обработка зазоров : Добавлено к предыдущему треку

Выходной формат : Пользовательский кодировщик
Выбранный битрейт : 128 kBit/s
Качество : Высокий
Добавление ID3-тега : Нет
Утилита сжатия : C:\Program Files\flac-1.3.2-git-20170314-x64-icl\flac.exe
Дополнительные параметры : -8 -V -T "ARTIST=%artist%" -T "TITLE=%title%" -T "ALBUM=%albumtitle%" -T "DATE=%year%" -T "TRACKNUMBER=%tracknr%" -T "GENRE=%genre%" -T "COMMENT=EAC FLAC -8" %source%


TOC извлечённого CD

Трек | Старт | Длительность | Начальный сектор | Конечный сектор
––––––––––––––––––––––––––––––––––-
1 | 0:00.00 | 6:07.53 | 0 | 27577
2 | 6:07.53 | 5:18.62 | 27578 | 51489
3 | 11:26.40 | 4:38.67 | 51490 | 72406
4 | 16:05.32 | 4:55.53 | 72407 | 94584
5 | 21:01.10 | 5:36.30 | 94585 | 119814
6 | 26:37.40 | 4:12.16 | 119815 | 138730
7 | 30:49.56 | 4:02.72 | 138731 | 156952
8 | 34:52.53 | 4:49.40 | 156953 | 178667
9 | 39:42.18 | 4:00.53 | 178668 | 196720
10 | 43:42.71 | 3:46.01 | 196721 | 213671


Трек 1

Имя файла D:\FLAC EAC\01 Your Love Is A Miracle.wav

Длина предзазора 0:00:02.00

Пиковый уровень 97.8 %
Скорость извлечения 4.8 X
Качество трека 100.0 %
CRC теста DD3BDD01
CRC копии DD3BDD01
Трек не обнаружен в базе AccurateRip
Копирование… OK

Трек 2

Имя файла D:\FLAC EAC\02 Same Feeling, Different Song.wav

Пиковый уровень 97.8 %
Скорость извлечения 5.4 X
Качество трека 100.0 %
CRC теста 994AD8FE
CRC копии 994AD8FE
Трек не обнаружен в базе AccurateRip
Копирование… OK

Трек 3

Имя файла D:\FLAC EAC\03 Daddy's All Gone.wav

Пиковый уровень 97.8 %
Скорость извлечения 5.2 X
Качество трека 99.9 %
CRC теста C8759387
CRC копии C8759387
Трек не обнаружен в базе AccurateRip
Копирование… OK

Трек 4

Имя файла D:\FLAC EAC\04 Big City Lights.wav

Пиковый уровень 97.8 %
Скорость извлечения 6.2 X
Качество трека 100.0 %
CRC теста A27CD410
CRC копии A27CD410
Трек не обнаружен в базе AccurateRip
Копирование… OK

Трек 5

Имя файла D:\FLAC EAC\05 Seeds a Dream.wav

Пиковый уровень 97.8 %
Скорость извлечения 6.8 X
Качество трека 100.0 %
CRC теста 378BED24
CRC копии 378BED24
Трек не обнаружен в базе AccurateRip
Копирование… OK

Трек 6

Имя файла D:\FLAC EAC\06 Warmer Communications.wav

Пиковый уровень 97.8 %
Скорость извлечения 6.9 X
Качество трека 100.0 %
CRC теста A36E722A
CRC копии A36E722A
Трек не обнаружен в базе AccurateRip
Копирование… OK

Трек 7

Имя файла D:\FLAC EAC\07 Prize of the Dream.wav

Пиковый уровень 97.8 %
Скорость извлечения 7.2 X
Качество трека 100.0 %
CRC теста 4828C348
CRC копии 4828C348
Трек не обнаружен в базе AccurateRip
Копирование… OK

Трек 8

Имя файла D:\FLAC EAC\08 Sweet and sour.wav

Пиковый уровень 97.8 %
Скорость извлечения 7.5 X
Качество трека 100.0 %
CRC теста 91478CEF
CRC копии 91478CEF
Трек не обнаружен в базе AccurateRip
Копирование… OK

Трек 9

Имя файла D:\FLAC EAC\09 One Look Over My Shoulder (Is This Really Goodbye).wav

Пиковый уровень 97.8 %
Скорость извлечения 6.8 X
Качество трека 99.9 %
CRC теста 6CA38634
CRC копии 6CA38634
Трек не обнаружен в базе AccurateRip
Копирование… OK

Трек 10

Имя файла D:\FLAC EAC\10 Love Is A Miracle (Single Version) (Bonus Track).wav

Пиковый уровень 97.8 %
Скорость извлечения 7.8 X
Качество трека 100.0 %
CRC теста 316F074A
CRC копии 316F074A
Трек не обнаружен в базе AccurateRip
Копирование… OK


Ни одного трека нет в базе AccurateRip

Ошибок не произошло

Конец отчёта

–– CUETools DB Plugin V2.1.6

[CTDB TOCID: XIZEOjzJBaiGyCVsddvIqj4cXDM-] disk not present in database
Submit result: XIZEOjzJBaiGyCVsddvIqj4cXDM- has been uploaded


==== Контрольная сумма отчёта 67FF33DF6DE34B90FFE651D389369DDA8F0EDF4C1285B08EF9C96EA4055814ED ====

[CUETools log; Date: 10.09.2020 14:17:28; Version: 2.1.4]
[CTDB TOCID: XIZEOjzJBaiGyCVsddvIqj4cXDM-] found.
Track | CTDB Status
1 | (1/1) Accurately ripped
2 | (1/1) Accurately ripped
3 | (1/1) Accurately ripped
4 | (1/1) Accurately ripped
5 | (1/1) Accurately ripped
6 | (1/1) Accurately ripped
7 | (1/1) Accurately ripped
8 | (1/1) Accurately ripped
9 | (1/1) Accurately ripped
10 | (1/1) Accurately ripped
[AccurateRip ID: 0013153c-009632e1-a10b200a] disk not present in database.

Track Peak [ CRC32 ] [W/O NULL] [ LOG ]
– 97,8 [6807CF18] [CC01BAD9]
01 97,8 [DD3BDD01] [9A609E9B] CRC32
02 97,8 [994AD8FE] [DC2DF8BD] CRC32
03 97,8 [C8759387] [60F24ADC] CRC32
04 97,8 [A27CD410] [523E1DCD] CRC32
05 97,8 [378BED24] [E6D1602E] CRC32
06 97,8 [A36E722A] [FED5EFC7] CRC32
07 97,8 [4828C348] [EE3164F5] CRC32
08 97,8 [91478CEF] [561C9D5F] CRC32
09 97,8 [6CA38634] [76D0A096] CRC32
10 97,8 [316F074A] [39F6E742] CRC32

Thanks to oppaoppa

See also:
Average White Band - Show Your Hand (1973) [Japanese Edition 2019]
Average White Band - AWB (1974) [Japanese Edition 2020]