Tags
Language
Tags

Axe - Axe (1979) [1993, Japan]

Posted By: BlondStyle
Axe - Axe (1979) [1993, Japan]

Axe - Axe (1979) [1993, Japan]
Rock, Hard Rock, Melodic Hard Rock | EAC Rip | FLAC, Img+CUE+LOG+Scans (JPEG) | 35:40 Min | 221,02 Mb
Label: Curb Records/Brunette/Alfa Records, Inc. (Japan) | Cat.# ALCB-808 | Released: 1993-06-21 (1979)
Axe - Axe (1979) [1993, Japan]

Axe was a hard rock band from Florida, originally formed in the late '70s by former members of Babyface. The lineup had originally been Bobby Barth (guitar, lead vocals), Edgar Riley (keyboards, backing vocals), Mike Turpin (bass), and Bob Miles (drums). Later, Mike Osbourne was added as second guitarist, and Teddy Mueller replaced Miles on drums. They released three albums of polished pomp-metal, and reached the charts with their third, Offering, but Osbourne was killed in an automobile accident in 1984. After Axe disbanded, Barth joined Blackfoot before mounting Axe again late in the '80s with help from Andy Parker, formerly the drummer for UFO.
~Artist Biography by William Ruhlmann

Axe - Axe (1979) [1993, Japan]

Axe - Axe (1979) [1993, Japan]




Release of this album: 1979 [LP Curb Records/MCA Records, Cat.# MCA-3171, USA]
Release of this CD: 1993, June, 21 [CD Curb Records/Brunette/Alfa Records, Inc. (Japan), Cat.# ALCB-808, EAN: 4988024119860]
℗ 1979 © 1979 and 1993 Curb Records.
Manufactured by Alfa Records, Inc. (Tokyo, Japan)

Credits:

Art Direction – George Osaki
Bass, Vocals – Michael Turpin
Design, Illustration – Terry Larson Studio
Drums – Teddy Mueller
Engineer – Carmine Rubino
Engineer [Second] – Jim Crosby
Guitar, Vocals – Bobby Barth, Michael Osborne
Keyboards, Vocals – Edgar Riley Jr.
Management [Personal] – Jason Chapnick, Lou Mang & Assoc., Lou Manganiello
Mastered By – Bob MacLeod
Producer – Michael Lloyd


Tracklist:

01. Life's Just An Illusion (03:40)
02. Hang On (03:13)
03. Sympathize (03:29)
04. How Come I Love You (03:26)
05. Forever (03:34)
06. Back On The Streets (03:49)
07. Doin' The Best That I Can (04:27)
08. You're Out Of Line (03:51)
09. Battles (06:12)

Exact Audio Copy V1.0 beta 3 from 29. August 2011

Отчёт EAC об извлечении, выполненном 14. января 2018, 17:25

Axe / Axe [ALCB-808]

Дисковод: ASUS DRW-2014S1 Adapter: 1 ID: 0

Режим чтения : Достоверность
Использование точного потока : Да
Отключение кэша аудио : Да
Использование указателей C2 : Нет

Коррекция смещения при чтении : 6
Способность читать области Lead-in и Lead-out : Нет
Заполнение пропущенных сэмплов тишиной : Да
Удаление блоков с тишиной в начале и конце : Нет
При вычислениях CRC использовались нулевые сэмплы : Да
Интерфейс : Встроенный Win32-интерфейс для Win NT/2000

Выходной формат : Пользовательский кодировщик
Выбранный битрейт : 128 kBit/s
Качество : Высокий
Добавление ID3-тега : Нет
Утилита сжатия : C:\Program Files (x86)\Exact Audio Copy\Flac\flac.exe
Дополнительные параметры : -V -8 -T "Date=%year%" -T "Genre=%genre%" %source%


TOC извлечённого CD

Трек | Старт | Длительность | Начальный сектор | Конечный сектор
––––––––––––––––––––––––––––––––––-
1 | 0:00.00 | 3:39.47 | 0 | 16471
2 | 3:39.47 | 3:12.73 | 16472 | 30944
3 | 6:52.45 | 3:29.07 | 30945 | 46626
4 | 10:21.52 | 3:26.13 | 46627 | 62089
5 | 13:47.65 | 3:33.62 | 62090 | 78126
6 | 17:21.52 | 3:48.38 | 78127 | 95264
7 | 21:10.15 | 4:26.55 | 95265 | 115269
8 | 25:36.70 | 3:51.05 | 115270 | 132599
9 | 29:28.00 | 6:12.00 | 132600 | 160499


Характеристики диапазона извлечения и сообщения об ошибках

Выбранный диапазон

Имя файла Z:\Axe\1979 Axe\Axe - Axe [ALCB-808].wav

Пиковый уровень 100.0 %
Скорость извлечения 7.4 X
Качество диапазона 100.0 %
CRC копии 10EBAF90
Копирование… OK

Ошибок не произошло


AccurateRip: сводка

Трек 1 : извлечено точно (доверие 2) [E754B829] (AR v2)
Трек 2 : извлечено точно (доверие 2) [3C43B62D] (AR v2)
Трек 3 : извлечено точно (доверие 2) [61ACA1CF] (AR v2)
Трек 4 : извлечено точно (доверие 2) [2AA527C9] (AR v2)
Трек 5 : извлечено точно (доверие 2) [FEEFE178] (AR v2)
Трек 6 : извлечено точно (доверие 2) [2B7B4DB1] (AR v2)
Трек 7 : извлечено точно (доверие 2) [A06A384E] (AR v2)
Трек 8 : извлечено точно (доверие 2) [E1AB0330] (AR v2)
Трек 9 : извлечено точно (доверие 2) [4F7ECC8F] (AR v2)

Все треки извлечены точно

Конец отчёта

==== Контрольная сумма отчёта B61C8A44EDD4EA116714DCD8FF767CB4A253DB0B3C6C96CCD3B3D5E56013F73E ====

––––––––––––––––––––––––––––––––––––––––
Analyzed: Axe / Axe [ALCB-808]
––––––––––––––––––––––––––––––––––––––––

DR Peak RMS Duration Track
––––––––––––––––––––––––––––––––––––––––
DR12 -0.23 dB -14.59 dB 3:40 01-Life's Just An Illusion
DR12 0.00 dB -13.38 dB 3:13 02-Hang On
DR13 0.00 dB -14.02 dB 3:29 03-Sympathize
DR12 0.00 dB -13.84 dB 3:26 04-How Come I Love You
DR13 0.00 dB -16.99 dB 3:34 05-Forever
DR13 0.00 dB -15.04 dB 3:49 06-Back On The Streets
DR12 0.00 dB -14.27 dB 4:27 07-Doin' The Best I Can
DR12 0.00 dB -13.25 dB 3:51 08-You're Out Of Line
DR13 -0.06 dB -17.30 dB 6:12 09-Battles
––––––––––––––––––––––––––––––––––––––––

Number of tracks: 9
Official DR value: DR12

Samplerate: 44100 Hz
Channels: 2
Bits per sample: 16
Bitrate: 826 kbps
Codec: FLAC
================================================================================

Thanks to Cynobite

password: BlondStyle