Tags
Language
Tags

Axe - Living On The Edge (1980) [1993, Japan]

Posted By: BlondStyle
Axe - Living On The Edge (1980) [1993, Japan]

Axe - Living On The Edge (1980) [1993, Japan]
Rock, Hard Rock, Melodic Hard Rock | EAC Rip | FLAC, Img+CUE+LOG+Scans (JPEG) | 33:02 Min | 230,59 Mb
Label: Curb Records/Brunette/Alfa Records, Inc. (Japan) | Cat.# ALCB-809 | Released: 1993-06-21 (1980)
Axe - Living On The Edge (1980) [1993, Japan]

Axe was a hard rock band from Florida, originally formed in the late '70s by former members of Babyface. The lineup had originally been Bobby Barth (guitar, lead vocals), Edgar Riley (keyboards, backing vocals), Mike Turpin (bass), and Bob Miles (drums). Later, Mike Osbourne was added as second guitarist, and Teddy Mueller replaced Miles on drums. They released three albums of polished pomp-metal, and reached the charts with their third, Offering, but Osbourne was killed in an automobile accident in 1984. After Axe disbanded, Barth joined Blackfoot before mounting Axe again late in the '80s with help from Andy Parker, formerly the drummer for UFO.
~Artist Biography by William Ruhlmann

Axe - Living On The Edge (1980) [1993, Japan]

Axe - Living On The Edge (1980) [1993, Japan]




Release of this album: 1980 [LP Curb Records/MCA Records, Cat.# MCA-3224, USA]
Release of this CD: 1993, June, 21 [CD Curb Records/Brunette/Alfa Records, Inc. (Japan), Cat.# ALCB-809, EAN: 4988024119877]
℗ 1980 © 1980 and 1993 Curb Records.
Manufactured by Alfa Records, Inc. (Tokyo, Japan)

Credits:

Bass – Michael Turpin
Guitars, Vocals – Michael Osbourne
Drums, Percussion – Teddy Mueller
Keyboards, Vocals – Edgar Riley Jr.
Lead Vocals, Guitar – Bobby Barth
Producer – Tony Reale


Tracklist:

01. Living On The Edge (02:59)
02. Fantasy Of Love (03:15)
03. First Time, Last Time (03:55)
04. Carry On (03:01)
05. Running The Gauntlet (02:52)
06. I Can't Help Myself (Sugar Pie, Honey Bunch) (02:58)
07. Just Walk Away (03:03)
08. Let Me Know (03:24)
09. Save Our Love (03:15)
10. For A Little While (04:21)

Exact Audio Copy V1.0 beta 3 from 29. August 2011

Отчёт EAC об извлечении, выполненном 21. января 2017, 12:36

Axe / Living On The Edge [ALCB-809]

Дисковод: ASUS DRW-2014S1 Adapter: 1 ID: 0

Режим чтения : Достоверность
Использование точного потока : Да
Отключение кэша аудио : Да
Использование указателей C2 : Нет

Коррекция смещения при чтении : 6
Способность читать области Lead-in и Lead-out : Нет
Заполнение пропущенных сэмплов тишиной : Да
Удаление блоков с тишиной в начале и конце : Нет
При вычислениях CRC использовались нулевые сэмплы : Да
Интерфейс : Встроенный Win32-интерфейс для Win NT/2000

Выходной формат : Пользовательский кодировщик
Выбранный битрейт : 128 kBit/s
Качество : Высокий
Добавление ID3-тега : Нет
Утилита сжатия : C:\Program Files (x86)\Exact Audio Copy\Flac\flac.exe
Дополнительные параметры : -V -8 -T "Date=%year%" -T "Genre=%genre%" %source%


TOC извлечённого CD

Трек | Старт | Длительность | Начальный сектор | Конечный сектор
––––––––––––––––––––––––––––––––––-
1 | 0:00.00 | 2:58.65 | 0 | 13414
2 | 2:58.65 | 3:15.17 | 13415 | 28056
3 | 6:14.07 | 3:54.63 | 28057 | 45669
4 | 10:08.70 | 3:00.57 | 45670 | 59226
5 | 13:09.52 | 2:51.43 | 59227 | 72094
6 | 16:01.20 | 2:58.07 | 72095 | 85451
7 | 18:59.27 | 3:03.05 | 85452 | 99181
8 | 22:02.32 | 3:23.68 | 99182 | 114474
9 | 25:26.25 | 3:14.42 | 114475 | 129066
10 | 28:40.67 | 4:21.08 | 129067 | 148649


Характеристики диапазона извлечения и сообщения об ошибках

Выбранный диапазон

Имя файла Z:\Axe\1980 Living On The Edge\Axe - Living On The Edge [ALCB-809].wav

Пиковый уровень 92.6 %
Скорость извлечения 6.9 X
Качество диапазона 100.0 %
CRC копии 19742A5A
Копирование… OK

Ошибок не произошло


AccurateRip: сводка

Трек 1 : извлечено точно (доверие 2) [CF6CC50C] (AR v2)
Трек 2 : извлечено точно (доверие 2) [76EA50E6] (AR v2)
Трек 3 : извлечено точно (доверие 2) [9C7049B0] (AR v2)
Трек 4 : извлечено точно (доверие 2) [B9C59F9A] (AR v2)
Трек 5 : извлечено точно (доверие 2) [0C83C116] (AR v2)
Трек 6 : извлечено точно (доверие 2) [87D81F6E] (AR v2)
Трек 7 : извлечено точно (доверие 2) [6010EAE2] (AR v2)
Трек 8 : извлечено точно (доверие 2) [BC35DF36] (AR v2)
Трек 9 : извлечено точно (доверие 2) [CEDBE29C] (AR v2)
Трек 10 : извлечено точно (доверие 2) [5B8313EF] (AR v2)

Все треки извлечены точно

Конец отчёта

==== Контрольная сумма отчёта 976B53E6A9ED28E3C12D6B013BF78847617B3B1A12421EED5DC2A91EDADC521C ====

––––––––––––––––––––––––––––––––––––––––
Analyzed: Axe / Living On The Edge [ALCB-809]
––––––––––––––––––––––––––––––––––––––––

DR Peak RMS Duration Track
––––––––––––––––––––––––––––––––––––––––
DR11 -0.66 dB -14.32 dB 2:59 01-Living On The Edge
DR11 -0.95 dB -14.44 dB 3:15 02-Fantasy Of Love
DR11 -0.95 dB -14.91 dB 3:55 03-First Time, Last Time
DR11 -1.07 dB -14.65 dB 3:01 04-Carry On
DR10 -1.13 dB -13.64 dB 2:52 05-Running The Gauntlet
DR11 -1.20 dB -14.40 dB 2:58 06-I Can't Help Myslef (Sugar Pie, Honey Bunch)
DR10 -1.17 dB -14.58 dB 3:03 07-Just Walk Away
DR10 -1.07 dB -12.69 dB 3:24 08-Let Me Know
DR11 -0.95 dB -14.32 dB 3:15 09-Save Our Love
DR11 -0.95 dB -13.65 dB 4:21 10-For A Little While
––––––––––––––––––––––––––––––––––––––––

Number of tracks: 10
Official DR value: DR11

Samplerate: 44100 Hz
Channels: 2
Bits per sample: 16
Bitrate: 923 kbps
Codec: FLAC
================================================================================

Thanks to Cynobite

password: BlondStyle