Tags
Language
Tags
February 2024
Su Mo Tu We Th Fr Sa
28 29 30 31 1 2 3
4 5 6 7 8 9 10
11 12 13 14 15 16 17
18 19 20 21 22 23 24
25 26 27 28 29 1 2
Attention❗ To save your time, in order to download anything on this site, you must be registered 👉 HERE. If you do not have a registration yet, it is better to do it right away. ✌

( • )( • ) ( ͡⚆ ͜ʖ ͡⚆ ) (‿ˠ‿)
SpicyMags.xyz

Bad Touch - Kiss The Sky (2020)

Posted By: popsakov
Bad Touch - Kiss The Sky (2020)

Bad Touch - Kiss The Sky (2020)
EAC Rip | FLAC (Img) + Cue + Log ~ 336 Mb | MP3 CBR320 ~ 118 Mb
Full Scans | 00:46:24 | RAR 5% Recovery
Classic Rock, Hard Rock | Marshall Records #R910033 | Unofficial Release

New Wave of Classic Rock favourites Bad Touch return with their fourth album 'Kiss the Sky' and their infectious blend of rock, country and blues. Recorded at the legendary Rockfield Studios with Nick Brine (The Darkness, Thunder, Ash), 'Kiss the Sky' is released on Marshall Records on CD, Digital and White vinyl. Bad Touch is an Hard Rock band from Dereham, Norfolk U.K originally formed in 2010 when the band members were still in college. They won "Best Live Band 2012" at the Exposure Music Awards and were the "Marshall Ultimate Band" Winners in 2013.

Bad Touch formed in 2009 in Norfolk while still at college. Comprising Stevie Westwood (vocals), Rob Glendinning (guitar), Daniel "Seeks" Seekings (guitar/vocals), Michael Bailey (bass), and George Drewry (drums/vocals), the band put out their first EP Born to Please in 2012. Later that year they won the Exposure Music Award for their live show; an early indicator of the band's commitment to gigging. In 2013 they toured with the Quireboys and won the Marshall Ultimate Band Contest before making their debut at Download Festival in 2014. Just a year later their debut record, Half Way Home, appeared and they hit the road throughout the U.K. in support of the album. They wasted little time in creating a follow-up, and their sophomore effort, Truth Be Told, was released in 2016. Over the next couple of years, the band began work on their third full-length and signed with Marshall Records. Released in 2018, Shake a Leg was produced, engineered, and mixed by Andy Hodgson.

***************

Track List:

01. Come A Little Closer [3:09]
02. I Get High [3:20]
03. Let Go [4:13]
04. Strut [4:04]
05. I've Got The Music In Me [3:40]
06. Can You Save Me [3:37]
07. Kiss The Sky [3:11]
08. See You Again [4:13]
09. Before I Die [2:29]
10. Read All About It [3:35]
11. Too Much Of A Good Thing [2:49]
12. Sun And The Moon [4:04]
13. Something About Your Kiss [4:05]

Exact Audio Copy V1.5 from 20. February 2020

EAC extraction logfile from 2. August 2020, 14:45

Bad Touch / Kiss The Sky (R910033)

Used drive : TSSTcorpDVDWBD SH-B123L Adapter: 1 ID: 1

Read mode : Secure
Utilize accurate stream : Yes
Defeat audio cache : Yes
Make use of C2 pointers : No

Read offset correction : 6
Overread into Lead-In and Lead-Out : No
Fill up missing offset samples with silence : Yes
Delete leading and trailing silent blocks : No
Null samples used in CRC calculations : Yes
Used interface : Native Win32 interface for Win NT & 2000

Used output format : User Defined Encoder
Selected bitrate : 896 kBit/s
Quality : High
Add ID3 tag : No
Command line compressor : C:\Program Files (x86)\Exact Audio Copy\FLAC\FLAC.EXE
Additional command line options : -6 -V -T "ARTIST=%artist%" -T "TITLE=%title%" -T "ALBUM=%albumtitle%" -T "DATE=%year%" -T "TRACKNUMBER=%tracknr%" -T "GENRE=%genre%" -T "COMMENT=%comment%" -T "BAND=%albuminterpret%" -T "ALBUMARTIST=%albuminterpret%" -T "COMPOSER=%composer%" %haslyrics%–tag-from-file=LYRICS="%lyricsfile%"%haslyrics% -T "DISCNUMBER=%cdnumber%" -T "TOTALDISCS=%totalcds%" -T "TOTALTRACKS=%numtracks%" %hascover%–picture="%coverfile%"%hascover% %source% -o %dest%


TOC of the extracted CD

Track | Start | Length | Start sector | End sector
––––––––––––––––––––––––––––-
1 | 0:00.00 | 3:08.31 | 0 | 14130
2 | 3:08.31 | 3:19.12 | 14131 | 29067
3 | 6:27.43 | 4:12.11 | 29068 | 47978
4 | 10:39.54 | 4:03.55 | 47979 | 66258
5 | 14:43.34 | 3:39.42 | 66259 | 82725
6 | 18:23.01 | 3:36.32 | 82726 | 98957
7 | 21:59.33 | 3:10.73 | 98958 | 113280
8 | 25:10.31 | 4:12.56 | 113281 | 132236
9 | 29:23.12 | 2:28.32 | 132237 | 143368
10 | 31:51.44 | 3:34.74 | 143369 | 159492
11 | 35:26.43 | 2:48.08 | 159493 | 172100
12 | 38:14.51 | 4:03.47 | 172101 | 190372
13 | 42:18.23 | 4:05.00 | 190373 | 208747


Range status and errors

Selected range

Filename E:\MUSIC\Bad Touch - Kiss The Sky (R910033).wav

Peak level 99.9 %
Extraction speed 3.5 X
Range quality 100.0 %
Test CRC C2E365B6
Copy CRC C2E365B6
Copy OK

No errors occurred


AccurateRip summary

Track 1 not present in database
Track 2 not present in database
Track 3 not present in database
Track 4 not present in database
Track 5 not present in database
Track 6 not present in database
Track 7 not present in database
Track 8 not present in database
Track 9 not present in database
Track 10 not present in database
Track 11 not present in database
Track 12 not present in database
Track 13 not present in database

None of the tracks are present in the AccurateRip database

End of status report

–– CUETools DB Plugin V2.1.6

[CTDB TOCID: YTZAIwmZvOOLwmvNokcxT30nFM8-] disk not present in database
Submit result: YTZAIwmZvOOLwmvNokcxT30nFM8- has been uploaded


==== Log checksum 760DE6667F669B0B8B419CF9F5C94626ECFB216E77D1411EA032957A403E2EC6 ====

All thanks go to HaRD

>>> My Blog <<<

DOWNLOAD: