Subcategories

Badfinger - Shine On (1989) [Compilation]

Posted By: Andi_Deris
Badfinger - Shine On (1989) [Compilation]

Badfinger - Shine On (1989) [Compilation]
EAC Rip | FLAC: Image+Cue+Log | 274 Mb | MP3 CBR 320 kbps | 113 Mb | Scans | Time: 44:20
Genre: Classic Rock, Power Pop | Label: Edsel Records | Cat.: ED CD 302

This is a 12-track British compilation of Badfinger's two Warner Bros. albums, containing eight songs from Badfinger and four from Wish You Were Here, both originally released in 1974. None of the band's classic tracks are to be found here, but this set demonstrates that even in decline Badfinger could make some enjoyable music.

Badfinger - Shine On (1989) [Compilation]




Badfinger - Shine On (1989) [Compilation]


Track Listing

01. I Miss You (2:37)
02. Shine On (2:52)
03. Love Is Easy (3:09)
04. Song For A Lost Friend (2:53)
05. Why Don't We Talk (3:48)
06. Island (3:42)
07. Lonely You (3:47)
08. Andy Norris (3:01)
09. In The Meantime, Some Other Time (6:49)
10. Just A Chance (3:03)
11. Know One Knows (3:17)
12. Dennis (5:21)

Produced by Chris Thomas

The Band

• Pete Ham - guitar, piano, vocals
• Tom Evans - bass, vocals
• Joey Molland - guitar, vocals
• Mike Gibbins - drums

Notes

Compiled by Tom Brennan
Tracks 1-8 are taken from the LP Badfinger (Warner Bros K56023)
Tracks 9-12 are taken from the LP Wish You Were Here (Warner Bros K56076)

Exact Audio Copy V1.0 beta 3 from 29. August 2011

EAC extraction logfile from 3. October 2014, 15:46

Badfinger / Shine On

Used drive : ASUS SDRW-08D1S-U Adapter: 1 ID: 0

Read mode : Secure
Utilize accurate stream : Yes
Defeat audio cache : Yes
Make use of C2 pointers : No

Read offset correction : 667
Overread into Lead-In and Lead-Out : No
Fill up missing offset samples with silence : Yes
Delete leading and trailing silent blocks : No
Null samples used in CRC calculations : Yes
Used interface : Native Win32 interface for Win NT & 2000

Used output format : User Defined Encoder
Selected bitrate : 128 kBit/s
Quality : High
Add ID3 tag : No
Command line compressor : C:\Program Files (x86)\Exact Audio Copy\Flac\flac.exe
Additional command line options : -V -8 -T "Date=%year%" -T "Genre=%genre%" %source%


TOC of the extracted CD

Track | Start | Length | Start sector | End sector
––––––––––––––––––––––––––––-
1 | 0:00.32 | 2:36.73 | 32 | 11804
2 | 2:37.30 | 2:52.00 | 11805 | 24704
3 | 5:29.30 | 3:08.50 | 24705 | 38854
4 | 8:38.05 | 2:52.67 | 38855 | 51821
5 | 11:30.72 | 3:48.18 | 51822 | 68939
6 | 15:19.15 | 3:42.30 | 68940 | 85619
7 | 19:01.45 | 3:46.42 | 85620 | 102611
8 | 22:48.12 | 3:00.65 | 102612 | 116176
9 | 25:49.02 | 6:48.50 | 116177 | 146826
10 | 32:37.52 | 3:03.03 | 146827 | 160554
11 | 35:40.55 | 3:17.25 | 160555 | 175354
12 | 38:58.05 | 5:21.27 | 175355 | 199456


Range status and errors

Selected range

Filename C:\Users\Олег\Desktop\Badfinger - Shine On\Badfinger - Shine On.wav

Peak level 100.0 %
Extraction speed 3.8 X
Range quality 100.0 %
Test CRC 539EC527
Copy CRC 539EC527
Copy OK

No errors occurred


AccurateRip summary

Track 1 accurately ripped (confidence 4) [0BA9B1CF] (AR v2)
Track 2 accurately ripped (confidence 4) [1E373901] (AR v2)
Track 3 accurately ripped (confidence 4) [0010144E] (AR v2)
Track 4 accurately ripped (confidence 4) [577CA061] (AR v2)
Track 5 accurately ripped (confidence 4) [384332A6] (AR v2)
Track 6 accurately ripped (confidence 4) [D9C5CEB3] (AR v2)
Track 7 accurately ripped (confidence 4) [9EB7DF1E] (AR v2)
Track 8 accurately ripped (confidence 4) [48F51C97] (AR v2)
Track 9 accurately ripped (confidence 4) [9468DCCA] (AR v2)
Track 10 accurately ripped (confidence 4) [1922F288] (AR v2)
Track 11 accurately ripped (confidence 4) [4A18DB18] (AR v2)
Track 12 accurately ripped (confidence 4) [AFA11A39] (AR v2)

All tracks accurately ripped

End of status report

==== Log checksum 05C5316C77FAB73641CE9070F257856FAE9C05B20071C53CB686791718990ABB ====


Many thanks to the original uploader: Alex Fal

––––––––––
Nitroflare