Subcategories

Baltimoore - Freak (1990)

Posted By: BlondStyle
Baltimoore - Freak (1990)

Baltimoore - Freak (1990)
Rock, Melodic Hard Rock | EAC Rip | FLAC, Img+CUE+LOG+Scans-600dpi (JPEG) | 39:09 Min | 273,59 Mb
Label: SPV Records (Germany) | Released: 1992 (1990)
Baltimoore - Freak (1990)

Baltimoore is a Swedish rock band, led by Swedish singer Björn Lodin. Lodin was originally approached by Elektra Records in 1987 to record a solo album, but Lodin opted to use the moniker Baltimoore rather than his own name. In 1992, Lodin relocated to Åland, Finland, where he met Bulgarian-born guitarist Nikolo Kotzev. They joined forces for two Baltimoore albums, Double Density and Thought for Food. Due to personal and musical differences, Kotzev left the band in 1994 to start his own project, Brazen Abbot. Baltimoore was then on hiatus until 2000, when Lodin resurfaced with Original Sin. He would move back to Sweden the same year. In 2006, the band ended its relationship with Finnish record label Lion Music to start up their own label, BLP Music, on which their two latest albums, Kaleidoscope and X (both 2006), are released. Lodin then contributes to an album "Chameleon" released by Balls before beginning work on a new Baltimoore album entitled Quick Fix in late 2008 set for release in the second quarter of 2009.
~Wikipedia


Baltimoore - Freak (1990)

Baltimoore - Freak (1990)


Release of this album: 1990 [LP V.I.P. Records & Tapes, Cat.# VLP 5007, Sweden]
Release of this CD: 1992 [CD SPV Records (Germany), Cat.# SPV 084-88872 / UPC: 400617888728]
℗© 1990 V.I.P. Records & Tapes, Sweden
© 1992 SPV Records. a Division of SPV GmbH
Distributed by SPV GmbH
Made in Germany


Credits:
Backing Vocals – Jenny Wikström (tracks: 10), Mikael Andersson (tracks: 1-5, 6-9), Rolf Alex (tracks: 10)
Bass – Jenny Wikström
Drums, Percussion – Rolf Alex
Executive Producer – Björn Lodin, Ulf Wahlberg
Guitar, Mandolin – Stefan Bergström
Harmonica – Jalle Lorensson (tracks: 7)
Keyboards – Mats Olausson
Lead Vocals – Björn Lodin
Photography – Patrik Andersson
Producer – Rolf Alex
Recorded By, Mixed By – Niklas Flyckt
Saxophone – Anders Gustavsson (tracks: 1)
Strings – Ulf Wahlberg (tracks: 9)
Violin – Mats Glenngård (tracks: 3)


Tracklist:

01. Memories Calling (04:44)
02. Kahlua Confusion (03:37)
03. Dying Alone (03:30)
04. Don't Stop Running (04:32)
05. Without You (03:12)
06. Straight Line (02:58)
07. Day To Come (04:06)
08. What It Is (03:22)
09. Fly So Gently (04:15)
10. Oh Darling (04:53)

Exact Audio Copy V1.1 from 23. June 2015

Отчёт EAC об извлечении, выполненном 3. февраля 2016, 19:50

Baltimoore / Freak

Дисковод: PLEXTOR BD-R PX-B950SA Adapter: 1 ID: 0

Режим чтения : Достоверность
Использование точного потока : Да
Отключение кэша аудио : Да
Использование указателей C2 : Нет

Коррекция смещения при чтении : 6
Способность читать области Lead-in и Lead-out : Нет
Заполнение пропущенных сэмплов тишиной : Да
Удаление блоков с тишиной в начале и конце : Нет
При вычислениях CRC использовались нулевые сэмплы : Да
Интерфейс : Встроенный Win32-интерфейс для Win NT/2000

Выходной формат : Пользовательский кодировщик
Выбранный битрейт : 1024 kBit/s
Качество : Высокий
Добавление ID3-тега : Нет
Утилита сжатия : C:\Program Files (x86)\Exact Audio Copy\FLAC\FLAC.EXE
Дополнительные параметры : -6 -V -T "ARTIST=%artist%" -T "TITLE=%title%" -T "ALBUM=%albumtitle%" -T "DATE=%year%" -T "TRACKNUMBER=%tracknr%" -T "GENRE=%genre%" -T "COMMENT=%comment%" -T "BAND=%albuminterpret%" -T "ALBUMARTIST=%albuminterpret%" -T "COMPOSER=%composer%" %haslyrics%–tag-from-file=LYRICS="%lyricsfile%"%haslyrics% -T "DISCNUMBER=%cdnumber%" -T "TOTALDISCS=%totalcds%" -T "TOTALTRACKS=%numtracks%" %hascover%–picture="%coverfile%"%hascover% %source% -o %dest%


TOC извлечённого CD

Трек | Старт | Длительность | Начальный сектор | Конечный сектор
––––––––––––––––––––––––––––––––––-
1 | 0:00.00 | 4:43.50 | 0 | 21274
2 | 4:43.50 | 3:37.10 | 21275 | 37559
3 | 8:20.60 | 3:29.50 | 37560 | 53284
4 | 11:50.35 | 4:32.13 | 53285 | 73697
5 | 16:22.48 | 3:12.05 | 73698 | 88102
6 | 19:34.53 | 2:57.42 | 88103 | 101419
7 | 22:32.20 | 4:06.20 | 101420 | 119889
8 | 26:38.40 | 3:22.25 | 119890 | 135064
9 | 30:00.65 | 4:14.68 | 135065 | 154182
10 | 34:15.58 | 4:53.37 | 154183 | 176194


Характеристики диапазона извлечения и сообщения об ошибках

Выбранный диапазон

Имя файла G:\RIP\Baltimoore 1990 FLAC by alzal\Baltimoore - Freak.wav

Пиковый уровень 98.9 %
Скорость извлечения 7.8 X
Качество диапазона 99.9 %
CRC теста DF623F78
CRC копии DF623F78
Копирование… OK

Ошибок не произошло


AccurateRip: сводка

Трек 1 : извлечено точно (доверие 3) [873D163D] (AR v1)
Трек 2 : извлечено точно (доверие 3) [8AC38EB0] (AR v1)
Трек 3 : извлечено точно (доверие 3) [54C92B7F] (AR v1)
Трек 4 : извлечено точно (доверие 3) [EAC02B8E] (AR v1)
Трек 5 : извлечено точно (доверие 3) [9EE6E778] (AR v1)
Трек 6 : извлечено точно (доверие 3) [1C0FC108] (AR v1)
Трек 7 : извлечено точно (доверие 3) [A46770B6] (AR v1)
Трек 8 : извлечено точно (доверие 3) [F66316CB] (AR v1)
Трек 9 : извлечено точно (доверие 3) [DC3525F6] (AR v1)
Трек 10 : извлечено точно (доверие 2) [4E819598] (AR v1)

Все треки извлечены точно

Конец отчёта

–– CUETools DB Plugin V2.1.6

[CTDB TOCID: ggGldu7b8y95nkGKFYTY0dri8QU-] found
Submit result: ggGldu7b8y95nkGKFYTY0dri8QU- has been confirmed
Track | CTDB Status
1 | (2/2) Accurately ripped
2 | (2/2) Accurately ripped
3 | (2/2) Accurately ripped
4 | (2/2) Accurately ripped
5 | (2/2) Accurately ripped
6 | (2/2) Accurately ripped
7 | (2/2) Accurately ripped
8 | (2/2) Accurately ripped
9 | (2/2) Accurately ripped
10 | (2/2) Accurately ripped

––––––––––––––––––––––––––––––––––––––––
Analyzed: Baltimoore / Freak
––––––––––––––––––––––––––––––––––––––––

DR Peak RMS Duration Track
––––––––––––––––––––––––––––––––––––––––
DR14 -0.20 dB -16.45 dB 4:44 01-Memories Calling
DR14 -0.21 dB -15.34 dB 3:37 02-Kahlua Confusion
DR15 -0.14 dB -16.53 dB 3:30 03-Dying Alone
DR14 -0.12 dB -16.25 dB 4:32 04-Don't Stop Running
DR15 -0.14 dB -17.78 dB 3:12 05-Without You
DR15 -0.10 dB -15.98 dB 2:58 06-Straight Line
DR17 -0.10 dB -18.89 dB 4:06 07-Day To Come
DR14 -0.16 dB -16.89 dB 3:22 08-What It Is
DR14 -0.22 dB -17.07 dB 4:15 09-Fly So Gently
DR14 -0.19 dB -15.71 dB 4:53 10-Oh Darling
––––––––––––––––––––––––––––––––––––––––

Number of tracks: 10
Official DR value: DR14

Samplerate: 44100 Hz
Channels: 2
Bits per sample: 16
Bitrate: 908 kbps
Codec: FLAC
================================================================================

All thanks to alzal

password: BlondStyle