Tags
Language
Tags

Banco - Buone Notizie (1981) [Japanese Edition 2007] (Repost)

Posted By: gribovar
Banco - Buone Notizie (1981) [Japanese Edition 2007] (Repost)

Banco - Buone Notizie (1981) [Japanese Edition 2007]
EAC Rip | FLAC (image+.cue+log) - 255 MB | MP3 CBR 320 kbps (LAME 3.93) - 91 MB | Covers - 126 MB
Genre: Pop Rock | RAR 3% Rec. | Label: Sony Music (MHCP 1317)

As the previous "Urgentissimo" this album has nothing to say: it's only a pop album: predictable short songs with predictable melodies played with a wide use of electronic instruments. It includes only one valid track ("Michele e il treno") for the fans and one pop hit ("Baciami Alfredo") for the band.

Tracklist:
01. Taxi
02. Canzone D'Amore
03. Si, Ma Si
04. Bounanotte, Sogni D'Oro
05. Baciami Alfredo
06. Michele E Il Treno
07. AmFm
08. Boune Notizie

Total time: 38:43

Exact Audio Copy V1.0 beta 3 from 29. August 2011

EAC extraction logfile from 5. January 2014, 18:53

Banco Del Mutuo Soccorso / Buone Notizie

Used drive : PLEXTOR DVDR PX-891SA Adapter: 0 ID: 2

Read mode : Secure
Utilize accurate stream : Yes
Defeat audio cache : Yes
Make use of C2 pointers : No

Read offset correction : 6
Overread into Lead-In and Lead-Out : No
Fill up missing offset samples with silence : Yes
Delete leading and trailing silent blocks : No
Null samples used in CRC calculations : Yes
Used interface : Installed external ASPI interface

Used output format : User Defined Encoder
Selected bitrate : 320 kBit/s
Quality : High
Add ID3 tag : No
Command line compressor : C:\Program Files\Exact Audio Copy 1.0\Flac\flac.exe
Additional command line options : -V -8 -T "Genre=%genre%" -T "Artist=%artist%" -T "Title=%title%" -T "Album=%albumtitle%" -T "Date=%year%" -T "Tracknumber=%tracknr%" -T "Comment=%comment%" %source%


TOC of the extracted CD

Track | Start | Length | Start sector | End sector
––––––––––––––––––––––––––––-
1 | 0:00.00 | 4:45.56 | 0 | 21430
2 | 4:45.56 | 5:12.69 | 21431 | 44899
3 | 9:58.50 | 4:40.70 | 44900 | 65969
4 | 14:39.45 | 5:13.72 | 65970 | 89516
5 | 19:53.42 | 5:24.28 | 89517 | 113844
6 | 25:17.70 | 6:03.67 | 113845 | 141136
7 | 31:21.62 | 2:39.08 | 141137 | 153069
8 | 34:00.70 | 4:42.41 | 153070 | 174260


Range status and errors

Selected range

Filename K:\Lossless Temp\Banco Del Mutuo Soccorso\Banco Del Mutuo Soccorso - Buone Notizie - 1981 (Sony Music Direct, Japan, MHCP 1317)\Banco Del Mutuo Soccorso - Buone Notizie.wav

Peak level 99.9 %
Extraction speed 6.0 X
Range quality 100.0 %
Test CRC FC383E36
Copy CRC FC383E36
Copy OK

No errors occurred


AccurateRip summary

Track 1 accurately ripped (confidence 2) [1217BAF4] (AR v2)
Track 2 accurately ripped (confidence 2) [33FAC509] (AR v2)
Track 3 accurately ripped (confidence 2) [481DAA4C] (AR v2)
Track 4 accurately ripped (confidence 2) [483E9499] (AR v2)
Track 5 accurately ripped (confidence 2) [999DF224] (AR v2)
Track 6 accurately ripped (confidence 2) [048F1119] (AR v2)
Track 7 accurately ripped (confidence 2) [8A12C75E] (AR v2)
Track 8 accurately ripped (confidence 2) [7A8C84E2] (AR v2)

All tracks accurately ripped

End of status report

==== Log checksum 3D981FC7773C1B502A428967F028802F7915F56DF08DE9208150CDE27E7903C1 ====

[CUETools log; Date: 30.12.2018 17:42:27; Version: 2.1.4]
[CTDB TOCID: Eful06SBYwY64mR0D.Cokj4YyOg-] found.
Track | CTDB Status
1 | (3/3) Accurately ripped
2 | (3/3) Accurately ripped
3 | (3/3) Accurately ripped
4 | (3/3) Accurately ripped
5 | (3/3) Accurately ripped
6 | (3/3) Accurately ripped
7 | (3/3) Accurately ripped
8 | (3/3) Accurately ripped
[AccurateRip ID: 000c4523-0051ae06-66091308] found.
Track [ CRC | V2 ] Status
01 [5235c36c|1217baf4] (3+3/6) Accurately ripped
02 [2d07e0f4|33fac509] (3+3/6) Accurately ripped
03 [07686b27|481daa4c] (3+3/6) Accurately ripped
04 [e01b8cda|483e9499] (3+3/6) Accurately ripped
05 [2e0280d3|999df224] (3+3/6) Accurately ripped
06 [dfe084d6|048f1119] (3+3/6) Accurately ripped
07 [adb06f4e|8a12c75e] (3+3/6) Accurately ripped
08 [970c7f10|7a8c84e2] (3+3/6) Accurately ripped

Track Peak [ CRC32 ] [W/O NULL] [ LOG ]
– 99,9 [FC383E36] [D4448717] CRC32
01 99,9 [7CC3188C] [26D5735D]
02 99,9 [D80E46E2] [CAD76A09]
03 99,9 [3B88B0D6] [768BD131]
04 99,9 [0DAFB4BF] [57069D68]
05 97,6 [22A410CF] [3D8D3DD3]
06 99,9 [9D58C1D4] [3B468F6E]
07 99,9 [F7B1E5B5] [2489B31E]
08 99,9 [F7F6A8D4] [652DCD83]

Thanks to Swamp Fox

See also:
Banco Del Mutuo Soccorso - Darwin! (1972) [Japanese Edition 2004]
Banco Del Mutuo Soccorso - Com...(1976) [Japanese Edition 2005]
Banco - As In Last Supper (1976) [Japanese Edition 2007]
Banco Del Mutuo Soccorso - Gar...(1976) [Japanese Edition 2005]
Banco Del Mutuo Soccorso - …E Via (1985) [Japanese Edition 2007]
Banco Del Mutuo Soccorso - Don...(1989) [Japanese Edition 2007]