Tags
Language
Tags

Barenaked Ladies - Detour de Force (2021)

Posted By: JET 1
Barenaked Ladies - Detour de Force (2021)

Barenaked Ladies - Detour de Force (2021)
XLD Rip | FLAC (Tracks) +CUE, LOG | 343 MB
Genre: Rock, Pop | Label: Raisin' Records | Catalog Number: RR8888

Barenaked Ladies return with their first new album in four years, 'Detour de Force'. The 14-track effort is the result of both pre- and post-lockdown recording sessions. The band spent five weeks at vocalist/guitarists Ed Robertson's cabin outside Toronto pre pandemic writing and recording in a makeshift studio. During pandemic lockdown, they decided they wanted to polish things up a bit. They returned to a Toronto studio when the lockdown lifted to rework the tracks resulting in 'Detour de Force'.

The Barenaked Ladies are

Ed Robertson: Guitar, Vocals
Jim Creeggan: Bass, Vocals
Kevin Hearn: Keyboards, Guitar, Vocals
Tyler Stewart: Drums, Vocals

Over the course of their remarkable career, Barenaked Ladies have sold over 15 million albums, written multiple top 20 hits (including radio staples "One Week," "Pinch Me," "If I Had $1,000,000"), garnered 2 GRAMMY nominations, won 8 JUNO Awards, had Ben & Jerry's name an ice cream after them ("If I Had 1,000,000 Flavours"), participated in the first-ever "space-to-earth musical collaboration" with astronaut Chris Hadfield, and garnered an international fan base whose members number in the millions. In 2018, the band were inducted into the Canadian Music Hall of Fame and Toronto Mayor John Tory declared October 1st "Barenaked Ladies Day."
X Lossless Decoder version 20181019 (151.1)

XLD extraction logfile from 2021-07-21 15:47:44 -0400

Barenaked Ladies / Detour De Force

Used drive : HL-DT-ST DVDRAM GP65NS60 (revision PF00)
Media type : Pressed CD

Ripper mode : XLD Secure Ripper
Disable audio cache : OK for the drive with a cache less than 1375KiB
Make use of C2 pointers : NO
Read offset correction : 6
Max retry count : 100
Gap status : Analyzed, Appended (except HTOA)

TOC of the extracted CD
Track | Start | Length | Start sector | End sector
––––––––––––––––––––––––––––-
1 | 00:00:00 | 03:07:45 | 0 | 14069
2 | 03:07:45 | 03:20:45 | 14070 | 29114
3 | 06:28:15 | 03:58:47 | 29115 | 47011
4 | 10:26:62 | 03:58:27 | 47012 | 64888
5 | 14:25:14 | 04:13:13 | 64889 | 83876
6 | 18:38:27 | 03:36:07 | 83877 | 100083
7 | 22:14:34 | 04:06:05 | 100084 | 118538
8 | 26:20:39 | 03:06:27 | 118539 | 132515
9 | 29:26:66 | 03:43:74 | 132516 | 149314
10 | 33:10:65 | 03:58:35 | 149315 | 167199
11 | 37:09:25 | 03:33:44 | 167200 | 183218
12 | 40:42:69 | 04:28:22 | 183219 | 203340
13 | 45:11:16 | 05:18:49 | 203341 | 227239
14 | 50:29:65 | 05:14:72 | 227240 | 250861

AccurateRip Summary
Disc not found in AccurateRip DB.

All Tracks
Album gain : -9.17 dB
Peak : 0.999969
Statistics
Read error : 0
Jitter error (maybe fixed) : 0
Retry sector count : 0
Damaged sector count : 0

Track 01
Filename : /Users/mydrive/Music/Barenaked Ladies - Detour De Force (2021) [FLAC]/01 Flip.flac
Pre-gap length : 00:02:00

Track gain : -10.83 dB
Peak : 0.987305
CRC32 hash (test run) : 43E59BD2
CRC32 hash : 43E59BD2
CRC32 hash (skip zero) : F19F5438
AccurateRip v1 signature : 0A6E87BD
AccurateRip v2 signature : C0590BA2
->Track not present in AccurateRip database.
Statistics
Read error : 0
Jitter error (maybe fixed) : 0
Retry sector count : 0
Damaged sector count : 0

Track 02
Filename : /Users/mydrive/Music/Barenaked Ladies - Detour De Force (2021) [FLAC]/02 Good Life.flac

Track gain : -10.67 dB
Peak : 0.999969
CRC32 hash (test run) : CAB9A4FC
CRC32 hash : CAB9A4FC
CRC32 hash (skip zero) : D988BB76
AccurateRip v1 signature : 425EA741
AccurateRip v2 signature : 86259048
->Track not present in AccurateRip database.
Statistics
Read error : 0
Jitter error (maybe fixed) : 0
Retry sector count : 0
Damaged sector count : 0

Track 03
Filename : /Users/mydrive/Music/Barenaked Ladies - Detour De Force (2021) [FLAC]/03 New Disaster.flac

Track gain : -9.94 dB
Peak : 0.983429
CRC32 hash (test run) : E3507F32
CRC32 hash : E3507F32
CRC32 hash (skip zero) : 0E340FCD
AccurateRip v1 signature : A1E83ACE
AccurateRip v2 signature : E33254F6
->Track not present in AccurateRip database.
Statistics
Read error : 0
Jitter error (maybe fixed) : 0
Retry sector count : 0
Damaged sector count : 0

Track 04
Filename : /Users/mydrive/Music/Barenaked Ladies - Detour De Force (2021) [FLAC]/04 Big Back Yard.flac

Track gain : -9.06 dB
Peak : 0.976257
CRC32 hash (test run) : F316AA25
CRC32 hash : F316AA25
CRC32 hash (skip zero) : 012FC14E
AccurateRip v1 signature : 2481AD16
AccurateRip v2 signature : 5F4236C7
->Track not present in AccurateRip database.
Statistics
Read error : 0
Jitter error (maybe fixed) : 0
Retry sector count : 0
Damaged sector count : 0

Track 05
Filename : /Users/mydrive/Music/Barenaked Ladies - Detour De Force (2021) [FLAC]/05 Live Well.flac

Track gain : -8.50 dB
Peak : 0.981567
CRC32 hash (test run) : 4A70E29B
CRC32 hash : 4A70E29B
CRC32 hash (skip zero) : 956E3656
AccurateRip v1 signature : 70E5CFD2
AccurateRip v2 signature : E0F004E7
->Track not present in AccurateRip database.
Statistics
Read error : 0
Jitter error (maybe fixed) : 0
Retry sector count : 0
Damaged sector count : 0

Track 06
Filename : /Users/mydrive/Music/Barenaked Ladies - Detour De Force (2021) [FLAC]/06 Flat Earth.flac

Track gain : -9.33 dB
Peak : 0.970581
CRC32 hash (test run) : A052D72B
CRC32 hash : A052D72B
CRC32 hash (skip zero) : C62C092E
AccurateRip v1 signature : 2F327F79
AccurateRip v2 signature : 30C35F37
->Track not present in AccurateRip database.
Statistics
Read error : 0
Jitter error (maybe fixed) : 0
Retry sector count : 0
Damaged sector count : 0

Track 07
Filename : /Users/mydrive/Music/Barenaked Ladies - Detour De Force (2021) [FLAC]/07 Here Together.flac

Track gain : -8.88 dB
Peak : 0.989380
CRC32 hash (test run) : 148045C0
CRC32 hash : 148045C0
CRC32 hash (skip zero) : 24BEFCA4
AccurateRip v1 signature : 5BB156DB
AccurateRip v2 signature : B9BFFF72
->Track not present in AccurateRip database.
Statistics
Read error : 0
Jitter error (maybe fixed) : 0
Retry sector count : 0
Damaged sector count : 0

Track 08
Filename : /Users/mydrive/Music/Barenaked Ladies - Detour De Force (2021) [FLAC]/08 Roll Out.flac

Track gain : -10.82 dB
Peak : 0.993256
CRC32 hash (test run) : CBE84D2B
CRC32 hash : CBE84D2B
CRC32 hash (skip zero) : 50F78DDD
AccurateRip v1 signature : 4D4B248E
AccurateRip v2 signature : CC352D2E
->Track not present in AccurateRip database.
Statistics
Read error : 0
Jitter error (maybe fixed) : 0
Retry sector count : 0
Damaged sector count : 0

Track 09
Filename : /Users/mydrive/Music/Barenaked Ladies - Detour De Force (2021) [FLAC]/09 Bylaw.flac

Track gain : -9.72 dB
Peak : 0.972229
CRC32 hash (test run) : A133637B
CRC32 hash : A133637B
CRC32 hash (skip zero) : 8826F526
AccurateRip v1 signature : EC30D886
AccurateRip v2 signature : 2BCB5A6D
->Track not present in AccurateRip database.
Statistics
Read error : 0
Jitter error (maybe fixed) : 0
Retry sector count : 0
Damaged sector count : 0

Track 10
Filename : /Users/mydrive/Music/Barenaked Ladies - Detour De Force (2021) [FLAC]/10 God Forbid.flac

Track gain : -6.82 dB
Peak : 0.972534
CRC32 hash (test run) : FCBCAF98
CRC32 hash : FCBCAF98
CRC32 hash (skip zero) : 6A628A5E
AccurateRip v1 signature : 5D3AFFF5
AccurateRip v2 signature : 07F1DCA1
->Track not present in AccurateRip database.
Statistics
Read error : 0
Jitter error (maybe fixed) : 0
Retry sector count : 0
Damaged sector count : 0

Track 11
Filename : /Users/mydrive/Music/Barenaked Ladies - Detour De Force (2021) [FLAC]/11 Paul Chambers.flac

Track gain : -8.28 dB
Peak : 0.968140
CRC32 hash (test run) : 24CFEA16
CRC32 hash : 24CFEA16
CRC32 hash (skip zero) : 224FAD64
AccurateRip v1 signature : CAF38695
AccurateRip v2 signature : 2C03702B
->Track not present in AccurateRip database.
Statistics
Read error : 0
Jitter error (maybe fixed) : 0
Retry sector count : 0
Damaged sector count : 0

Track 12
Filename : /Users/mydrive/Music/Barenaked Ladies - Detour De Force (2021) [FLAC]/12 The National Park.flac

Track gain : -9.03 dB
Peak : 0.968933
CRC32 hash (test run) : BBF886D3
CRC32 hash : BBF886D3
CRC32 hash (skip zero) : 8F2EC429
AccurateRip v1 signature : C7347CAC
AccurateRip v2 signature : 774FD98C
->Track not present in AccurateRip database.
Statistics
Read error : 0
Jitter error (maybe fixed) : 0
Retry sector count : 0
Damaged sector count : 0

Track 13
Filename : /Users/mydrive/Music/Barenaked Ladies - Detour De Force (2021) [FLAC]/13 Man Made Lake.flac

Track gain : -6.27 dB
Peak : 0.965729
CRC32 hash (test run) : 24D40577
CRC32 hash : 24D40577
CRC32 hash (skip zero) : 141E8989
AccurateRip v1 signature : B556A7A7
AccurateRip v2 signature : 3E866362
->Track not present in AccurateRip database.
Statistics
Read error : 0
Jitter error (maybe fixed) : 0
Retry sector count : 0
Damaged sector count : 0

Track 14
Filename : /Users/mydrive/Music/Barenaked Ladies - Detour De Force (2021) [FLAC]/14 Internal Dynamo.flac

Track gain : -8.09 dB
Peak : 0.999969
CRC32 hash (test run) : A9982E6D
CRC32 hash : A9982E6D
CRC32 hash (skip zero) : 7B5D2510
AccurateRip v1 signature : B44B1130
AccurateRip v2 signature : CDA23A0F
->Track not present in AccurateRip database.
Statistics
Read error : 0
Jitter error (maybe fixed) : 0
Retry sector count : 0
Damaged sector count : 0

No errors occurred

End of status report

––-BEGIN XLD SIGNATURE––-
xzZE51_PmbY7ANksTcGt4bu.2pmmUMf4B0E_wTV94zsYo4ueCJIyKEUz7Mx1B.5Bb4V1y3SeGuD7a2BhFLfcPGObZ7sOttKWOf9iOEG
––-END XLD SIGNATURE––-


Tracklist ::::
01. Flip (03:07)
02. Good Life (03:21)
03. New Disaster (03:58)
04. Big Back Yard (03:58)
05. Live Well (04:13)
06. Flat Earth (03:36)
07. Here Together (04:06)
08. Roll Out (03:06)
09. Bylaw (03:43)
10. God Forbid (03:58)
11. Paul Chambers (03:33)
12. The National Park (04:28)
13. Man Made Lake (05:18)
14. Internal Dynamo (05:14)

Thanks to Original Re-leaser.