Subcategories

Bee Gees - Timeless: The All-Time Greatest Hits (2017)

Posted By: BlondStyle
Bee Gees - Timeless: The All-Time Greatest Hits (2017)

Bee Gees - Timeless: The All-Time Greatest Hits (2017)
Pop/Rock, R&B, Disco | EAC Rip | FLAC, Img+CUE+LOG+Scans (JPEG) | 78:21 Min | 576,18 Mb
Label: Capitol Records (EU) | Cat.# 00602557493597 | Released: 2017-04-21

On April 21, Capitol/UMe will release a new career-spanning collection of top hits by one of music's most legendary and acclaimed groups, the Bee Gees. The Bee Gees' Timeless: The All-Time Greatest Hits features 21 tracks personally selected by Bee Gees co-founder Barry Gibb and sequenced in chronological order. The CD and digital collection spans decades of Bee Gees smash hits, from their first Australian chart-topper, 1966's "Spicks and Specks" to "How Deep Is Your Love," "Night Fever," and "Stayin' Alive" from Saturday Night Fever to 1987's UK Number One single "You Win Again." There is a spirituality about this album and these songs always meant the most to us," says Barry Gibb in his written introduction for the Timeless: The All-Time Greatest Hits package. "Although there are many other songs, these songs, I feel, are the songs that Maurice, Robin, and I would be most proud of." The Bee Gees - brothers Barry, Robin and Maurice Gibb – have earned their stature as one of the world's most popular and bestselling groups of all time. Having recorded 22 studio albums and for numerous soundtracks, including the monumentally successful Saturday Night Fever, the Bee Gees infused popular culture with dozens of worldwide hit singles that featured their singular and highly influential three-part harmonies. They achieved nine Number Ones and 23 Top 10 singles on the Billboard Hot 100 chart, including "How Deep Is Your Love," "Night Fever," and "Stayin' Alive" from Saturday Night Fever, and hit charts around the world with many other classics, including "How Can You Mend A Broken Heart," "I Started A Joke," "Lonely Days," "Words," and "You Win Again." Among the honors bestowed upon the Bee Gees are five GRAMMY Awards®, as well as The Recording Academy's Lifetime Achievement Award and Legend Award; five American Music Awards; a Brit Award for Outstanding Contribution to Music; and a Legend Award from the World Music Awards. They have been inducted into the Rock and Roll Hall of Fame, the Songwriters Hall of Fame, BMI Icons, the Vocal Group Hall of Fame, and the Dance Music Hall of Fame. All three brothers were appointed Commanders in the Order of the British Empire in 2001.
Bee Gees - Timeless: The All-Time Greatest Hits (2017)

Bee Gees - Timeless: The All-Time Greatest Hits (2017)


Release of this CD: 2017, April, 21 [CD Capitol Records (EU), Cat.# 00602557493597 / UPC: 602557493597]
℗© 2017 Barry Gibb, The Estate of Robin Gibb and Yvonne Gibb, under exclusive licence to Capitol Music Group.
Manufactured and Distributed by Universal Music Enterprises, a division of UMG Recordings, Inc.
Made in the E.U.


Bee Gees - Timeless: The All-Time Greatest Hits (2017)


Credits:

Art Direction – Vartan
Coordinator [Photo] – Xilonen Oreshnick
Design – Meire Murakami
Design [Cover] – Todd Gallopo
Photography By – Andy Earl, Ed Caraeff, Randee St. Nicholas
Written-By – Barry, Robin And Maurice Gibb (tracks: 4 to 8, 10 to 21)


Tracklist:

01. Spicks And Specks (02:51)
02. New York Mining Disaster 1941 (02:09)
03. To Love Somebody (03:00)
04. Massachusetts (02:26)
05. Words (03:17)
06. I've Gotta Get A Message To You (03:03)
07. I Started A Joke (03:08)
08. Lonely Days (03:48)
09. How Can You Mend A Broken Heart (03:59)
10. Jive Talkin' (03:45)
11. Nights On Broadway (04:34)
12. Fanny (Be Tender With My Love) (04:04)
13. You Should Be Dancing (04:17)
14. How Deep Is Your Love (04:05)
15. Stayin' Alive (04:44)
16. Night Fever (03:32)
17. More Than A Woman (03:17)
18. Too Much Heaven (04:56)
19. Tragedy (05:02)
20. Love You Inside Out (04:11)
21. You Win Again (04:03)

Exact Audio Copy V1.3 from 2. September 2016

EAC extraction logfile from 28. June 2017, 18:58

Bee Gees / Timeless: All-Time Greatest Hits

Used drive : ATAPI iHAS122 C Adapter: 1 ID: 0

Read mode : Secure
Utilize accurate stream : Yes
Defeat audio cache : Yes
Make use of C2 pointers : No

Read offset correction : 6
Overread into Lead-In and Lead-Out : No
Fill up missing offset samples with silence : Yes
Delete leading and trailing silent blocks : No
Null samples used in CRC calculations : Yes
Used interface : Native Win32 interface for Win NT & 2000

Used output format : Internal WAV Routines
Sample format : 44.100 Hz; 16 Bit; Stereo


TOC of the extracted CD

Track | Start | Length | Start sector | End sector
––––––––––––––––––––––––––––-
1 | 0:00.00 | 2:51.31 | 0 | 12855
2 | 2:51.31 | 2:09.51 | 12856 | 22581
3 | 5:01.07 | 3:00.57 | 22582 | 36138
4 | 8:01.64 | 2:26.32 | 36139 | 47120
5 | 10:28.21 | 3:17.27 | 47121 | 61922
6 | 13:45.48 | 3:03.49 | 61923 | 75696
7 | 16:49.22 | 3:08.67 | 75697 | 89863
8 | 19:58.14 | 3:48.14 | 89864 | 106977
9 | 23:46.28 | 3:59.10 | 106978 | 124912
10 | 27:45.38 | 3:45.34 | 124913 | 141821
11 | 31:30.72 | 4:34.28 | 141822 | 162399
12 | 36:05.25 | 4:04.72 | 162400 | 180771
13 | 40:10.22 | 4:17.31 | 180772 | 200077
14 | 44:27.53 | 4:05.05 | 200078 | 218457
15 | 48:32.58 | 4:44.32 | 218458 | 239789
16 | 53:17.15 | 3:32.60 | 239790 | 255749
17 | 56:50.00 | 3:17.16 | 255750 | 270540
18 | 60:07.16 | 4:56.10 | 270541 | 292750
19 | 65:03.26 | 5:02.70 | 292751 | 315470
20 | 70:06.21 | 4:11.28 | 315471 | 334323
21 | 74:17.49 | 4:03.54 | 334324 | 352602


Range status and errors

Selected range

Filename C:\Users\London\Desktop\Bee Gees - Timeless- All-Time Greatest Hits.wav

Peak level 95.6 %
Extraction speed 9.7 X
Range quality 100.0 %
Test CRC 7B2C7A59
Copy CRC 7B2C7A59
Copy OK

No errors occurred


AccurateRip summary

Track 1 not present in database
Track 2 not present in database
Track 3 not present in database
Track 4 not present in database
Track 5 not present in database
Track 6 not present in database
Track 7 not present in database
Track 8 not present in database
Track 9 not present in database
Track 10 not present in database
Track 11 not present in database
Track 12 not present in database
Track 13 not present in database
Track 14 not present in database
Track 15 not present in database
Track 16 not present in database
Track 17 not present in database
Track 18 not present in database
Track 19 not present in database
Track 20 not present in database
Track 21 not present in database

None of the tracks are present in the AccurateRip database

End of status report

–– CUETools DB Plugin V2.1.6

[CTDB TOCID: Y6GP.vD_.jfx2LYBYBD3vA0rwW0-] found
Submit result: Y6GP.vD_.jfx2LYBYBD3vA0rwW0- has been confirmed
Track | CTDB Status
1 | (18/18) Accurately ripped
2 | (18/18) Accurately ripped
3 | (18/18) Accurately ripped
4 | (18/18) Accurately ripped
5 | (18/18) Accurately ripped
6 | (18/18) Accurately ripped
7 | (18/18) Accurately ripped
8 | (18/18) Accurately ripped
9 | (18/18) Accurately ripped
10 | (18/18) Accurately ripped
11 | (18/18) Accurately ripped
12 | (18/18) Accurately ripped
13 | (18/18) Accurately ripped
14 | (18/18) Accurately ripped
15 | (18/18) Accurately ripped
16 | (18/18) Accurately ripped
17 | (18/18) Accurately ripped
18 | (18/18) Accurately ripped
19 | (18/18) Accurately ripped
20 | (18/18) Accurately ripped
21 | (18/18) Accurately ripped


==== Log checksum 9FCFE6F05D72E9D9D057A9EB0E0D2C332BD5AFFB9C23E3BD7960A3A436A72180 ====

––––––––––––––––––––––––––––––––––––––––
Analyzed: Bee Gees / Timeless: All-Time Greatest Hits
––––––––––––––––––––––––––––––––––––––––

DR Peak RMS Duration Track
––––––––––––––––––––––––––––––––––––––––
DR9 -0.78 dB -10.86 dB 2:51 01-Spicks And Specks
DR8 -0.44 dB -11.81 dB 2:10 02-New York Mining Disaster 1941
DR6 -1.85 dB -10.76 dB 3:01 03-To Love Somebody
DR7 -0.75 dB -9.02 dB 2:26 04-Massachusetts
DR8 -0.71 dB -11.48 dB 3:17 05-Words
DR7 -0.75 dB -9.89 dB 3:04 06-I've Gotta Get A Message To You
DR7 -0.90 dB -10.60 dB 3:09 07-I Started A Joke
DR9 -1.29 dB -14.03 dB 3:48 08-Lonely Days
DR8 -0.72 dB -12.20 dB 3:59 09-How Can You Mend A Broken Heart
DR9 -0.74 dB -11.88 dB 3:45 10-Jive Talkin'
DR8 -1.01 dB -10.54 dB 4:34 11-Nights On Broadway
DR7 -0.76 dB -10.82 dB 4:05 12-Fanny (Be Tender With My Love)
DR7 -0.54 dB -9.92 dB 4:17 13-You Should Be Dancing
DR8 -0.71 dB -10.79 dB 4:05 14-How Deep Is Your Love
DR8 -0.67 dB -9.95 dB 4:44 15-Stayin' Alive
DR8 -0.54 dB -9.88 dB 3:33 16-Night Fever
DR7 -0.70 dB -9.17 dB 3:17 17-More Than A Woman
DR7 -0.51 dB -9.87 dB 4:56 18-Too Much Heaven
DR8 -0.39 dB -10.13 dB 5:03 19-Tragedy
DR8 -0.65 dB -11.10 dB 4:11 20-Love You Inside Out
DR9 -0.73 dB -10.62 dB 4:04 21-You Win Again
––––––––––––––––––––––––––––––––––––––––

Number of tracks: 21
Official DR value: DR8

Samplerate: 44100 Hz
Channels: 2
Bits per sample: 16
Bitrate: 915 kbps
Codec: FLAC
================================================================================

All thanks to London

password: BlondStyle