Tags
Language
Tags

Benny Carter - 3, 4, 5: The Verve Small Group Sessions [Recorded 1955] (1991)

Posted By: gribovar
Benny Carter - 3, 4, 5: The Verve Small Group Sessions [Recorded 1955] (1991)

Benny Carter - 3, 4, 5: The Verve Small Group Sessions [Recorded 1955] (1991)
EAC Rip | FLAC (tracks+.cue+log) - 292 MB | Covers - 20 MB
Genre: Jazz, Swing | RAR 3% Rec. | Label: Verve (849 395-2)

Has there ever been a more consistent performer in jazz history over a longer period of time than Benny Carter? The classic altoist, who had fully formed his sound by the early '30s (he first recorded in 1927), has not altered his style much in the past 65 (and counting) years. The music on this Verve reissue CD features Carter in three settings: in a trio with pianist Teddy Wilson and drummer Jo Jones (those performances were only previously out in Japan), heading a quartet with pianist Don Abney, bassist George Duvivier and drummer Louis Bellson and showcased on three previously unissued tracks with the Oscar Peterson trio plus drummer Bobby White. Carter knew most of these standards extremely well and he glides effortlessly over the chord changes, infusing the music with swing and subtle creativity.
Tracklist:
01. Little Girl Blue
02. June In January
03. Jeepers Creepers
04. Rosetta
05. The Birth Of The Blues
06. When Your Lover Has Gone
07. The Moon Is Low
08. This Love Of Mine
09. Moonglow
10. My One And Only Love
11. Our Love Is Here To Stay
12. This Can't Be Love
13. Tenderly
14. Unforgettable
15. Ruby
16. Moon Song
17. Don't You Think
18. Will You Still Be Mine
19. We'll Be Together Again

Total time: 01:16:28

Exact Audio Copy V0.99 prebeta 4 from 23. January 2008

EAC extraction logfile from 8. November 2009, 19:55

Benny Carter / 3, 4, 5 The Verve Small Group Sessions

Used drive : HL-DT-STDVD-RAM GH22NP20 Adapter: 0 ID: 1

Read mode : Secure
Utilize accurate stream : Yes
Defeat audio cache : Yes
Make use of C2 pointers : No

Read offset correction : 102
Overread into Lead-In and Lead-Out : No
Fill up missing offset samples with silence : Yes
Delete leading and trailing silent blocks : No
Null samples used in CRC calculations : Yes
Used interface : Installed external ASPI interface
Gap handling : Appended to previous track

Used output format : User Defined Encoder
Selected bitrate : 128 kBit/s
Quality : High
Add ID3 tag : No
Command line compressor : C:\Program Files\FLAC\flac.exe
Additional command line options : -8 -V -T "ARTIST=%a" -T "TITLE=%t" -T "ALBUM=%g" -T "DATE=%y" -T "TRACKNUMBER=%n" -T "TOTALTRACKS=%x" -T "GENRE=%m" -T "ALBUM ARTIST=%v" -T "ALBUMARTIST=%v" -T "COMMENT=EAC V0.99 prebeta 4, Secure Mode, Test & Copy, Accurat


TOC of the extracted CD

Track | Start | Length | Start sector | End sector
––––––––––––––––––––––––––––-
1 | 0:00.32 | 3:50.18 | 32 | 17299
2 | 3:50.50 | 4:16.40 | 17300 | 36539
3 | 8:07.15 | 3:38.72 | 36540 | 52961
4 | 11:46.12 | 5:38.53 | 52962 | 78364
5 | 17:24.65 | 4:10.40 | 78365 | 97154
6 | 21:35.30 | 4:03.20 | 97155 | 115399
7 | 25:38.50 | 4:59.35 | 115400 | 137859
8 | 30:38.10 | 3:00.70 | 137860 | 151429
9 | 33:39.05 | 2:47.00 | 151430 | 163954
10 | 36:26.05 | 3:54.50 | 163955 | 181554
11 | 40:20.55 | 3:38.17 | 181555 | 197921
12 | 43:58.72 | 3:25.70 | 197922 | 213366
13 | 47:24.67 | 3:40.33 | 213367 | 229899
14 | 51:05.25 | 3:23.70 | 229900 | 245194
15 | 54:29.20 | 4:35.35 | 245195 | 265854
16 | 59:04.55 | 4:00.62 | 265855 | 283916
17 | 63:05.42 | 4:06.35 | 283917 | 302401
18 | 67:12.02 | 5:15.65 | 302402 | 326091
19 | 72:27.67 | 4:00.15 | 326092 | 344106


Track 1

Filename D:\tests\Benny Carter - 3, 4, 5 The Verve Small Group Sessions (1991) [FLAC]\01 - Little Girl Blue.wav

Pre-gap length 0:00:02.42

Peak level 75.2 %
Track quality 100.0 %
Test CRC D19596A2
Copy CRC D19596A2
Accurately ripped (confidence 2) [4AD8AE1F]
Copy OK

Track 2

Filename D:\tests\Benny Carter - 3, 4, 5 The Verve Small Group Sessions (1991) [FLAC]\02 - June In January.wav

Pre-gap length 0:00:02.57

Peak level 67.5 %
Track quality 100.0 %
Test CRC 4DE4FC9E
Copy CRC 4DE4FC9E
Accurately ripped (confidence 3) [8F9119AB]
Copy OK

Track 3

Filename D:\tests\Benny Carter - 3, 4, 5 The Verve Small Group Sessions (1991) [FLAC]\03 - Jeepers Creepers.wav

Pre-gap length 0:00:02.57

Peak level 96.8 %
Track quality 100.0 %
Test CRC D9223AEB
Copy CRC D9223AEB
Accurately ripped (confidence 3) [B5FB75DD]
Copy OK

Track 4

Filename D:\tests\Benny Carter - 3, 4, 5 The Verve Small Group Sessions (1991) [FLAC]\04 - Rosetta.wav

Pre-gap length 0:00:02.56

Peak level 93.8 %
Track quality 99.9 %
Test CRC 8C4EE4C6
Copy CRC 8C4EE4C6
Accurately ripped (confidence 3) [1F796F91]
Copy OK

Track 5

Filename D:\tests\Benny Carter - 3, 4, 5 The Verve Small Group Sessions (1991) [FLAC]\05 - The Birth Of The Blues.wav

Pre-gap length 0:00:02.57

Peak level 66.0 %
Track quality 100.0 %
Test CRC F6944BB1
Copy CRC F6944BB1
Accurately ripped (confidence 3) [64F8D13C]
Copy OK

Track 6

Filename D:\tests\Benny Carter - 3, 4, 5 The Verve Small Group Sessions (1991) [FLAC]\06 - When Your Lover Has Gone.wav

Pre-gap length 0:00:02.57

Peak level 62.5 %
Track quality 100.0 %
Test CRC A12F332F
Copy CRC A12F332F
Accurately ripped (confidence 3) [C4AB37C9]
Copy OK

Track 7

Filename D:\tests\Benny Carter - 3, 4, 5 The Verve Small Group Sessions (1991) [FLAC]\07 - The Moon Is Low.wav

Pre-gap length 0:00:02.57

Peak level 83.6 %
Track quality 100.0 %
Test CRC 1AB58DE3
Copy CRC 1AB58DE3
Accurately ripped (confidence 3) [1CF11F5C]
Copy OK

Track 8

Filename D:\tests\Benny Carter - 3, 4, 5 The Verve Small Group Sessions (1991) [FLAC]\08 - This Love Of Mine.wav

Pre-gap length 0:00:02.57

Peak level 88.3 %
Track quality 100.0 %
Test CRC 4FD90C1E
Copy CRC 4FD90C1E
Accurately ripped (confidence 3) [9B6A459F]
Copy OK

Track 9

Filename D:\tests\Benny Carter - 3, 4, 5 The Verve Small Group Sessions (1991) [FLAC]\09 - Moonglow.wav

Pre-gap length 0:00:04.33

Peak level 96.1 %
Track quality 100.0 %
Test CRC AA02F8A9
Copy CRC AA02F8A9
Accurately ripped (confidence 3) [885C3BE2]
Copy OK

Track 10

Filename D:\tests\Benny Carter - 3, 4, 5 The Verve Small Group Sessions (1991) [FLAC]\10 - My One And Only Love.wav

Pre-gap length 0:00:02.57

Peak level 68.7 %
Track quality 100.0 %
Test CRC 0B0C201D
Copy CRC 0B0C201D
Accurately ripped (confidence 3) [962DC624]
Copy OK

Track 11

Filename D:\tests\Benny Carter - 3, 4, 5 The Verve Small Group Sessions (1991) [FLAC]\11 - Our Love Is Here To Stay.wav

Pre-gap length 0:00:02.57

Peak level 74.7 %
Track quality 100.0 %
Test CRC C6141EB0
Copy CRC C6141EB0
Accurately ripped (confidence 3) [676540D5]
Copy OK

Track 12

Filename D:\tests\Benny Carter - 3, 4, 5 The Verve Small Group Sessions (1991) [FLAC]\12 - This Can't Be Love.wav

Pre-gap length 0:00:02.56

Peak level 88.3 %
Track quality 100.0 %
Test CRC A50A7077
Copy CRC A50A7077
Accurately ripped (confidence 3) [593681B1]
Copy OK

Track 13

Filename D:\tests\Benny Carter - 3, 4, 5 The Verve Small Group Sessions (1991) [FLAC]\13 - Tenderly.wav

Pre-gap length 0:00:02.56

Peak level 82.4 %
Track quality 100.0 %
Test CRC 2F85C1DA
Copy CRC 2F85C1DA
Accurately ripped (confidence 3) [6B8DE02E]
Copy OK

Track 14

Filename D:\tests\Benny Carter - 3, 4, 5 The Verve Small Group Sessions (1991) [FLAC]\14 - Unforgettable.wav

Pre-gap length 0:00:02.57

Peak level 73.2 %
Track quality 100.0 %
Test CRC 8523797F
Copy CRC 8523797F
Accurately ripped (confidence 3) [10CB5406]
Copy OK

Track 15

Filename D:\tests\Benny Carter - 3, 4, 5 The Verve Small Group Sessions (1991) [FLAC]\15 - Ruby.wav

Pre-gap length 0:00:02.57

Peak level 79.6 %
Track quality 100.0 %
Test CRC D1744E3A
Copy CRC D1744E3A
Accurately ripped (confidence 3) [CBE72C35]
Copy OK

Track 16

Filename D:\tests\Benny Carter - 3, 4, 5 The Verve Small Group Sessions (1991) [FLAC]\16 - Moon Song.wav

Pre-gap length 0:00:02.57

Peak level 68.4 %
Track quality 100.0 %
Test CRC 33DE7553
Copy CRC 33DE7553
Accurately ripped (confidence 3) [6B8C24BB]
Copy OK

Track 17

Filename D:\tests\Benny Carter - 3, 4, 5 The Verve Small Group Sessions (1991) [FLAC]\17 - Don't You Think.wav

Pre-gap length 0:00:04.33

Peak level 60.7 %
Track quality 100.0 %
Test CRC 7D61004A
Copy CRC 7D61004A
Accurately ripped (confidence 3) [D5E0A0A2]
Copy OK

Track 18

Filename D:\tests\Benny Carter - 3, 4, 5 The Verve Small Group Sessions (1991) [FLAC]\18 - Will You Still Be Mine.wav

Pre-gap length 0:00:02.56

Peak level 76.9 %
Track quality 100.0 %
Test CRC EEA2F731
Copy CRC EEA2F731
Accurately ripped (confidence 3) [8244763A]
Copy OK

Track 19

Filename D:\tests\Benny Carter - 3, 4, 5 The Verve Small Group Sessions (1991) [FLAC]\19 - We'll Be Together Again.wav

Pre-gap length 0:00:02.56

Peak level 72.3 %
Track quality 100.0 %
Test CRC 70D23620
Copy CRC 70D23620
Accurately ripped (confidence 3) [26225D33]
Copy OK


All tracks accurately ripped

No errors occurred

End of status report

[CUETools log; Date: 18.11.2018 19:37:18; Version: 2.1.4]
Pregap length 00:00:32.
[CTDB TOCID: GTqNiuL1UUcr_UNQLB6G_ntLRyg-] found.
Track | CTDB Status
1 | (12/13) Accurately ripped
2 | (12/13) Accurately ripped
3 | (12/13) Accurately ripped
4 | (12/13) Accurately ripped
5 | (12/13) Accurately ripped
6 | (12/13) Accurately ripped
7 | (12/13) Accurately ripped
8 | (12/13) Accurately ripped
9 | (12/13) Accurately ripped
10 | (12/13) Accurately ripped
11 | (12/13) Accurately ripped
12 | (12/13) Accurately ripped
13 | (12/13) Accurately ripped
14 | (12/13) Accurately ripped
15 | (12/13) Accurately ripped
16 | (12/13) Accurately ripped
17 | (12/13) Accurately ripped
18 | (12/13) Accurately ripped
19 | (12/13) Accurately ripped
[AccurateRip ID: 0034829f-02dab5c5-0c11ec13] found.
Track [ CRC | V2 ] Status
01 [4ad8ae1f|89a19283] (03+03/12) Accurately ripped
02 [8f9119ab|a5d8d334] (04+03/13) Accurately ripped
03 [b5fb75dd|7687dcd5] (04+03/13) Accurately ripped
04 [1f796f91|9033301b] (04+03/13) Accurately ripped
05 [64f8d13c|6058e140] (04+03/13) Accurately ripped
06 [c4ab37c9|441748c5] (04+03/13) Accurately ripped
07 [1cf11f5c|4e458c23] (04+03/13) Accurately ripped
08 [9b6a459f|acc85d64] (04+03/13) Accurately ripped
09 [885c3be2|40014f2e] (04+03/13) Accurately ripped
10 [962dc624|eaa9283a] (04+03/15) Accurately ripped
11 [676540d5|d0c8920c] (04+03/13) Accurately ripped
12 [593681b1|d108cb99] (04+03/13) Accurately ripped
13 [6b8de02e|e774d28b] (04+03/13) Accurately ripped
14 [10cb5406|43e1e998] (04+03/13) Accurately ripped
15 [cbe72c35|2cb67e6e] (04+03/13) Accurately ripped
16 [6b8c24bb|e3229018] (04+03/13) Accurately ripped
17 [d5e0a0a2|d774fd7e] (04+03/13) Accurately ripped
18 [8244763a|34dadf7c] (04+03/13) Accurately ripped
19 [26225d33|f30dba97] (04+03/15) Accurately ripped
Offsetted by -1120:
01 [4d8ec31f] (02/12) Accurately ripped
02 [6511f34b] (02/13) Accurately ripped
03 [5b4363dd] (02/13) Accurately ripped
04 [adbb6b51] (02/13) Accurately ripped
05 [52edb99c] (02/13) Accurately ripped
06 [33c6db49] (02/13) Accurately ripped
07 [f214c25c] (02/13) Accurately ripped
08 [75e454df] (02/13) Accurately ripped
09 [f2b96642] (02/13) Accurately ripped
10 [8349bf64] (02/15) Accurately ripped
11 [0714f475] (02/13) Accurately ripped
12 [35c4e9f1] (02/13) Accurately ripped
13 [7211f70e] (02/13) Accurately ripped
14 [2eff0b46] (02/13) Accurately ripped
15 [5f702ff5] (02/13) Accurately ripped
16 [6240467b] (02/13) Accurately ripped
17 [5a6415c2] (02/13) Accurately ripped
18 [d74bd9ba] (02/13) Accurately ripped
19 [3ec1a289] (02/15) Accurately ripped
Offsetted by -2355:
01 [27678a47] (00/12) No match (V2 was not tested)
02 [cd112c68] (00/13) No match (V2 was not tested)
03 [ae16224d] (00/13) No match (V2 was not tested)
04 [93bd520f] (00/13) No match (V2 was not tested)
05 [25e3c78f] (00/13) No match (V2 was not tested)
06 [d64b0c25] (00/13) No match (V2 was not tested)
07 [cad1c4f4] (00/13) No match (V2 was not tested)
08 [9ff1c7f9] (00/13) No match (V2 was not tested)
09 [724b8f45] (00/13) No match (V2 was not tested)
10 [20be4ece] (02/15) Accurately ripped
11 [abbc6962] (00/13) No match (V2 was not tested)
12 [9eafa853] (00/13) No match (V2 was not tested)
13 [5caf0bb5] (00/13) No match (V2 was not tested)
14 [06037fa0] (00/13) No match (V2 was not tested)
15 [00fab2f3] (00/13) No match (V2 was not tested)
16 [9edb7969] (00/13) No match (V2 was not tested)
17 [75a7537b] (00/13) No match (V2 was not tested)
18 [050e4896] (00/13) No match (V2 was not tested)
19 [49ca3ae0] (02/15) Accurately ripped

Track Peak [ CRC32 ] [W/O NULL] [ LOG ]
– 96,8 [41A83602] [BA0B9C67]
01 75,2 [D19596A2] [92BE1D2F] CRC32
02 67,5 [4DE4FC9E] [7A33C8A8] CRC32
03 96,8 [D9223AEB] [DD30CD2A] CRC32
04 93,8 [8C4EE4C6] [BB23E418] CRC32
05 66,0 [F6944BB1] [8F06F753] CRC32
06 62,5 [A12F332F] [AC280C94] CRC32
07 83,6 [1AB58DE3] [D4C12A5B] CRC32
08 88,3 [4FD90C1E] [D27931E0] CRC32
09 96,1 [AA02F8A9] [54B0ECD3] CRC32
10 68,7 [0B0C201D] [0C94501C] CRC32
11 74,7 [C6141EB0] [50203BDE] CRC32
12 88,3 [A50A7077] [E5C6358E] CRC32
13 82,4 [2F85C1DA] [DFDF8288] CRC32
14 73,2 [8523797F] [BFE8E08F] CRC32
15 79,6 [D1744E3A] [104A4F50] CRC32
16 68,4 [33DE7553] [6C3474BF] CRC32
17 60,7 [7D61004A] [90FD0ABD] CRC32
18 76,9 [EEA2F731] [FDAB4026] CRC32
19 72,3 [70D23620] [AFCEFE05] CRC32

Thanks to nonesuitable