Tags
Language
Tags
June 2024
Su Mo Tu We Th Fr Sa
26 27 28 29 30 31 1
2 3 4 5 6 7 8
9 10 11 12 13 14 15
16 17 18 19 20 21 22
23 24 25 26 27 28 29
30 1 2 3 4 5 6

Berliner Philharmoniker, Klaus Tennstedt – Wagner: Orchestral Music (2005) (Repost)

Posted By: tirexiss
Berliner Philharmoniker, Klaus Tennstedt – Wagner: Orchestral Music (2005) (Repost)

Berliner Philharmoniker, Klaus Tennstedt – Wagner: Orchestral Music (2005)
EAC | FLAC (tracks+.cue, log) | Covers Included | 01:37:12 | 445 MB
Genre: Classical | Label: EMI Classics | Catalog: 5 86248 2

One is struck by the fact that the BPO, who must have been through all this music so often, can under a conductor who obviously inspires them, produce playing that is at once so polished and so fresh. One of the very finest Wagner orchestral collections in the catalog.
An exciting collection for those who like their Wagner without voices and recorded with self-conscious brilliance. Indeed, the sound cannot fail to make an effect when it is so clear. The cymbal clashes in the "Ride of the Valkyries" make a steely impact (although I confess I miss the whoops of the Valkyries themselves, however ungainly they may be). There is a thumping great drum-thwack at the beginning of the "Entry of the Gods into Valhalla" and the double chords at the climax of "Siegfried's Funeral March" have a similar penetrative power. But the playing itself is, of course, first class and Tennstedt keeps the tension high. The digital effect is at its most telling in the pianissimo detail, especially in the atmospheric "Forest Murmurs". But at fortissimos (and they really are!) there is the kind of fierceness on top that one associates with hi-fl demonstrations. The brass is relatively dry and I feel that a little more resonance here would have balanced the treble. Even so, with some adjustment of the controls one can get impressive reproduction through really big speakers, while the evocative qualities of the music-making undoubtedly grip the listener at the opening of "Siegfried's Rhine Journey" and in the "Magic Fire Music". – Ivan March

Berliner Philharmoniker, Klaus Tennstedt – Wagner: Orchestral Music (2005) (Repost)

Track List:

CD 1:
01. Die Walküre: Walkürenritt - 5:12
02. Götterdämmerung: Morgendämmerung und Siegfrieds Rheinfahrt - 10:29
03. Götterdämmerung: Siegfrieds Trauermarsch - 9:40
04. Das Rheingold: Einzug der Götter in Walhall - 4:46
05. Siegfried: Waldweben - 6:53
06. Die Walküre: Wotans Abschied und Feuerzauber - 7:21
Recorded: Philharmonie, Berlin, X.1980

Exact Audio Copy V1.0 beta 1 from 15. November 2010

EAC extraction logfile from 24. January 2011, 9:26

Richard Wagner / Orchestral Music

Used drive : SONY DVD RW DRX-S70U Adapter: 4 ID: 0

Read mode : Secure
Utilize accurate stream : Yes
Defeat audio cache : Yes
Make use of C2 pointers : No

Read offset correction : 6
Overread into Lead-In and Lead-Out : No
Fill up missing offset samples with silence : Yes
Delete leading and trailing silent blocks : No
Null samples used in CRC calculations : Yes
Used interface : Native Win32 interface for Win NT & 2000
Gap handling : Appended to previous track

Used output format : User Defined Encoder
Selected bitrate : 128 kBit/s
Quality : High
Add ID3 tag : No
Command line compressor : C:\Program Files\Exact Audio Copy\Flac\flac.exe
Additional command line options : -V -8 -T "artist=%a" -T "title=%t" -T "album=%g" -T "date=%y" -T "tracknumber=%n" -T "genre=%m" %s


TOC of the extracted CD

Track | Start | Length | Start sector | End sector
––––––––––––––––––––––––––––-
1 | 0:00.32 | 5:11.53 | 32 | 23409
2 | 5:12.10 | 10:28.50 | 23410 | 70559
3 | 15:40.60 | 9:40.05 | 70560 | 114064
4 | 25:20.65 | 4:46.25 | 114065 | 135539
5 | 30:07.15 | 6:53.15 | 135540 | 166529
6 | 37:00.30 | 7:21.15 | 166530 | 199619


Track 1

Filename C:\ripping\Richard Wagner - 1996 - Orchestral Music [FLAC]\CD1\01 - Richard Wagner - Die Walkure- Ride of the Valkyries.wav

Pre-gap length 0:00:02.32

Peak level 95.5 %
Extraction speed 0.4 X
Track quality 99.2 %
Test CRC D69A0157
Copy CRC D69A0157
Accurately ripped (confidence 10) [304D815B]
Copy OK

Track 2

Filename C:\ripping\Richard Wagner - 1996 - Orchestral Music [FLAC]\CD1\02 - Richard Wagner - Gotterdammerung- Dawn and Siegfried's Rhine Journey.wav

Pre-gap length 0:00:02.60

Peak level 59.9 %
Extraction speed 1.1 X
Track quality 99.6 %
Test CRC C423C717
Copy CRC C423C717
Accurately ripped (confidence 10) [BC571DDE]
Copy OK

Track 3

Filename C:\ripping\Richard Wagner - 1996 - Orchestral Music [FLAC]\CD1\03 - Richard Wagner - Gotterdammerung- Siegfried's Death and Funeral.wav

Pre-gap length 0:00:03.20

Peak level 79.9 %
Extraction speed 1.3 X
Track quality 99.6 %
Test CRC 84DFD929
Copy CRC 84DFD929
Accurately ripped (confidence 10) [3798632F]
Copy OK

Track 4

Filename C:\ripping\Richard Wagner - 1996 - Orchestral Music [FLAC]\CD1\04 - Richard Wagner - Das Rheingold- Entry of the Gods into Valhalla.wav

Pre-gap length 0:00:02.65

Peak level 95.5 %
Extraction speed 1.3 X
Track quality 99.6 %
Test CRC 7214A861
Copy CRC 7214A861
Accurately ripped (confidence 10) [0572BA8A]
Copy OK

Track 5

Filename C:\ripping\Richard Wagner - 1996 - Orchestral Music [FLAC]\CD1\05 - Richard Wagner - Siegfreid- Forest Murmurs.wav

Pre-gap length 0:00:03.48

Peak level 71.6 %
Extraction speed 0.5 X
Track quality 99.2 %
Test CRC 9C2BBF94
Copy CRC 9C2BBF94
Accurately ripped (confidence 10) [00BC2FC4]
Copy OK

Track 6

Filename C:\ripping\Richard Wagner - 1996 - Orchestral Music [FLAC]\CD1\06 - Richard Wagner - Die Walkure- Wotan's Farewell and Magic Fire Music.wav

Pre-gap length 0:00:04.13

Peak level 64.4 %
Extraction speed 0.5 X
Track quality 99.3 %
Test CRC B3C95706
Copy CRC B3C95706
Accurately ripped (confidence 10) [56973E24]
Copy OK


All tracks accurately ripped

No errors occurred

End of status report

CD 2:
01. Tannhäuser: Ouvertüre - 15:37
02. Rienzi: Ouvertüre - 13:39
03. Lohengrin: Vorspiel zum 1. Aufzug - 10:24
04. Lohengrin: Vorspiel zum 3. Aufzug - 3:04
05. Die Meistersinger von Nürnberg: Vorspiel zum 1. Aufzug - 10:07
Recorded: Philharmonie, Berlin, XII.1982 & IV.1983

Exact Audio Copy V1.0 beta 1 from 15. November 2010

EAC extraction logfile from 25. January 2011, 13:02

Klaus Tennstedt & Berliner Philharmoniker / Richard Wagner - Orchestral music (CD2)

Used drive : SONY DVD RW DRX-S70U Adapter: 4 ID: 0

Read mode : Secure
Utilize accurate stream : Yes
Defeat audio cache : Yes
Make use of C2 pointers : No

Read offset correction : 6
Overread into Lead-In and Lead-Out : No
Fill up missing offset samples with silence : Yes
Delete leading and trailing silent blocks : No
Null samples used in CRC calculations : Yes
Used interface : Native Win32 interface for Win NT & 2000
Gap handling : Appended to previous track

Used output format : User Defined Encoder
Selected bitrate : 128 kBit/s
Quality : High
Add ID3 tag : No
Command line compressor : C:\Program Files\Exact Audio Copy\Flac\flac.exe
Additional command line options : -V -8 -T "artist=%a" -T "title=%t" -T "album=%g" -T "date=%y" -T "tracknumber=%n" -T "genre=%m" %s


TOC of the extracted CD

Track | Start | Length | Start sector | End sector
––––––––––––––––––––––––––––-
1 | 0:00.32 | 15:36.63 | 32 | 70294
2 | 15:37.20 | 13:39.22 | 70295 | 131741
3 | 29:16.42 | 10:24.05 | 131742 | 178546
4 | 39:40.47 | 3:03.38 | 178547 | 192309
5 | 42:44.10 | 10:07.00 | 192310 | 237834


Track 1

Filename C:\ripping\Klaus Tennstedt & Berliner Philharmoniker - 1996 - Richard Wagner - Orchestral music (CD2) [FLAC]\CD2\01 - Klaus Tennstedt & Berliner Philharmoniker - Ouvertüre ''Tannhäuser''.wav

Pre-gap length 0:00:02.32

Peak level 97.7 %
Extraction speed 3.4 X
Track quality 100.0 %
Test CRC E6E1A1E8
Copy CRC E6E1A1E8
Cannot be verified as accurate (confidence 9) [ED13616A], AccurateRip returned [5117FA1A]
Copy OK

Track 2

Filename C:\ripping\Klaus Tennstedt & Berliner Philharmoniker - 1996 - Richard Wagner - Orchestral music (CD2) [FLAC]\CD2\02 - Klaus Tennstedt & Berliner Philharmoniker - Ouvertüre ''Rienzi''.wav

Pre-gap length 0:00:09.18

Peak level 94.9 %
Extraction speed 4.3 X
Track quality 100.0 %
Test CRC AB2C1DAD
Copy CRC AB2C1DAD
Cannot be verified as accurate (confidence 9) [56DFF989], AccurateRip returned [AB410421]
Copy OK

Track 3

Filename C:\ripping\Klaus Tennstedt & Berliner Philharmoniker - 1996 - Richard Wagner - Orchestral music (CD2) [FLAC]\CD2\03 - Klaus Tennstedt & Berliner Philharmoniker - Vorspiel zum 1. Auftritt aus der Oper ''Lohengrin''.wav

Pre-gap length 0:00:05.15

Peak level 97.7 %
Extraction speed 4.9 X
Track quality 100.0 %
Test CRC 51FC4C80
Copy CRC 51FC4C80
Cannot be verified as accurate (confidence 9) [1CE69CEE], AccurateRip returned [99B3323E]
Copy OK

Track 4

Filename C:\ripping\Klaus Tennstedt & Berliner Philharmoniker - 1996 - Richard Wagner - Orchestral music (CD2) [FLAC]\CD2\04 - Klaus Tennstedt & Berliner Philharmoniker - Vorspiel zum 3. Auftritt aus der Oper ''Lohengrin''.wav

Pre-gap length 0:00:07.20

Peak level 97.7 %
Extraction speed 4.6 X
Track quality 100.0 %
Test CRC 3D8CAE24
Copy CRC 3D8CAE24
Cannot be verified as accurate (confidence 9) [D5FAE866], AccurateRip returned [B4FB888E]
Copy OK

Track 5

Filename C:\ripping\Klaus Tennstedt & Berliner Philharmoniker - 1996 - Richard Wagner - Orchestral music (CD2) [FLAC]\CD2\05 - Klaus Tennstedt & Berliner Philharmoniker - Vorspiel zum 1te Auftritt aus der Oper ''Die Meistersinger von Nnberg''.wav

Pre-gap length 0:00:06.30

Peak level 97.7 %
Extraction speed 5.6 X
Track quality 100.0 %
Test CRC BE81583C
Copy CRC BE81583C
Cannot be verified as accurate (confidence 9) [00E75F26], AccurateRip returned [51DCA386]
Copy OK


No tracks could be verified as accurate
You may have a different pressing from the one(s) in the database

No errors occurred

End of status report

Performers:
Berlin Philharmonic Orchestra
Klaus Tennstedt, conductor

Thanks to the Original ripper (unknown)!

Download: