Subcategories
Tags
Language
Tags

Leonard Bernstein, Orchestre National de France - An American in Paris [7CDs] (2018)

Posted By: ArlegZ
Leonard Bernstein, Orchestre National de France - An American in Paris [7CDs] (2018)

Leonard Bernstein, Orchestre National de France - An American in Paris: Berlioz, Bloch, Milhaud, Ravel, Schumann, Rachmaninov (2018)
EAC | FLAC | Image (Cue & Log) ~ 1.87 Gb | Total time: 06:41:06 | Scans included
Classical | Label: Warner Classics | # 9029568954 | Recorded: 1975-1979

This 7CD set is the fruit of the love affair that developed in Paris between Leonard Bernstein and the Orchestre National de France in the 1970s. Beside long-admired studio recordings, featuring Mstislav Rostropovich and Alexis Weissenberg among the soloists, it presents live performances completely new to the catalogue: a 1975 programme to celebrate Ravel’s centenary – with Bernstein himself as soloist in the G major piano concerto – and orchestral suites taken from two of Bernstein’s most celebrated and brilliant works, both infused with jazz: the film score On the Waterfront and the landmark Broadway musical West Side Story.

Performer:
Orchestre National de France
Leonard Bernstein, conductor

Track List:
CD1:
Hector Berlioz (1803-1869)
01-05. Symphonie fantastique, Op.14
CD2:
Hector Berlioz
01-04. Harold en Italie, Op.16
Donald McInnes, viola
CD3:
Darius Milhaud (1892-1974)
01. La Création du monde, Op.81
02-05. Saudades do Brasil, Op.67 - VII - IX - VIII - XI
06. Le Boeuf sur le toit, Op.58
CD4:
Robert Schumann (1810-1856)
01-03. Cello Concerto in A minor, Op.129
Ernest Bloch (1880-1959)
04. Schelomo
Mstislav Rostropovich, cello
CD5:
Sergei Rachmaninov (1873-1943)
01-03. Piano Concerto No.3 in D minor, Op.30
Alexis Weissenberg, piano
Rehearsal Session Paris 1975
Maurice Ravel (1875-1937)
04. Alborada del gracioso
05. Shéhérazade
06. Concerto for piano and orchestra in G major
07. La Valse
Leonard Bernstein, piano
CD6:
Maurice Ravel
01. Alborada del gracioso
02-04. Shéhérazade
05-07. Concerto for piano and orchestra in G major
08. Tzigane
Marilyn Horne, soprano (2-4)
Leonard Bernstein, piano (5-7)
Boris Belkin, violin (8)

CD7:
Maurice Ravel
01. La Valse
02. Boléro
Leonard Bernstein (1918-1990)
03-08. On the Waterfront
09-17. Symphonic Dances, from West Side Story



Exact Audio Copy V1.3 from 2. September 2016

EAC extraction logfile from 25. February 2020, 21:07

Orchestre National de France, Bernstein / Bernstein - An American in Paris - CD1 - Berlioz

Used drive : ASUS SDRW-08U7M-U Adapter: 1 ID: 0

Read mode : Secure
Utilize accurate stream : Yes
Defeat audio cache : Yes
Make use of C2 pointers : No

Read offset correction : 6
Overread into Lead-In and Lead-Out : No
Fill up missing offset samples with silence : Yes
Delete leading and trailing silent blocks : No
Null samples used in CRC calculations : Yes
Used interface : Native Win32 interface for Win NT & 2000

Used output format : User Defined Encoder
Selected bitrate : 128 kBit/s
Quality : High
Add ID3 tag : No
Command line compressor : C:\Program Files (x86)\Exact Audio Copy\Flac\flac.exe
Additional command line options : -V -8 -T "Date=%year%" -T "Genre=%genre%" %source%


TOC of the extracted CD

Track | Start | Length | Start sector | End sector
––––––––––––––––––––––––––––-
1 | 0:00.00 | 13:41.24 | 0 | 61598
2 | 13:41.24 | 6:55.68 | 61599 | 92791
3 | 20:37.17 | 16:30.46 | 92792 | 167087
4 | 37:07.63 | 4:55.61 | 167088 | 189273
5 | 42:03.49 | 10:05.47 | 189274 | 234695


Range status and errors

Selected range

Filename C:\temp\Leonard Bernstein - An American in Paris - 2018\CD1\Bernstein - An American in Paris - CD1.wav

Peak level 97.2 %
Extraction speed 4.3 X
Range quality 100.0 %
Test CRC BAC59F25
Copy CRC BAC59F25
Copy OK

No errors occurred


AccurateRip summary

Track 1 accurately ripped (confidence 4) [F72F3AC4] (AR v2)
Track 2 accurately ripped (confidence 4) [D513DB70] (AR v2)
Track 3 accurately ripped (confidence 4) [9D6F73B3] (AR v2)
Track 4 accurately ripped (confidence 4) [74091274] (AR v2)
Track 5 accurately ripped (confidence 4) [EC3D5BB9] (AR v2)

All tracks accurately ripped

End of status report

==== Log checksum BD783EB1B6167CF930B42778E7D9FD30F2D4D2D5E604281BA669DF12F727AE9C ====


Exact Audio Copy V1.3 from 2. September 2016

EAC extraction logfile from 25. February 2020, 21:36

Donald McInnes, Orchestre National de France, Leonard Bernstein / Bernstein - An American in Paris - CD2 - Berlioz

Used drive : ASUS SDRW-08U7M-U Adapter: 1 ID: 0

Read mode : Secure
Utilize accurate stream : Yes
Defeat audio cache : Yes
Make use of C2 pointers : No

Read offset correction : 6
Overread into Lead-In and Lead-Out : No
Fill up missing offset samples with silence : Yes
Delete leading and trailing silent blocks : No
Null samples used in CRC calculations : Yes
Used interface : Native Win32 interface for Win NT & 2000

Used output format : User Defined Encoder
Selected bitrate : 128 kBit/s
Quality : High
Add ID3 tag : No
Command line compressor : C:\Program Files (x86)\Exact Audio Copy\Flac\flac.exe
Additional command line options : -V -8 -T "Date=%year%" -T "Genre=%genre%" %source%


TOC of the extracted CD

Track | Start | Length | Start sector | End sector
––––––––––––––––––––––––––––-
1 | 0:00.00 | 15:01.15 | 0 | 67589
2 | 15:01.15 | 8:40.16 | 67590 | 106605
3 | 23:41.31 | 6:49.30 | 106606 | 137310
4 | 30:30.61 | 12:57.39 | 137311 | 195624


Range status and errors

Selected range

Filename C:\temp\Leonard Bernstein - An American in Paris - 2018\CD2\Bernstein - An American in Paris - CD2.wav

Peak level 99.3 %
Extraction speed 4.1 X
Range quality 100.0 %
Test CRC D97336ED
Copy CRC D97336ED
Copy OK

No errors occurred


AccurateRip summary

Track 1 accurately ripped (confidence 4) [21AD87A3] (AR v2)
Track 2 accurately ripped (confidence 4) [F8A7DA7F] (AR v2)
Track 3 accurately ripped (confidence 4) [3C539469] (AR v2)
Track 4 accurately ripped (confidence 4) [B99C3878] (AR v2)

All tracks accurately ripped

End of status report

==== Log checksum 30A8CE6695FF851BADDB6FECBBFC967C81145D45508E7C7393B3CB5133D84082 ====


Exact Audio Copy V1.3 from 2. September 2016

EAC extraction logfile from 25. February 2020, 22:12

Orchestre National de France, Leonard Bernstein / Bernstein - An American in Paris - CD3 - Milhaud

Used drive : ASUS SDRW-08U7M-U Adapter: 1 ID: 0

Read mode : Secure
Utilize accurate stream : Yes
Defeat audio cache : Yes
Make use of C2 pointers : No

Read offset correction : 6
Overread into Lead-In and Lead-Out : No
Fill up missing offset samples with silence : Yes
Delete leading and trailing silent blocks : No
Null samples used in CRC calculations : Yes
Used interface : Native Win32 interface for Win NT & 2000

Used output format : User Defined Encoder
Selected bitrate : 128 kBit/s
Quality : High
Add ID3 tag : No
Command line compressor : C:\Program Files (x86)\Exact Audio Copy\Flac\flac.exe
Additional command line options : -V -8 -T "Date=%year%" -T "Genre=%genre%" %source%


TOC of the extracted CD

Track | Start | Length | Start sector | End sector
––––––––––––––––––––––––––––-
1 | 0:00.00 | 16:49.45 | 0 | 75719
2 | 16:49.45 | 2:19.45 | 75720 | 86189
3 | 19:09.15 | 1:45.54 | 86190 | 94118
4 | 20:54.69 | 2:02.10 | 94119 | 103278
5 | 22:57.04 | 1:22.02 | 103279 | 109430
6 | 24:19.06 | 19:34.33 | 109431 | 197513


Range status and errors

Selected range

Filename C:\temp\Leonard Bernstein - An American in Paris - 2018\CD3\Bernstein - An American in Paris - CD3.wav

Peak level 92.6 %
Extraction speed 4.1 X
Range quality 100.0 %
Test CRC 48B0AC12
Copy CRC 48B0AC12
Copy OK

No errors occurred


AccurateRip summary

Track 1 accurately ripped (confidence 4) [F86B1F90] (AR v2)
Track 2 accurately ripped (confidence 4) [6FC30E68] (AR v2)
Track 3 accurately ripped (confidence 4) [5759DB20] (AR v2)
Track 4 accurately ripped (confidence 4) [848A9065] (AR v2)
Track 5 accurately ripped (confidence 4) [297E0633] (AR v2)
Track 6 accurately ripped (confidence 3) [3E04B0A6] (AR v2)

All tracks accurately ripped

End of status report

==== Log checksum 0B360A3CA79CB9F3A2FEDE62C819329C3CBE2C418BEB4B0106331A2F22CC6152 ====


Exact Audio Copy V1.3 from 2. September 2016

EAC extraction logfile from 26. February 2020, 20:51

Mstislav Rostropovich, Orchestre National de France, Leonard Bernstein / Bernstein - An American in Paris - CD4 - Schumann, Bloch

Used drive : ASUS SDRW-08U7M-U Adapter: 1 ID: 0

Read mode : Secure
Utilize accurate stream : Yes
Defeat audio cache : Yes
Make use of C2 pointers : No

Read offset correction : 6
Overread into Lead-In and Lead-Out : No
Fill up missing offset samples with silence : Yes
Delete leading and trailing silent blocks : No
Null samples used in CRC calculations : Yes
Used interface : Native Win32 interface for Win NT & 2000

Used output format : User Defined Encoder
Selected bitrate : 128 kBit/s
Quality : High
Add ID3 tag : No
Command line compressor : C:\Program Files (x86)\Exact Audio Copy\Flac\flac.exe
Additional command line options : -V -8 -T "Date=%year%" -T "Genre=%genre%" %source%


TOC of the extracted CD

Track | Start | Length | Start sector | End sector
––––––––––––––––––––––––––––-
1 | 0:00.00 | 12:15.02 | 0 | 55126
2 | 12:15.02 | 5:01.60 | 55127 | 77761
3 | 17:16.62 | 8:12.21 | 77762 | 114682
4 | 25:29.08 | 22:52.05 | 114683 | 217587


Range status and errors

Selected range

Filename C:\temp\Leonard Bernstein - An American in Paris - 2018\CD4\Bernstein - An American in Paris - CD4.wav

Peak level 99.2 %
Extraction speed 4.2 X
Range quality 100.0 %
Test CRC 45441C90
Copy CRC 45441C90
Copy OK

No errors occurred


AccurateRip summary

Track 1 accurately ripped (confidence 4) [722FF60A] (AR v2)
Track 2 accurately ripped (confidence 4) [C84528F1] (AR v2)
Track 3 accurately ripped (confidence 4) [394A5385] (AR v2)
Track 4 accurately ripped (confidence 4) [F408F1BC] (AR v2)

All tracks accurately ripped

End of status report

==== Log checksum 86ABD89F71187ACD2175998DD489F4A010A536267982979C9713248E26017CBD ====


Exact Audio Copy V1.3 from 2. September 2016

EAC extraction logfile from 26. February 2020, 21:37

Orchestre National de France, Leonard Bernstein / Bernstein - An American in Paris - CD5 - Rachmaninov, Ravel

Used drive : ASUS SDRW-08U7M-U Adapter: 1 ID: 0

Read mode : Secure
Utilize accurate stream : Yes
Defeat audio cache : Yes
Make use of C2 pointers : No

Read offset correction : 6
Overread into Lead-In and Lead-Out : No
Fill up missing offset samples with silence : Yes
Delete leading and trailing silent blocks : No
Null samples used in CRC calculations : Yes
Used interface : Native Win32 interface for Win NT & 2000

Used output format : User Defined Encoder
Selected bitrate : 128 kBit/s
Quality : High
Add ID3 tag : No
Command line compressor : C:\Program Files (x86)\Exact Audio Copy\Flac\flac.exe
Additional command line options : -V -8 -T "Date=%year%" -T "Genre=%genre%" %source%


TOC of the extracted CD

Track | Start | Length | Start sector | End sector
––––––––––––––––––––––––––––-
1 | 0:00.00 | 17:37.02 | 0 | 79276
2 | 17:37.02 | 12:57.13 | 79277 | 137564
3 | 30:34.15 | 16:09.59 | 137565 | 210298
4 | 46:43.74 | 8:09.61 | 210299 | 247034
5 | 54:53.60 | 4:36.42 | 247035 | 267776
6 | 59:30.27 | 12:00.57 | 267777 | 321833
7 | 71:31.09 | 8:30.63 | 321834 | 360146


Range status and errors

Selected range

Filename C:\temp\Leonard Bernstein - An American in Paris - 2018\CD5\Bernstein - An American in Paris - CD5.wav

Peak level 98.6 %
Extraction speed 5.4 X
Range quality 100.0 %
Test CRC F5C4DC52
Copy CRC F5C4DC52
Copy OK

No errors occurred


AccurateRip summary

Track 1 accurately ripped (confidence 4) [33EE3A33] (AR v2)
Track 2 accurately ripped (confidence 4) [4217C5B9] (AR v2)
Track 3 accurately ripped (confidence 4) [491546F9] (AR v2)
Track 4 accurately ripped (confidence 4) [9CB4FD8F] (AR v2)
Track 5 accurately ripped (confidence 4) [A471982E] (AR v2)
Track 6 accurately ripped (confidence 4) [E28C0161] (AR v2)
Track 7 accurately ripped (confidence 4) [8597EC8E] (AR v2)

All tracks accurately ripped

End of status report

==== Log checksum E05ACA1FB7F9E4B9DE4208ECB7584BCF31F09B26F8297DE3D0B7EDDB3FB7960B ====


Exact Audio Copy V1.3 from 2. September 2016

EAC extraction logfile from 26. February 2020, 22:12

Orchestre National de France, Leonard Bernstein / Bernstein - An American in Paris - CD6 - Ravel

Used drive : ASUS SDRW-08U7M-U Adapter: 1 ID: 0

Read mode : Secure
Utilize accurate stream : Yes
Defeat audio cache : Yes
Make use of C2 pointers : No

Read offset correction : 6
Overread into Lead-In and Lead-Out : No
Fill up missing offset samples with silence : Yes
Delete leading and trailing silent blocks : No
Null samples used in CRC calculations : Yes
Used interface : Native Win32 interface for Win NT & 2000

Used output format : User Defined Encoder
Selected bitrate : 128 kBit/s
Quality : High
Add ID3 tag : No
Command line compressor : C:\Program Files (x86)\Exact Audio Copy\Flac\flac.exe
Additional command line options : -V -8 -T "Date=%year%" -T "Genre=%genre%" %source%


TOC of the extracted CD

Track | Start | Length | Start sector | End sector
––––––––––––––––––––––––––––-
1 | 0:00.00 | 7:37.24 | 0 | 34298
2 | 7:37.24 | 10:20.39 | 34299 | 80837
3 | 17:57.63 | 3:08.54 | 80838 | 94991
4 | 21:06.42 | 4:54.15 | 94992 | 117056
5 | 26:00.57 | 8:16.54 | 117057 | 154310
6 | 34:17.36 | 10:26.18 | 154311 | 201278
7 | 44:43.54 | 4:02.27 | 201279 | 219455
8 | 48:46.06 | 10:27.21 | 219456 | 266501


Range status and errors

Selected range

Filename C:\temp\Leonard Bernstein - An American in Paris - 2018\CD6\Bernstein - An American in Paris - CD6.wav

Peak level 89.8 %
Extraction speed 4.5 X
Range quality 99.9 %
Test CRC EB25E445
Copy CRC EB25E445
Copy OK

No errors occurred


AccurateRip summary

Track 1 accurately ripped (confidence 5) [36FF2134] (AR v2)
Track 2 accurately ripped (confidence 5) [088C572C] (AR v2)
Track 3 accurately ripped (confidence 5) [85CA688A] (AR v2)
Track 4 accurately ripped (confidence 5) [48AF7F2D] (AR v2)
Track 5 accurately ripped (confidence 5) [77EB9D0D] (AR v2)
Track 6 accurately ripped (confidence 5) [1BBE0EC3] (AR v2)
Track 7 accurately ripped (confidence 5) [8F0CB1BA] (AR v2)
Track 8 accurately ripped (confidence 5) [FB36D56A] (AR v2)

All tracks accurately ripped

End of status report

==== Log checksum 0DE902ECAF7B3E4977ABF8DB582CDC16FB5C3CD2F6BD095F91F24F4ABDC3DAEB ====


Exact Audio Copy V1.3 from 2. September 2016

EAC extraction logfile from 26. February 2020, 23:00

Orchestre National de France, Leonard Bernstein / Bernstein - An American in Paris - CD7 - Ravel, Bernstein

Used drive : ASUS SDRW-08U7M-U Adapter: 1 ID: 0

Read mode : Secure
Utilize accurate stream : Yes
Defeat audio cache : Yes
Make use of C2 pointers : No

Read offset correction : 6
Overread into Lead-In and Lead-Out : No
Fill up missing offset samples with silence : Yes
Delete leading and trailing silent blocks : No
Null samples used in CRC calculations : Yes
Used interface : Native Win32 interface for Win NT & 2000

Used output format : User Defined Encoder
Selected bitrate : 128 kBit/s
Quality : High
Add ID3 tag : No
Command line compressor : C:\Program Files (x86)\Exact Audio Copy\Flac\flac.exe
Additional command line options : -V -8 -T "Date=%year%" -T "Genre=%genre%" %source%


TOC of the extracted CD

Track | Start | Length | Start sector | End sector
––––––––––––––––––––––––––––-
1 | 0:00.00 | 13:11.42 | 0 | 59366
2 | 13:11.42 | 15:28.33 | 59367 | 128999
3 | 28:40.00 | 3:07.37 | 129000 | 143061
4 | 31:47.37 | 2:28.34 | 143062 | 154195
5 | 34:15.71 | 4:52.59 | 154196 | 176154
6 | 39:08.55 | 4:45.26 | 176155 | 197555
7 | 43:54.06 | 3:09.58 | 197556 | 211788
8 | 47:03.64 | 2:38.26 | 211789 | 223664
9 | 49:42.15 | 4:16.44 | 223665 | 242908
10 | 53:58.59 | 4:15.32 | 242909 | 262065
11 | 58:14.16 | 1:23.40 | 262066 | 268330
12 | 59:37.56 | 2:20.49 | 268331 | 278879
13 | 61:58.30 | 0:58.02 | 278880 | 283231
14 | 62:56.32 | 0:45.55 | 283232 | 286661
15 | 63:42.12 | 4:00.53 | 286662 | 304714
16 | 67:42.65 | 2:06.52 | 304715 | 314216
17 | 69:49.42 | 3:58.02 | 314217 | 332068


Range status and errors

Selected range

Filename C:\temp\Leonard Bernstein - An American in Paris - 2018\CD7\Bernstein - An American in Paris - CD7.wav

Peak level 97.1 %
Extraction speed 5.0 X
Range quality 99.9 %
Test CRC CCC268F0
Copy CRC CCC268F0
Copy OK

No errors occurred


AccurateRip summary

Track 1 accurately ripped (confidence 4) [42F07B39] (AR v2)
Track 2 accurately ripped (confidence 4) [EBBD5FB9] (AR v2)
Track 3 accurately ripped (confidence 4) [2D0247E6] (AR v2)
Track 4 accurately ripped (confidence 4) [3FAC7227] (AR v2)
Track 5 accurately ripped (confidence 4) [79AFAFBC] (AR v2)
Track 6 accurately ripped (confidence 4) [8004D76E] (AR v2)
Track 7 accurately ripped (confidence 4) [E8EBD401] (AR v2)
Track 8 accurately ripped (confidence 4) [0F9F3F79] (AR v2)
Track 9 accurately ripped (confidence 4) [12A4006F] (AR v2)
Track 10 accurately ripped (confidence 4) [447D157F] (AR v2)
Track 11 accurately ripped (confidence 4) [1FFE4E5C] (AR v2)
Track 12 accurately ripped (confidence 4) [8B9ECE52] (AR v2)
Track 13 accurately ripped (confidence 4) [EA7A9B95] (AR v2)
Track 14 accurately ripped (confidence 4) [EA6B9C43] (AR v2)
Track 15 accurately ripped (confidence 4) [C3093D39] (AR v2)
Track 16 accurately ripped (confidence 4) [65C83A9B] (AR v2)
Track 17 accurately ripped (confidence 4) [8CE529BF] (AR v2)

All tracks accurately ripped

End of status report

==== Log checksum 5705EDC1A226CB9E36FFC5A9C60849CB63CBEC4CF2897023C3D729AC186B4A64 ====


Leonard Bernstein, Orchestre National de France - An American in Paris [7CDs] (2018)

Thanks to the original releaser