Tags
Language
Tags

Bessie Smith - Squeeze Me (2008) 2CDs

Posted By: Designol
Bessie Smith - Squeeze Me (2008) 2CDs

Bessie Smith - Squeeze Me (2008) 2CDs
André Francis & Jean Schwarz Présentent: Jazz Characters, Vol. 30

EAC | FLAC | Tracks (Cue&Log) ~ 528 Mb | Scans included
Label: Le Chant du Monde | # 274 1469.70 | Time: 02:35:10
Classic Female Blues, Vaudeville Blues, Early Jazz, Jazz-Blues

The greatest female blues singer of all time, with a passionate voice and thundering delivery. This French compilation includes 48 great recordings, 1923-1933.

The first major blues and jazz singer on record and one of the most powerful of all time, Bessie Smith rightly earned the title of "The Empress of the Blues." Even on her first records in 1923, her passionate voice overcame the primitive recording quality of the day and still communicates easily to today's listeners (which is not true of any other singer from that early period). At a time when the blues were in and most vocalists (particularly vaudevillians) were being dubbed "blues singers," Bessie Smith simply had no competition.

Back in 1912, Bessie Smith sang in the same show as Ma Rainey, who took her under her wing and coached her. Although Rainey would achieve a measure of fame throughout her career, she was soon surpassed by her protégée. In 1920, Smith had her own show in Atlantic City and, in 1923, she moved to New York. She was soon signed by Columbia and her first recording (Alberta Hunter's "Downhearted Blues") made her famous. Bessie Smith worked and recorded steadily throughout the decade, using many top musicians as sidemen on sessions including Louis Armstrong, Joe Smith (her favorite cornetist), James P. Johnson, and Charlie Green. Her summer tent show Harlem Frolics was a big success during 1925-1927, and Mississippi Days in 1928 kept the momentum going.

However, by 1929 the blues were out of fashion and Bessie Smith's career was declining despite being at the peak of her powers (and still only 35). She appeared in St. Louis Blues that year (a low-budget movie short that contains the only footage of her), but her hit recording of "Nobody Knows You When You're Down and Out" predicted her leaner Depression years. Although she was dropped by Columbia in 1931 and made her final recordings on a four-song session in 1933, Bessie Smith kept on working. She played the Apollo in 1935 and substituted for Billie Holiday in the show Stars Over Broadway. The chances are very good that she would have made a comeback, starting with a Carnegie Hall appearance at John Hammond's upcoming From Spirituals to Swing concert, but she was killed in a car crash in Mississippi. Columbia has reissued all of her recordings, first in five two-LP sets and more recently on five two-CD box sets that also contain her five alternate takes, the soundtrack of St. Louis Blues, and an interview with her niece Ruby Smith. "The Empress of the Blues," based on her recordings, will never have to abdicate her throne.

Scott Yanow, Allmusic.com

Bessie Smith - Squeeze Me (2008) 2CDs



Tracklist:

CD1 (01:18:03)

01. Down Hearted Blues (3:28)
02. Gulf Coast Blues (3:07)
03. Beale Street Mama (3:37)
04. 'Tain't Nobody's Bizness If I Do (3:30)
05. Keeps On A-Rainin' (3:10)
06. Midnight Blues (3:20)
07. Jail-House Blues (3:16)
08. Graveyard Dream Blues (2:46)
09. Far Away Blues (3:03)
10. Any Woman's Blues (3:28)
11. Chicago Bound Blues (3:19)
12. Easy Come, Easy Go Blues (3:11)
13. House Rent Blues (3:08)
14. Salt Water Blues (3:30)
15. Sing Sing Prison Blues (3:06)
16. Love Me Daddy Blues (3:17)
17. The St. Louis Blues (3:13)
18. Reckless Blues (3:06)
19. Sobbin' Hearted Blues (3:04)
20. Cold In Hand Blues (3:15)
21. You've Been A Good Ole Wagon (3:31)
22. Cake-Walking Babies From Home (3:12)
23. The Yellow Dog Blues (3:05)
24. Soft Pedal Blues (3:20)


CD2 (01:17:07)

01. Nashville Women's Blues (3:43)
02. Careless Love Blues (3:28)
03. Nobody's Blues But Mine (2:54)
04. I've Been Mistreated And I Don't Like It (2:59)
05. Squeeze Me (2:55)
06. Money Blues (3:13)
07. Young Woman's Blues (3:10)
08. Preachin' The Blues (2:53)
09. Back Water Blues (2:43)
10. Alexander's Ragtime Band (3:02)
11. Muddy Water (3:15)
12. Trombone Cholly (3:14)
13. A Good Man Is Hard To Find (3:02)
14. Foolish Man Blues (2:57)
15. Standin' In The Rain Blues (2:56)
16. Empty Bed Blues (6:25)
17. Poor Man's Blues (3:27)
18. Me And My Gin (2:53)
19. Nobody Knows You When… (3:00)
20. Wasted Life Blues (3:05)
21. Blue Spirit Blues (2:56)
22. On Revival Day (2:59)
23. Shipwreck Blues (3:24)
24. Take Me For A Buggy Ride (2:36)


Exact Audio Copy V1.0 beta 3 from 29. August 2011

Отчёт EAC об извлечении, выполненном 19. февраля 2014, 17:32

Bessie Smith / Squeeze me CD1

Дисковод: ASUS DRW-1814BLT Adapter: 4 ID: 0

Режим чтения : Достоверность
Использование точного потока : Да
Отключение кэша аудио : Да
Использование указателей C2 : Нет

Коррекция смещения при чтении : 6
Способность читать области Lead-in и Lead-out : Нет
Заполнение пропущенных сэмплов тишиной : Да
Удаление блоков с тишиной в начале и конце : Нет
При вычислениях CRC использовались нулевые сэмплы : Да
Интерфейс : Встроенный Win32-интерфейс для Win NT/2000
Обработка зазоров : Добавлено к предыдущему треку

Выходной формат : Пользовательский кодировщик
Выбранный битрейт : 128 kBit/s
Качество : Высокий
Добавление ID3-тега : Нет
Утилита сжатия : C:\Program Files\Exact Audio Copy\Flac\flac.exe
Дополнительные параметры : -V -8 -T "Genre=%genre%" -T "Artist=%artist%" -T "Title=%title%" -T "Album=%albumtitle%" -T "Date=%year%" -T "Tracknumber=%tracknr%" -T "Comment=EAC1.0b2 FLAC -8" %source%


TOC извлечённого CD

Трек | Старт | Длительность | Начальный сектор | Конечный сектор
––––––––––––––––––––––––––––––––––-
1 | 0:00.00 | 3:28.03 | 0 | 15602
2 | 3:28.03 | 3:07.24 | 15603 | 29651
3 | 6:35.27 | 3:37.20 | 29652 | 45946
4 | 10:12.47 | 3:29.53 | 45947 | 61674
5 | 13:42.25 | 3:09.58 | 61675 | 75907
6 | 16:52.08 | 3:20.05 | 75908 | 90912
7 | 20:12.13 | 3:16.26 | 90913 | 105638
8 | 23:28.39 | 2:46.25 | 105639 | 118113
9 | 26:14.64 | 3:02.52 | 118114 | 131815
10 | 29:17.41 | 3:27.71 | 131816 | 147411
11 | 32:45.37 | 3:19.25 | 147412 | 162361
12 | 36:04.62 | 3:11.18 | 162362 | 176704
13 | 39:16.05 | 3:08.24 | 176705 | 190828
14 | 42:24.29 | 3:30.15 | 190829 | 206593
15 | 45:54.44 | 3:06.29 | 206594 | 220572
16 | 49:00.73 | 3:16.40 | 220573 | 235312
17 | 52:17.38 | 3:12.62 | 235313 | 249774
18 | 55:30.25 | 3:05.67 | 249775 | 263716
19 | 58:36.17 | 3:03.45 | 263717 | 277486
20 | 61:39.62 | 3:15.20 | 277487 | 292131
21 | 64:55.07 | 3:31.07 | 292132 | 307963
22 | 68:26.14 | 3:12.26 | 307964 | 322389
23 | 71:38.40 | 3:04.72 | 322390 | 336261
24 | 74:43.37 | 3:19.41 | 336262 | 351227


Трек 1

Имя файла R:\Раздача 10\Bessie Smith - 2008 - Squeeze Me (2CD)\CD 1\01 Down Hearted Blues.wav

Длина предзазора 0:00:02.00

Пиковый уровень 87.1 %
Скорость извлечения 2.7 X
Качество трека 100.0 %
CRC теста 367AB608
CRC копии 367AB608
Копирование… OK

Трек 2

Имя файла R:\Раздача 10\Bessie Smith - 2008 - Squeeze Me (2CD)\CD 1\02 Gulf Coast Blues.wav

Длина предзазора 0:00:04.00

Пиковый уровень 87.1 %
Скорость извлечения 2.9 X
Качество трека 100.0 %
CRC теста 6690E089
CRC копии 6690E089
Копирование… OK

Трек 3

Имя файла R:\Раздача 10\Bessie Smith - 2008 - Squeeze Me (2CD)\CD 1\03 Beale Street Mama.wav

Длина предзазора 0:00:04.00

Пиковый уровень 87.1 %
Скорость извлечения 3.2 X
Качество трека 100.0 %
CRC теста F42838E3
CRC копии F42838E3
Копирование… OK

Трек 4

Имя файла R:\Раздача 10\Bessie Smith - 2008 - Squeeze Me (2CD)\CD 1\04 'Tain't Nobody's Bizness If I Do.wav

Длина предзазора 0:00:04.00

Пиковый уровень 87.1 %
Скорость извлечения 3.4 X
Качество трека 100.0 %
CRC теста F2116695
CRC копии F2116695
Копирование… OK

Трек 5

Имя файла R:\Раздача 10\Bessie Smith - 2008 - Squeeze Me (2CD)\CD 1\05 Keeps On A-Rainin'.wav

Длина предзазора 0:00:04.00

Пиковый уровень 87.1 %
Скорость извлечения 3.5 X
Качество трека 100.0 %
CRC теста 170A8972
CRC копии 170A8972
Копирование… OK

Трек 6

Имя файла R:\Раздача 10\Bessie Smith - 2008 - Squeeze Me (2CD)\CD 1\06 Midnight Blues.wav

Длина предзазора 0:00:04.00

Пиковый уровень 87.1 %
Скорость извлечения 3.7 X
Качество трека 100.0 %
CRC теста C4C688FF
CRC копии C4C688FF
Копирование… OK

Трек 7

Имя файла R:\Раздача 10\Bessie Smith - 2008 - Squeeze Me (2CD)\CD 1\07 Jail-House Blues.wav

Длина предзазора 0:00:04.00

Пиковый уровень 87.1 %
Скорость извлечения 3.8 X
Качество трека 100.0 %
CRC теста 3DCF020D
CRC копии 3DCF020D
Копирование… OK

Трек 8

Имя файла R:\Раздача 10\Bessie Smith - 2008 - Squeeze Me (2CD)\CD 1\08 Graveyard Dream Blues.wav

Длина предзазора 0:00:04.00

Пиковый уровень 97.7 %
Скорость извлечения 3.2 X
Качество трека 99.9 %
CRC теста 3E242CA8
CRC копии 3E242CA8
Копирование… OK

Трек 9

Имя файла R:\Раздача 10\Bessie Smith - 2008 - Squeeze Me (2CD)\CD 1\09 Far Away Blues.wav

Длина предзазора 0:00:04.00

Пиковый уровень 87.1 %
Скорость извлечения 4.0 X
Качество трека 100.0 %
CRC теста 5053B5A7
CRC копии 5053B5A7
Копирование… OK

Трек 10

Имя файла R:\Раздача 10\Bessie Smith - 2008 - Squeeze Me (2CD)\CD 1\10 Any Woman's Blues.wav

Длина предзазора 0:00:04.00

Пиковый уровень 87.1 %
Скорость извлечения 4.2 X
Качество трека 100.0 %
CRC теста 9E34AD68
CRC копии 9E34AD68
Копирование… OK

Трек 11

Имя файла R:\Раздача 10\Bessie Smith - 2008 - Squeeze Me (2CD)\CD 1\11 Chicago Bound Blues.wav

Длина предзазора 0:00:04.00

Пиковый уровень 87.1 %
Скорость извлечения 4.4 X
Качество трека 100.0 %
CRC теста AF54B3D5
CRC копии AF54B3D5
Копирование… OK

Трек 12

Имя файла R:\Раздача 10\Bessie Smith - 2008 - Squeeze Me (2CD)\CD 1\12 Easy Come, Easy Go Blues.wav

Длина предзазора 0:00:04.00

Пиковый уровень 87.1 %
Скорость извлечения 3.8 X
Качество трека 99.9 %
CRC теста 45B0AF29
CRC копии 45B0AF29
Копирование… OK

Трек 13

Имя файла R:\Раздача 10\Bessie Smith - 2008 - Squeeze Me (2CD)\CD 1\13 House Rent Blues.wav

Длина предзазора 0:00:04.00

Пиковый уровень 87.1 %
Скорость извлечения 4.5 X
Качество трека 100.0 %
CRC теста 100AFE66
CRC копии 100AFE66
Копирование… OK

Трек 14

Имя файла R:\Раздача 10\Bessie Smith - 2008 - Squeeze Me (2CD)\CD 1\14 Salt Water Blues.wav

Длина предзазора 0:00:04.00

Пиковый уровень 87.1 %
Скорость извлечения 4.8 X
Качество трека 100.0 %
CRC теста 82D9448C
CRC копии 82D9448C
Копирование… OK

Трек 15

Имя файла R:\Раздача 10\Bessie Smith - 2008 - Squeeze Me (2CD)\CD 1\15 Sing Sing Prison Blues.wav

Длина предзазора 0:00:04.00

Пиковый уровень 87.1 %
Скорость извлечения 4.8 X
Качество трека 100.0 %
CRC теста BCAAA721
CRC копии BCAAA721
Копирование… OK

Трек 16

Имя файла R:\Раздача 10\Bessie Smith - 2008 - Squeeze Me (2CD)\CD 1\16 Love Me Daddy Blues.wav

Длина предзазора 0:00:04.00

Пиковый уровень 87.1 %
Скорость извлечения 4.2 X
Качество трека 99.9 %
CRC теста 2DD57E3A
CRC копии 2DD57E3A
Копирование… OK

Трек 17

Имя файла R:\Раздача 10\Bessie Smith - 2008 - Squeeze Me (2CD)\CD 1\17 The St. Louis Blues.wav

Длина предзазора 0:00:04.00

Пиковый уровень 87.1 %
Скорость извлечения 5.0 X
Качество трека 100.0 %
CRC теста 8D753E44
CRC копии 8D753E44
Копирование… OK

Трек 18

Имя файла R:\Раздача 10\Bessie Smith - 2008 - Squeeze Me (2CD)\CD 1\18 Reckless Blues.wav

Длина предзазора 0:00:04.00

Пиковый уровень 87.1 %
Скорость извлечения 4.4 X
Качество трека 99.9 %
CRC теста B4703864
CRC копии B4703864
Копирование… OK

Трек 19

Имя файла R:\Раздача 10\Bessie Smith - 2008 - Squeeze Me (2CD)\CD 1\19 Sobbin' Hearted Blues.wav

Длина предзазора 0:00:04.00

Пиковый уровень 87.1 %
Скорость извлечения 4.4 X
Качество трека 99.9 %
CRC теста 6E167C94
CRC копии 6E167C94
Копирование… OK

Трек 20

Имя файла R:\Раздача 10\Bessie Smith - 2008 - Squeeze Me (2CD)\CD 1\20 Cold In Hand Blues.wav

Длина предзазора 0:00:04.00

Пиковый уровень 89.5 %
Скорость извлечения 5.3 X
Качество трека 100.0 %
CRC теста D56ADADB
CRC копии D56ADADB
Копирование… OK

Трек 21

Имя файла R:\Раздача 10\Bessie Smith - 2008 - Squeeze Me (2CD)\CD 1\21 You've Been A Good Ole Wagon.wav

Длина предзазора 0:00:04.00

Пиковый уровень 87.1 %
Скорость извлечения 5.5 X
Качество трека 100.0 %
CRC теста A835592A
CRC копии A835592A
Копирование… OK

Трек 22

Имя файла R:\Раздача 10\Bessie Smith - 2008 - Squeeze Me (2CD)\CD 1\22 Cake-Walking Babies From Home.wav

Длина предзазора 0:00:04.00

Пиковый уровень 87.1 %
Скорость извлечения 5.5 X
Качество трека 100.0 %
CRC теста 088E589C
CRC копии 088E589C
Копирование… OK

Трек 23

Имя файла R:\Раздача 10\Bessie Smith - 2008 - Squeeze Me (2CD)\CD 1\23 The Yellow Dog Blues.wav

Длина предзазора 0:00:04.00

Пиковый уровень 97.7 %
Скорость извлечения 5.5 X
Качество трека 100.0 %
CRC теста FF1233F9
CRC копии FF1233F9
Копирование… OK

Трек 24

Имя файла R:\Раздача 10\Bessie Smith - 2008 - Squeeze Me (2CD)\CD 1\24 Soft Pedal Blues.wav

Длина предзазора 0:00:04.00

Пиковый уровень 77.8 %
Скорость извлечения 4.9 X
Качество трека 99.9 %
CRC теста 1213614F
CRC копии 1213614F
Копирование… OK

Ошибок не произошло

Конец отчёта

==== Контрольная сумма отчёта 32D8E9A62448D560244C22BFB786A87C8B5198400BB61B28E98F211BF15AD69C ====

[CUETools log; Date: 24.07.2018 23:33:21; Version: 2.1.4]
[CTDB TOCID: 5zWRuIe2qf7aVmdNPrtLBbXRO.8-] found.
Track | CTDB Status
1 | (1/1) Accurately ripped
2 | (1/1) Accurately ripped
3 | (1/1) Accurately ripped
4 | (1/1) Accurately ripped
5 | (1/1) Accurately ripped
6 | (1/1) Accurately ripped
7 | (1/1) Accurately ripped
8 | (1/1) Accurately ripped
9 | (1/1) Accurately ripped
10 | (1/1) Accurately ripped
11 | (1/1) Accurately ripped
12 | (1/1) Accurately ripped
13 | (1/1) Accurately ripped
14 | (1/1) Accurately ripped
15 | (1/1) Accurately ripped
16 | (1/1) Accurately ripped
17 | (1/1) Accurately ripped
18 | (1/1) Accurately ripped
19 | (1/1) Accurately ripped
20 | (1/1) Accurately ripped
21 | (1/1) Accurately ripped
22 | (1/1) Accurately ripped
23 | (1/1) Accurately ripped
24 | (1/1) Accurately ripped
[AccurateRip ID: 0043620a-048cb320-58124b18] found.
Track [ CRC | V2 ] Status
01 [26854479|049aaca1] (0+0/7) No match
02 [2c418ade|cb44ff4a] (0+0/7) No match
03 [8d4d6f92|67433003] (0+0/7) No match
04 [a8886815|69e34927] (0+0/7) No match
05 [0a451a70|a4bb1cd3] (0+0/7) No match
06 [5a100f0c|75e55c2e] (0+0/7) No match
07 [85156ee3|444d4ce8] (0+0/7) No match
08 [c5a6f05c|70f19745] (0+0/7) No match
09 [7af835a0|489e328d] (0+0/7) No match
10 [9fb67a9b|b2bd7094] (0+0/7) No match
11 [b1177894|4f705e4f] (0+0/7) No match
12 [f6ef9257|3e658c82] (0+0/7) No match
13 [b02aa7d5|101d861a] (0+0/7) No match
14 [7dce7418|c6f57d3a] (0+0/7) No match
15 [617bcf22|2287ce88] (0+0/5) No match
16 [f16b004a|0aec2a76] (0+0/5) No match
17 [60765fb9|ee2fba76] (0+0/5) No match
18 [d10b9e1c|9b3428b2] (0+0/5) No match
19 [c366460a|e99c998d] (0+0/5) No match
20 [c4710cf7|34853ff5] (0+0/4) No match
21 [faf67ded|0621ee4a] (0+0/4) No match
22 [4a38e3dc|d23a51cb] (0+0/6) No match
23 [90a2bc08|8eaab8c7] (0+0/6) No match
24 [c6339188|3b16a308] (0+0/4) No match
Offsetted by -676:
01 [75cef9eb] (4/7) Accurately ripped
02 [33c24a16] (4/7) Accurately ripped
03 [631a2696] (4/7) Accurately ripped
04 [fd5966b5] (4/7) Accurately ripped
05 [f3459f00] (4/7) Accurately ripped
06 [f1a73b98] (4/7) Accurately ripped
07 [1b7af4bf] (4/7) Accurately ripped
08 [518ffae8] (4/7) Accurately ripped
09 [7ddc3f70] (4/7) Accurately ripped
10 [289c5da7] (4/7) Accurately ripped
11 [8b221050] (4/7) Accurately ripped
12 [7bf9f773] (4/7) Accurately ripped
13 [dd284785] (4/7) Accurately ripped
14 [6936ff58] (4/7) Accurately ripped
15 [50e89b7e] (2/5) Accurately ripped
16 [e1378806] (2/5) Accurately ripped
17 [95f1a295] (2/5) Accurately ripped
18 [1e331520] (2/5) Accurately ripped
19 [9e3d48fe] (2/5) Accurately ripped
20 [065fee37] (2/4) Accurately ripped
21 [6a4d8be5] (2/4) Accurately ripped
22 [68ded0c4] (3/6) Accurately ripped
23 [9fd9b704] (3/6) Accurately ripped
24 [20bc8e1c] (2/4) Accurately ripped

Track Peak [ CRC32 ] [W/O NULL] [ LOG ]
– 97,7 [79A8BCD2] [70D65FF8]
01 87,1 [367AB608] [D59CD997] CRC32
02 87,1 [6690E089] [0A1A0DC1] CRC32
03 87,1 [F42838E3] [ED06DE86] CRC32
04 87,1 [F2116695] [341A96E0] CRC32
05 87,1 [170A8972] [C2EA4197] CRC32
06 87,1 [C4C688FF] [644E5AC4] CRC32
07 87,1 [3DCF020D] [530ED695] CRC32
08 97,7 [3E242CA8] [465BBFD4] CRC32
09 87,1 [5053B5A7] [47ECD666] CRC32
10 87,1 [9E34AD68] [A0E3B619] CRC32
11 87,1 [AF54B3D5] [91CADB5D] CRC32
12 87,1 [45B0AF29] [5B9154D8] CRC32
13 87,1 [100AFE66] [B8764577] CRC32
14 87,1 [82D9448C] [147239D5] CRC32
15 87,1 [BCAAA721] [D11A8F6E] CRC32
16 87,1 [2DD57E3A] [E3653B52] CRC32
17 87,1 [8D753E44] [E2B836F6] CRC32
18 87,1 [B4703864] [8351F418] CRC32
19 87,1 [6E167C94] [F23E36C4] CRC32
20 89,5 [D56ADADB] [CFBB2333] CRC32
21 87,1 [A835592A] [C2D6C984] CRC32
22 87,1 [088E589C] [BA8C8AB6] CRC32
23 97,7 [FF1233F9] [EEB4EF5E] CRC32
24 77,8 [1213614F] [64271744] CRC32

foobar2000 1.2 / Dynamic Range Meter 1.1.1
log date: 2018-09-20 19:22:56

––––––––––––––––––––––––––––––––––––––––
Analyzed: Bessie Smith / Squeeze me CD1
––––––––––––––––––––––––––––––––––––––––

DR Peak RMS Duration Track
––––––––––––––––––––––––––––––––––––––––
DR10 -1.20 dB -13.58 dB 3:28 01-Down Hearted Blues
DR9 -1.20 dB -14.56 dB 3:07 02-Gulf Coast Blues
DR10 -1.20 dB -13.77 dB 3:37 03-Beale Street Mama
DR10 -1.20 dB -13.95 dB 3:30 04-'Tain't Nobody's Bizness If I Do
DR8 -1.20 dB -12.04 dB 3:10 05-Keeps On A-Rainin'
DR7 -1.20 dB -11.55 dB 3:20 06-Midnight Blues
DR9 -1.20 dB -13.17 dB 3:16 07-Jail-House Blues
DR10 -0.20 dB -13.17 dB 2:46 08-Graveyard Dream Blues
DR9 -1.20 dB -12.87 dB 3:03 09-Far Away Blues
DR10 -1.20 dB -13.74 dB 3:28 10-Any Woman's Blues
DR10 -1.20 dB -14.73 dB 3:19 11-Chicago Bound Blues
DR11 -1.20 dB -14.92 dB 3:11 12-Easy Come, Easy Go Blues
DR9 -1.20 dB -12.97 dB 3:08 13-House Rent Blues
DR10 -1.20 dB -14.02 dB 3:30 14-Salt Water Blues
DR8 -1.20 dB -11.68 dB 3:06 15-Sing Sing Prison Blues
DR9 -1.20 dB -14.26 dB 3:17 16-Love Me Daddy Blues
DR8 -1.20 dB -12.21 dB 3:13 17-The St. Louis Blues
DR9 -1.20 dB -11.80 dB 3:06 18-Reckless Blues
DR8 -1.20 dB -11.53 dB 3:04 19-Sobbin' Hearted Blues
DR8 -0.96 dB -11.83 dB 3:15 20-Cold In Hand Blues
DR9 -1.20 dB -11.49 dB 3:31 21-You've Been A Good Ole Wagon
DR11 -1.20 dB -15.25 dB 3:12 22-Cake-Walking Babies From Home
DR9 -0.20 dB -11.38 dB 3:05 23-The Yellow Dog Blues
DR10 -2.17 dB -14.12 dB 3:20 24-Soft Pedal Blues
––––––––––––––––––––––––––––––––––––––––

Number of tracks: 24
Official DR value: DR9

Samplerate: 44100 Hz
Channels: 2
Bits per sample: 16
Bitrate: 490 kbps
Codec: FLAC
================================================================================


Exact Audio Copy V1.0 beta 3 from 29. August 2011

Отчёт EAC об извлечении, выполненном 19. февраля 2014, 18:04

Bessie Smith / Squeeze Me CD2

Дисковод: ASUS DRW-1814BLT Adapter: 4 ID: 0

Режим чтения : Достоверность
Использование точного потока : Да
Отключение кэша аудио : Да
Использование указателей C2 : Нет

Коррекция смещения при чтении : 6
Способность читать области Lead-in и Lead-out : Нет
Заполнение пропущенных сэмплов тишиной : Да
Удаление блоков с тишиной в начале и конце : Нет
При вычислениях CRC использовались нулевые сэмплы : Да
Интерфейс : Встроенный Win32-интерфейс для Win NT/2000
Обработка зазоров : Добавлено к предыдущему треку

Выходной формат : Пользовательский кодировщик
Выбранный битрейт : 128 kBit/s
Качество : Высокий
Добавление ID3-тега : Нет
Утилита сжатия : C:\Program Files\Exact Audio Copy\Flac\flac.exe
Дополнительные параметры : -V -8 -T "Genre=%genre%" -T "Artist=%artist%" -T "Title=%title%" -T "Album=%albumtitle%" -T "Date=%year%" -T "Tracknumber=%tracknr%" -T "Comment=EAC1.0b2 FLAC -8" %source%


TOC извлечённого CD

Трек | Старт | Длительность | Начальный сектор | Конечный сектор
––––––––––––––––––––––––––––––––––-
1 | 0:00.00 | 3:42.46 | 0 | 16695
2 | 3:42.46 | 3:28.06 | 16696 | 32301
3 | 7:10.52 | 2:54.28 | 32302 | 45379
4 | 10:05.05 | 2:58.53 | 45380 | 58782
5 | 13:03.58 | 2:54.48 | 58783 | 71880
6 | 15:58.31 | 3:12.51 | 71881 | 86331
7 | 19:11.07 | 3:10.29 | 86332 | 100610
8 | 22:21.36 | 2:53.12 | 100611 | 113597
9 | 25:14.48 | 2:42.73 | 113598 | 125820
10 | 27:57.46 | 3:01.60 | 125821 | 139455
11 | 30:59.31 | 3:15.12 | 139456 | 154092
12 | 34:14.43 | 3:14.32 | 154093 | 168674
13 | 37:29.00 | 3:01.70 | 168675 | 182319
14 | 40:30.70 | 2:56.62 | 182320 | 195581
15 | 43:27.57 | 2:55.66 | 195582 | 208772
16 | 46:23.48 | 6:24.47 | 208773 | 237619
17 | 52:48.20 | 3:27.00 | 237620 | 253144
18 | 56:15.20 | 2:52.59 | 253145 | 266103
19 | 59:08.04 | 2:59.45 | 266104 | 279573
20 | 62:07.49 | 3:05.00 | 279574 | 293448
21 | 65:12.49 | 2:56.25 | 293449 | 306673
22 | 68:08.74 | 2:58.51 | 306674 | 320074
23 | 71:07.50 | 3:23.42 | 320075 | 335341
24 | 74:31.17 | 2:35.59 | 335342 | 347025


Трек 1

Имя файла R:\Раздача 10\Bessie Smith - 2008 - Squeeze Me (2CD)\CD 2\01 Nashville Women's Blues.wav

Длина предзазора 0:00:02.00

Пиковый уровень 88.2 %
Скорость извлечения 5.4 X
Качество трека 100.0 %
CRC теста D80E7DB0
CRC копии D80E7DB0
Копирование… OK

Трек 2

Имя файла R:\Раздача 10\Bessie Smith - 2008 - Squeeze Me (2CD)\CD 2\02 Careless Love Blues.wav

Длина предзазора 0:00:04.00

Пиковый уровень 62.0 %
Скорость извлечения 5.7 X
Качество трека 100.0 %
CRC теста 499C8E4A
CRC копии 499C8E4A
Копирование… OK

Трек 3

Имя файла R:\Раздача 10\Bessie Smith - 2008 - Squeeze Me (2CD)\CD 2\03 Nobody's Blues But Mine.wav

Длина предзазора 0:00:04.00

Пиковый уровень 72.1 %
Скорость извлечения 5.9 X
Качество трека 100.0 %
CRC теста 36234C51
CRC копии 36234C51
Копирование… OK

Трек 4

Имя файла R:\Раздача 10\Bessie Smith - 2008 - Squeeze Me (2CD)\CD 2\04 I've Been Mistreated And I Don't Like It.wav

Длина предзазора 0:00:04.00

Пиковый уровень 100.0 %
Скорость извлечения 6.3 X
Качество трека 100.0 %
CRC теста 027E6F70
CRC копии 027E6F70
Копирование… OK

Трек 5

Имя файла R:\Раздача 10\Bessie Smith - 2008 - Squeeze Me (2CD)\CD 2\05 Squeeze Me.wav

Длина предзазора 0:00:04.00

Пиковый уровень 84.6 %
Скорость извлечения 5.5 X
Качество трека 99.9 %
CRC теста 0B6B5150
CRC копии 0B6B5150
Копирование… OK

Трек 6

Имя файла R:\Раздача 10\Bessie Smith - 2008 - Squeeze Me (2CD)\CD 2\06 Money Blues.wav

Длина предзазора 0:00:04.00

Пиковый уровень 87.4 %
Скорость извлечения 7.0 X
Качество трека 100.0 %
CRC теста 2C03CF41
CRC копии 2C03CF41
Копирование… OK

Трек 7

Имя файла R:\Раздача 10\Bessie Smith - 2008 - Squeeze Me (2CD)\CD 2\07 Young Woman's Blues.wav

Длина предзазора 0:00:04.00

Пиковый уровень 69.1 %
Скорость извлечения 7.2 X
Качество трека 100.0 %
CRC теста 2D13A512
CRC копии 2D13A512
Копирование… OK

Трек 8

Имя файла R:\Раздача 10\Bessie Smith - 2008 - Squeeze Me (2CD)\CD 2\08 Preachin' The Blues.wav

Длина предзазора 0:00:04.00

Пиковый уровень 82.7 %
Скорость извлечения 7.3 X
Качество трека 100.0 %
CRC теста 0F9AAD89
CRC копии 0F9AAD89
Копирование… OK

Трек 9

Имя файла R:\Раздача 10\Bessie Smith - 2008 - Squeeze Me (2CD)\CD 2\09 Back Water Blues.wav

Длина предзазора 0:00:04.00

Пиковый уровень 85.4 %
Скорость извлечения 6.3 X
Качество трека 99.9 %
CRC теста D5F05260
CRC копии D5F05260
Копирование… OK

Трек 10

Имя файла R:\Раздача 10\Bessie Smith - 2008 - Squeeze Me (2CD)\CD 2\10 Alexander's Ragtime Band.wav

Длина предзазора 0:00:04.00

Пиковый уровень 70.4 %
Скорость извлечения 7.8 X
Качество трека 100.0 %
CRC теста 9CB9D157
CRC копии 9CB9D157
Копирование… OK

Трек 11

Имя файла R:\Раздача 10\Bessie Smith - 2008 - Squeeze Me (2CD)\CD 2\11 Muddy Water.wav

Длина предзазора 0:00:04.00

Пиковый уровень 86.4 %
Скорость извлечения 8.1 X
Качество трека 100.0 %
CRC теста 9CB39AC2
CRC копии 9CB39AC2
Копирование… OK

Трек 12

Имя файла R:\Раздача 10\Bessie Smith - 2008 - Squeeze Me (2CD)\CD 2\12 Trombone Cholly.wav

Длина предзазора 0:00:04.00

Пиковый уровень 83.3 %
Скорость извлечения 8.3 X
Качество трека 100.0 %
CRC теста 6284FB4C
CRC копии 6284FB4C
Копирование… OK

Трек 13

Имя файла R:\Раздача 10\Bessie Smith - 2008 - Squeeze Me (2CD)\CD 2\13 A Good Man Is Hard To Find.wav

Длина предзазора 0:00:04.00

Пиковый уровень 92.9 %
Скорость извлечения 7.2 X
Качество трека 99.9 %
CRC теста F9608553
CRC копии F9608553
Копирование… OK

Трек 14

Имя файла R:\Раздача 10\Bessie Smith - 2008 - Squeeze Me (2CD)\CD 2\14 Foolish Man Blues.wav

Длина предзазора 0:00:04.00

Пиковый уровень 74.7 %
Скорость извлечения 8.7 X
Качество трека 100.0 %
CRC теста 4FA3127A
CRC копии 4FA3127A
Копирование… OK

Трек 15

Имя файла R:\Раздача 10\Bessie Smith - 2008 - Squeeze Me (2CD)\CD 2\15 Standin' In The Rain Blues.wav

Длина предзазора 0:00:04.00

Пиковый уровень 91.1 %
Скорость извлечения 8.8 X
Качество трека 100.0 %
CRC теста CBA19936
CRC копии CBA19936
Копирование… OK

Трек 16

Имя файла R:\Раздача 10\Bessie Smith - 2008 - Squeeze Me (2CD)\CD 2\16 Empty Bed Blues.wav

Длина предзазора 0:00:04.00

Пиковый уровень 93.2 %
Скорость извлечения 10.2 X
Качество трека 100.0 %
CRC теста 42B980C7
CRC копии 42B980C7
Копирование… OK

Трек 17

Имя файла R:\Раздача 10\Bessie Smith - 2008 - Squeeze Me (2CD)\CD 2\17 Poor Man's Blues.wav

Длина предзазора 0:00:04.00

Пиковый уровень 96.4 %
Скорость извлечения 9.6 X
Качество трека 100.0 %
CRC теста DF63AEFB
CRC копии DF63AEFB
Копирование… OK

Трек 18

Имя файла R:\Раздача 10\Bessie Smith - 2008 - Squeeze Me (2CD)\CD 2\18 Me And My Gin.wav

Длина предзазора 0:00:04.00

Пиковый уровень 90.0 %
Скорость извлечения 9.7 X
Качество трека 100.0 %
CRC теста 8A0288F8
CRC копии 8A0288F8
Копирование… OK

Трек 19

Имя файла R:\Раздача 10\Bessie Smith - 2008 - Squeeze Me (2CD)\CD 2\19 Nobody Knows You When….wav

Длина предзазора 0:00:04.00

Пиковый уровень 89.7 %
Скорость извлечения 7.6 X
Качество трека 99.9 %
CRC теста 6F9ED930
CRC копии 6F9ED930
Копирование… OK

Трек 20

Имя файла R:\Раздача 10\Bessie Smith - 2008 - Squeeze Me (2CD)\CD 2\20 Wasted Life Blues.wav

Длина предзазора 0:00:04.00

Пиковый уровень 100.0 %
Скорость извлечения 8.5 X
Качество трека 100.0 %
CRC теста 46E7738B
CRC копии 46E7738B
Копирование… OK

Трек 21

Имя файла R:\Раздача 10\Bessie Smith - 2008 - Squeeze Me (2CD)\CD 2\21 Blue Spirit Blues.wav

Длина предзазора 0:00:04.00

Пиковый уровень 91.5 %
Скорость извлечения 8.6 X
Качество трека 100.0 %
CRC теста 6ECD053A
CRC копии 6ECD053A
Копирование… OK

Трек 22

Имя файла R:\Раздача 10\Bessie Smith - 2008 - Squeeze Me (2CD)\CD 2\22 On Revival Day.wav

Длина предзазора 0:00:04.00

Пиковый уровень 84.2 %
Скорость извлечения 8.8 X
Качество трека 100.0 %
CRC теста B6CEAFB3
CRC копии B6CEAFB3
Копирование… OK

Трек 23

Имя файла R:\Раздача 10\Bessie Smith - 2008 - Squeeze Me (2CD)\CD 2\23 Shipwreck Blues.wav

Длина предзазора 0:00:04.00

Пиковый уровень 72.7 %
Скорость извлечения 9.1 X
Качество трека 100.0 %
CRC теста 0EC6369B
CRC копии 0EC6369B
Копирование… OK

Трек 24

Имя файла R:\Раздача 10\Bessie Smith - 2008 - Squeeze Me (2CD)\CD 2\24 Take Me For A Buggy Ride.wav

Длина предзазора 0:00:04.00

Пиковый уровень 76.6 %
Скорость извлечения 8.8 X
Качество трека 100.0 %
CRC теста C974C0CB
CRC копии C974C0CB
Копирование… OK

Ошибок не произошло

Конец отчёта

==== Контрольная сумма отчёта 756861F3D266CC5372C203895D39548DAF894ECDD59B9CD6C228EAD8571F09BF ====

[CUETools log; Date: 24.07.2018 23:33:42; Version: 2.1.4]
[CTDB TOCID: VAWeg8IoWiaA_MrMig2_U6ttt0w-] disk not present in database.
[AccurateRip ID: 00423670-047e054b-5c121318] found.
Track [ CRC | V2 ] Status
01 [cfc26637|e2507f3a] (0+0/6) No match
02 [6a89fccc|9b5835b6] (0+0/6) No match
03 [7b74506b|55f745cb] (0+0/6) No match
04 [2bc2866b|36c4a3ba] (0+0/6) No match
05 [6fa6acc7|98d77ce3] (0+0/6) No match
06 [f7d89165|3310fcd0] (0+0/6) No match
07 [58d19993|5f6dd757] (0+0/6) No match
08 [7f3e6f23|09139140] (0+0/6) No match
09 [182bbe08|2d18ab09] (0+0/6) No match
10 [31f62002|f3cc2aa7] (0+0/6) No match
11 [feb923d8|a460a20f] (0+0/6) No match
12 [4a5f62b0|6dec68cc] (0+0/5) No match
13 [08da62e0|f86a71c6] (0+0/5) No match
14 [58c6dbdb|3500565b] (0+0/5) No match
15 [2c2c8952|9c0afefc] (0+0/5) No match
16 [b7c39eae|f7d42ca9] (0+0/3) No match
17 [7034f5d5|3c1c1f48] (0+0/3) No match
18 [746f973f|4d18ee5f] (0+0/5) No match
19 [1deb5ab8|8f124a17] (0+0/5) No match
20 [0d873f64|77d0b720] (0+0/5) No match
21 [e13176ad|cab459b9] (0+0/6) No match
22 [c9ff1cc6|3c2ab61e] (0+0/4) No match
23 [083a7e6c|4bb600e5] (0+0/4) No match
24 [196e0ab0|8a110420] (0+0/5) No match
Offsetted by -676:
01 [9939498d] (3/6) Accurately ripped
02 [b57bcda8] (3/6) Accurately ripped
03 [9ba70f2b] (3/6) Accurately ripped
04 [29009f4b] (3/6) Accurately ripped
05 [0762dcfb] (3/6) Accurately ripped
06 [b8e736cd] (3/6) Accurately ripped
07 [8b19e67f] (3/6) Accurately ripped
08 [83e1fbd7] (3/6) Accurately ripped
09 [d55ee1b8] (3/6) Accurately ripped
10 [d26e19de] (3/6) Accurately ripped
11 [e9a0fd00] (3/6) Accurately ripped
12 [5f2843c0] (2/5) Accurately ripped
13 [a616e108] (2/5) Accurately ripped
14 [085235af] (2/5) Accurately ripped
15 [d3724172] (2/5) Accurately ripped
16 [fcf9cc6e] (0/3) No match (V2 was not tested)
17 [0fe6f5f5] (0/3) No match (V2 was not tested)
18 [dfdd5273] (2/5) Accurately ripped
19 [f0805f08] (2/5) Accurately ripped
20 [f614b8e4] (3/5) Accurately ripped
21 [689c0549] (3/6) Accurately ripped
22 [eed71582] (2/4) Accurately ripped
23 [c7f7b80c] (2/4) Accurately ripped
24 [4034b904] (3/5) Accurately ripped

Track Peak [ CRC32 ] [W/O NULL] [ LOG ]
– 100,0 [D62CA510] [26557AEA]
01 88,2 [D80E7DB0] [410736C3] CRC32
02 62,0 [499C8E4A] [810C5820] CRC32
03 72,1 [36234C51] [C349F6CE] CRC32
04 100,0 [027E6F70] [399E5E4E] CRC32
05 84,6 [0B6B5150] [B82E9C1C] CRC32
06 87,4 [2C03CF41] [D2914D4B] CRC32
07 69,1 [2D13A512] [BD43684C] CRC32
08 82,7 [0F9AAD89] [57A06017] CRC32
09 85,4 [D5F05260] [77637639] CRC32
10 70,4 [9CB9D157] [3A6DF8A2] CRC32
11 86,4 [9CB39AC2] [B6231013] CRC32
12 83,3 [6284FB4C] [F6B6B004] CRC32
13 92,9 [F9608553] [388412A7] CRC32
14 74,7 [4FA3127A] [0116EC7B] CRC32
15 91,1 [CBA19936] [80D2D220] CRC32
16 93,2 [42B980C7] [800C9288] CRC32
17 96,4 [DF63AEFB] [EC813A00] CRC32
18 90,0 [8A0288F8] [4812FB60] CRC32
19 89,7 [6F9ED930] [E7FB6626] CRC32
20 100,0 [46E7738B] [06B1C3EF] CRC32
21 91,5 [6ECD053A] [ECD481C3] CRC32
22 84,2 [B6CEAFB3] [0CEFC6BF] CRC32
23 72,7 [0EC6369B] [7895FDFC] CRC32
24 76,6 [C974C0CB] [540FCDA6] CRC32

foobar2000 1.2 / Dynamic Range Meter 1.1.1
log date: 2018-09-20 19:23:26

––––––––––––––––––––––––––––––––––––––––
Analyzed: Bessie Smith / Squeeze Me CD2
––––––––––––––––––––––––––––––––––––––––

DR Peak RMS Duration Track
––––––––––––––––––––––––––––––––––––––––
DR12 -1.09 dB -16.54 dB 3:43 01-Nashville Women's Blues
DR8 -4.14 dB -13.87 dB 3:28 02-Careless Love Blues
DR8 -2.84 dB -13.02 dB 2:54 03-Nobody's Blues But Mine
DR9 0.00 dB -12.25 dB 2:59 04-I've Been Mistreated And I Don't Like It
DR9 -1.45 dB -13.02 dB 2:55 05-Squeeze Me
DR10 -1.17 dB -14.02 dB 3:13 06-Money Blues
DR9 -3.21 dB -14.60 dB 3:10 07-Young Woman's Blues
DR10 -1.64 dB -14.15 dB 2:53 08-Preachin' The Blues
DR12 -1.37 dB -15.80 dB 2:43 09-Back Water Blues
DR9 -3.05 dB -14.64 dB 3:02 10-Alexander's Ragtime Band
DR11 -1.26 dB -15.22 dB 3:15 11-Muddy Water
DR11 -1.58 dB -15.64 dB 3:14 12-Trombone Cholly
DR11 -0.64 dB -15.03 dB 3:02 13-A Good Man Is Hard To Find
DR11 -2.53 dB -16.87 dB 2:57 14-Foolish Man Blues
DR10 -0.80 dB -15.02 dB 2:56 15-Standin' In The Rain Blues
DR11 -0.61 dB -14.79 dB 6:25 16-Empty Bed Blues
DR12 -0.31 dB -16.60 dB 3:27 17-Poor Man's Blues
DR11 -0.91 dB -16.25 dB 2:53 18-Me And My Gin
DR10 -0.94 dB -13.50 dB 3:00 19-Nobody Knows You When…
DR13 0.00 dB -16.07 dB 3:05 20-Wasted Life Blues
DR13 -0.77 dB -16.94 dB 2:56 21-Blue Spirit Blues
DR12 -1.49 dB -15.83 dB 2:59 22-On Revival Day
DR12 -2.76 dB -16.77 dB 3:24 23-Shipwreck Blues
DR12 -2.31 dB -16.80 dB 2:36 24-Take Me For A Buggy Ride
––––––––––––––––––––––––––––––––––––––––

Number of tracks: 24
Official DR value: DR11

Samplerate: 44100 Hz
Channels: 2
Bits per sample: 16
Bitrate: 545 kbps
Codec: FLAC
================================================================================

Bessie Smith - Squeeze Me (2008) 2CDs

All thanks to original releaser

More interesting music in My Blog