Tags
Language
Tags

Beto & Kara - Crystal Flakes (1988)

Posted By: v3122
Beto & Kara - Crystal Flakes (1988)

Lazy Cowgirls - Tapping The Source (1987)
EAC | Flac(Image) + Cue + Log & MP3 CBR 320Kbps
Bomp! Records / BCD-4025 | ~ 211 or 70 Mb | Scans(jpg) -> 15 Mb
Punk Rock

In 1989 Beto & Kara's debut album "Crystal Flakes" was released with great success. This publication has been praised worldwide and was honored with predicates such as "Audiophile CD of the month", "Newcomer of the Year", etc…
Beto & Kara - Crystal Flakes (1988):

Beto & Kara - Crystal Flakes (1988)

Tracklist:

01. Mozinho (5:35)
02. Tea Tee Cha (4:19)
03. Crystal Flakes (4:29)
04. Smoked Out Blues (4:30)
05. Falling October (4:34)
06. New Song (3:40)
07. Desert Sculptures (3:46)
08. Blue Nude Caper (4:15)

Exact Audio Copy V1.3 from 2. September 2016

EAC extraction logfile from 17. March 2019, 17:40

Beto & Kara / Crystal Flakes

Used drive : HL-DT-STDVDRAM GTA0N Adapter: 1 ID: 0

Read mode : Secure
Utilize accurate stream : Yes
Defeat audio cache : Yes
Make use of C2 pointers : No

Read offset correction : 102
Overread into Lead-In and Lead-Out : No
Fill up missing offset samples with silence : Yes
Delete leading and trailing silent blocks : No
Null samples used in CRC calculations : Yes
Used interface : Native Win32 interface for Win NT & 2000
Gap handling : Appended to previous track

Used output format : User Defined Encoder
Selected bitrate : 1024 kBit/s
Quality : High
Add ID3 tag : No
Command line compressor : C:\Program Files (x86)\Exact Audio Copy\FLAC\FLAC.EXE
Additional command line options : -8 -e -p -V -T "ARTIST=%artist%" -T "TITLE=%title%" -T "ALBUM=%albumtitle%" -T "DATE=%year%" -T "TRACKNUMBER=%tracknr%" -T "GENRE=%genre%" -T "PERFORMER=%albuminterpret%" -T "COMPOSER=%composer%" %haslyrics%–tag-from-file=LYRICS="%lyricsfile%"%haslyrics% -T "ALBUMARTIST=%albumartist%" -T "DISCNUMBER=%cdnumber%" -T "TOTALDISCS=%totalcds%" -T "TOTALTRACKS=%numtracks%" -T "COMMENT=%comment%" %source% -o %dest%


TOC of the extracted CD

Track | Start | Length | Start sector | End sector
––––––––––––––––––––––––––––-
1 | 0:00.00 | 5:34.52 | 0 | 25101
2 | 5:34.52 | 4:19.25 | 25102 | 44551
3 | 9:54.02 | 4:28.63 | 44552 | 64714
4 | 14:22.65 | 4:30.15 | 64715 | 84979
5 | 18:53.05 | 4:33.60 | 84980 | 105514
6 | 23:26.65 | 3:40.27 | 105515 | 122041
7 | 27:07.17 | 3:46.15 | 122042 | 139006
8 | 30:53.32 | 4:14.73 | 139007 | 158129


Track 1

Filename C:\EAC Rips\(1988) Beto & Kara - Crystal Flakes {AH Records ‎AH-401 031-38} [CD FLAC]\01 - Mozinho.wav

Pre-gap length 0:00:02.00

Peak level 95.9 %
Extraction speed 1.3 X
Track quality 100.0 %
Test CRC 93757050
Copy CRC 93757050
Accurately ripped (confidence 2) [76AF581C] (AR v2)
Copy OK

Track 2

Filename C:\EAC Rips\(1988) Beto & Kara - Crystal Flakes {AH Records ‎AH-401 031-38} [CD FLAC]\02 - Tea Tee Cha.wav

Pre-gap length 0:00:05.00

Peak level 91.5 %
Extraction speed 1.5 X
Track quality 100.0 %
Test CRC AADADDD9
Copy CRC AADADDD9
Accurately ripped (confidence 2) [56A56269] (AR v2)
Copy OK

Track 3

Filename C:\EAC Rips\(1988) Beto & Kara - Crystal Flakes {AH Records ‎AH-401 031-38} [CD FLAC]\03 - Crystal Flakes.wav

Pre-gap length 0:00:02.69

Peak level 64.9 %
Extraction speed 1.6 X
Track quality 100.0 %
Test CRC C9534D9F
Copy CRC C9534D9F
Accurately ripped (confidence 2) [8F8DCB6F] (AR v2)
Copy OK

Track 4

Filename C:\EAC Rips\(1988) Beto & Kara - Crystal Flakes {AH Records ‎AH-401 031-38} [CD FLAC]\04 - Smoked out blues.wav

Pre-gap length 0:00:04.57

Peak level 59.9 %
Extraction speed 1.7 X
Track quality 100.0 %
Test CRC F819FA1C
Copy CRC F819FA1C
Accurately ripped (confidence 3) [5E14928E] (AR v1)
Copy OK

Track 5

Filename C:\EAC Rips\(1988) Beto & Kara - Crystal Flakes {AH Records ‎AH-401 031-38} [CD FLAC]\05 - Falling October.wav

Pre-gap length 0:00:03.44

Peak level 77.9 %
Extraction speed 1.8 X
Track quality 100.0 %
Test CRC D749D281
Copy CRC D749D281
Accurately ripped (confidence 2) [97744D62] (AR v2)
Copy OK

Track 6

Filename C:\EAC Rips\(1988) Beto & Kara - Crystal Flakes {AH Records ‎AH-401 031-38} [CD FLAC]\06 - New Song.wav

Pre-gap length 0:00:01.80

Peak level 100.0 %
Extraction speed 1.9 X
Track quality 100.0 %
Test CRC 368B6F34
Copy CRC 368B6F34
Accurately ripped (confidence 2) [CE5A8655] (AR v2)
Copy OK

Track 7

Filename C:\EAC Rips\(1988) Beto & Kara - Crystal Flakes {AH Records ‎AH-401 031-38} [CD FLAC]\07 - Desert sculptures.wav

Pre-gap length 0:00:05.40

Peak level 57.8 %
Extraction speed 2.0 X
Track quality 100.0 %
Test CRC 2494F911
Copy CRC 2494F911
Accurately ripped (confidence 2) [2A92258A] (AR v2)
Copy OK

Track 8

Filename C:\EAC Rips\(1988) Beto & Kara - Crystal Flakes {AH Records ‎AH-401 031-38} [CD FLAC]\08 - Blue Nude Chapter.wav

Pre-gap length 0:00:01.53

Peak level 77.4 %
Extraction speed 1.8 X
Track quality 99.9 %
Test CRC D93E6CE5
Copy CRC D93E6CE5
Accurately ripped (confidence 2) [4E4D1A98] (AR v2)
Copy OK


All tracks accurately ripped

No errors occurred

End of status report

–– CUETools DB Plugin V2.1.6

[CTDB TOCID: 9jXMrBGmqNnwy7q2Kfb7pQaPEEE-] found
Submit result: 9jXMrBGmqNnwy7q2Kfb7pQaPEEE- has been confirmed
Track | CTDB Status
1 | (8/9) Accurately ripped
2 | (8/9) Accurately ripped
3 | (8/9) Accurately ripped
4 | (8/9) Accurately ripped
5 | (8/9) Accurately ripped
6 | (8/9) Accurately ripped
7 | (8/9) Accurately ripped
8 | (9/9) Accurately ripped


==== Log checksum 98A8B6421B06455B2D49548406B5F775F91653EE67963D1E7DC9211071C82ED3 ====


[CUETools log; Date: 19.03.2019 8:42:26; Version: 2.1.4]
[AccurateRip ID: 000b5a6b-004a9e77-70083c08] found.
Track [ CRC | V2 ] Status
01 [76011f4b|76af581c] (2+2/4) Accurately ripped
02 [ee9f30a1|56a56269] (3+2/5) Accurately ripped
03 [91b3f153|8f8dcb6f] (3+2/5) Accurately ripped
04 [5e14928e|06b3b3fb] (3+0/3) Accurately ripped
05 [0bd4eb88|97744d62] (3+2/5) Accurately ripped
06 [03b63f39|ce5a8655] (3+2/5) Accurately ripped
07 [96df82b9|2a92258a] (3+2/5) Accurately ripped
08 [5eb14c8f|4e4d1a98] (3+2/5) Accurately ripped

Track Peak [ CRC32 ] [W/O NULL] [ LOG ]
– 100,0 [00DC10A5] [B7D7DB8E]
01 95,9 [93757050] [82D6AB89] CRC32
02 91,5 [AADADDD9] [6A639D20] CRC32
03 64,9 [C9534D9F] [2B94AB44] CRC32
04 59,9 [F819FA1C] [388BA549] CRC32
05 77,9 [D749D281] [F47751DC] CRC32
06 100,0 [368B6F34] [2E8583C0] CRC32
07 57,8 [2494F911] [C70DAF74] CRC32
08 77,4 [D93E6CE5] [EDB8B423] CRC32


Beto & Kara - Crystal Flakes (1988)

All thanks go to the original releaser

Download Beto & Kara - Crystal Flakes (1988):