Tags
Language
Tags
June 2024
Su Mo Tu We Th Fr Sa
26 27 28 29 30 31 1
2 3 4 5 6 7 8
9 10 11 12 13 14 15
16 17 18 19 20 21 22
23 24 25 26 27 28 29
30 1 2 3 4 5 6

Big Big Train - English Boy Wonders (1997) {2008, Remastered}

Posted By: popsakov
Big Big Train - English Boy Wonders (1997) {2008, Remastered}

Big Big Train - English Boy Wonders (1997) {2008, Remastered Reissue}
EAC Rip | FLAC (Img) + Cue + Log ~ 621 Mb | MP3 CBR320 ~ 248 Mb
Full Scans | RAR 5% Recovery
Progressive Rock, Crossover Prog | English Electric Recordings #EERCD004

English Boy Wonders is the second studio album by the English progressive rock band, Big Big Train. It was released in 1997 by Giant Electric Pea. In February 2008, it was announced on Big Big Train's BlogSpot that English Boy Wonders was going to be re-recorded and partially re-mixed. It was re-released on the band's new record label, English Electric, on 1 December 2008. The re-release adds one track and changes the running order.

Big Big Train are an English progressive rock band formed in Bournemouth in 1990. The current line-up consists of Robin Armstrong (guitars and keyboards), Nick D'Virgilio (drums), Dave Gregory (guitars), Rachel Hall (violin and vocals), David Longdon (vocals, flute, keyboards and guitars), Danny Manners (keyboards and bass), Rikard Sjöblom (keyboards and guitars) and Gregory Spawton (bass, guitars and keyboards). Until 2009, the band were mostly as a studio project band headed by Gregory Spawton and Andy Poole (who left 1 January 2018) with changing line-ups and guest musicians. They have released eleven studio albums and three EPs.

After starting out as an independent band, Big Big Train were signed to Giant Electric Pea from 1993 to 1998 and distributed their releases through their own website. Since their sixth album The Underfall Yard, which received critical acclaim from the progressive rock community, a more stable lineup has been established, and the band performed their first live concerts in 17 years at Kings Place, London, in August 2015. The gigs were voted Event Of The Year by the readers of Prog magazine. Stone & Steel, a Blu-ray featuring the 2014 rehearsals at Real World Studios and four of the songs performed at Kings Place, was released on 21 March 2016. Big Big Train were the winners of the Breakthrough Award at the Progressive Music Awards held at Kew Gardens, London on 3 September 2013, and have been nominated in several other categories in recent years. The band's latest studio albums, Grimspound and The Second Brightest Star, were released April and June 2017 respectively. Big Big Train's most recent live performances were at Cadogan Hall, London, in September/October 2017, and they will be headliners at The Night Of The Prog festival in Lorelei, Germany, on 13 July 2018.

~ Wiki

***************

Big Big Train - English Boy Wonders (1997) {2008, Remastered}

Track List:

01. Big Empty Skies [4:23]
02. Brushed Aside [5:40]
03. Albion Perfide [10:27]
04. Pretty Mom [3:43]
05. A Giddy Thing [5:17]
06. Out Of It [6:02]
07. Cloudless And Starry And Still [3:36]
08. wo Poets Meet (instrumental) [bonus track] [4:26]
09. 28 Years [2:28]
10. Reaching For John Dowland [8:46]
11. Mr Boxgroveman [7:23]
12. The Shipping Forecast [10:14]
13. Right To The End Of The World Tra-La [2:03]
14. Fell Asleep [3:59]

Personnel:
Martin Read - lead vocals
Gregory Spawton - guitars, backing vocals, additional keyboards
Tony Müller - keyboards, piano
Andy Poole - bass, backing vocals, additional keyboards
Steve Hughes - drums, percussion

Guest musicians:
Ken Bundy - backing vocals

Exact Audio Copy V1.3 from 2. September 2016

Отчёт EAC об извлечении, выполненном 4. мая 2018, 20:32

Big Big Train / English Boy Wonders

Дисковод: HL-DT-STDVDRAM GH24NSD0 Adapter: 1 ID: 0

Режим чтения : Достоверность
Использование точного потока : Да
Отключение кэша аудио : Да
Использование указателей C2 : Нет

Коррекция смещения при чтении : 6
Способность читать области Lead-in и Lead-out : Нет
Заполнение пропущенных сэмплов тишиной : Да
Удаление блоков с тишиной в начале и конце : Нет
При вычислениях CRC использовались нулевые сэмплы : Да
Интерфейс : Встроенный Win32-интерфейс для Win NT/2000

Выходной формат : Пользовательский кодировщик
Выбранный битрейт : 128 kBit/s
Качество : Высокий
Добавление ID3-тега : Нет
Утилита сжатия : C:\Program Files (x86)\Exact Audio Copy\Flac\flac.exe
Дополнительные параметры : -V -8 -T "Date=%year%" -T "Genre=%genre%" %source%


TOC извлечённого CD

Трек | Старт | Длительность | Начальный сектор | Конечный сектор
––––––––––––––––––––––––––––––––––-
1 | 0:00.00 | 4:22.42 | 0 | 19691
2 | 4:22.42 | 5:40.11 | 19692 | 45202
3 | 10:02.53 | 10:27.18 | 45203 | 92245
4 | 20:29.71 | 3:43.33 | 92246 | 109003
5 | 24:13.29 | 5:17.33 | 109004 | 132811
6 | 29:30.62 | 6:02.32 | 132812 | 159993
7 | 35:33.19 | 3:35.73 | 159994 | 176191
8 | 39:09.17 | 4:26.28 | 176192 | 196169
9 | 43:35.45 | 2:28.21 | 196170 | 207290
10 | 46:03.66 | 8:45.39 | 207291 | 246704
11 | 54:49.30 | 7:22.72 | 246705 | 279926
12 | 62:12.27 | 10:13.60 | 279927 | 325961
13 | 72:26.12 | 2:02.63 | 325962 | 335174
14 | 74:29.00 | 3:58.66 | 335175 | 353090


Характеристики диапазона извлечения и сообщения об ошибках

Выбранный диапазон

Имя файла C:\Users\khokh\OneDrive\Рабочий стол\Big Big Train - English Boy Wonders.wav

Пиковый уровень 99.8 %
Скорость извлечения 2.1 X
Качество диапазона 100.0 %
CRC теста F83BC6E5
CRC копии F83BC6E5
Копирование… OK

Ошибок не произошло


AccurateRip: сводка

Трек 1 : извлечено точно (доверие 5) [F9C7B567] (AR v2)
Трек 2 : извлечено точно (доверие 5) [1EF0A697] (AR v2)
Трек 3 : извлечено точно (доверие 5) [5C2B1DD9] (AR v2)
Трек 4 : извлечено точно (доверие 5) [33483D56] (AR v2)
Трек 5 : извлечено точно (доверие 5) [C40D540E] (AR v2)
Трек 6 : извлечено точно (доверие 5) [8165B068] (AR v2)
Трек 7 : извлечено точно (доверие 5) [1C8F2D6A] (AR v2)
Трек 8 : извлечено точно (доверие 5) [0F18F534] (AR v2)
Трек 9 : извлечено точно (доверие 5) [9B9B26E7] (AR v2)
Трек 10 : извлечено точно (доверие 5) [F17583A1] (AR v2)
Трек 11 : извлечено точно (доверие 5) [A4BC26D2] (AR v2)
Трек 12 : извлечено точно (доверие 5) [9136C10E] (AR v2)
Трек 13 : извлечено точно (доверие 5) [05871920] (AR v2)
Трек 14 : извлечено точно (доверие 5) [7969A23F] (AR v2)

Все треки извлечены точно

Конец отчёта

==== Контрольная сумма отчёта B98CA8DF0E038F43BA5CBB573CE18453608896083BE29A7E604E5C5F7E00FF4A ====

foobar2000 1.3.16 / Dynamic Range Meter 1.1.1
log date: 2018-05-09 23:24:03

––––––––––––––––––––––––––––––––––––––––
Analyzed: Big Big Train / English Boy Wonders
––––––––––––––––––––––––––––––––––––––––

DR Peak RMS Duration Track
––––––––––––––––––––––––––––––––––––––––
DR6 -0.01 dB -7.04 dB 4:23 01-Big Empty Skies
DR7 -0.01 dB -8.76 dB 5:40 02-Brushed Aside
DR9 -0.02 dB -10.78 dB 10:27 03-Albion Perfide
DR6 -0.03 dB -8.57 dB 3:43 04-Pretty Mom
DR8 -0.01 dB -10.42 dB 5:17 05-A Giddy Thing
DR7 -0.01 dB -8.98 dB 6:02 06-Out Of It
DR8 -0.01 dB -9.79 dB 3:36 07-Cloudless And Starry And Still
DR9 -0.02 dB -10.88 dB 4:26 08-wo Poets Meet (instrumental) [bonus track]
DR9 -4.67 dB -15.46 dB 2:28 09-28 Years
DR6 -0.01 dB -9.30 dB 8:46 10-Reaching For John Dowland
DR7 -0.01 dB -9.39 dB 7:23 11-Mr Boxgroveman
DR7 -0.01 dB -10.17 dB 10:14 12-The Shipping Forecast
DR8 -0.02 dB -10.81 dB 2:03 13-Right To The End Of The World Tra-La
DR9 -0.04 dB -12.07 dB 3:59 14-Fell Asleep
––––––––––––––––––––––––––––––––––––––––

Number of tracks: 14
Official DR value: DR8

Samplerate: 44100 Hz
Channels: 2
Bits per sample: 16
Bitrate: 954 kbps
Codec: FLAC
================================================================================

[CUETools log; Date: 09.05.2018 23:23:09; Version: 2.1.6]
[CTDB TOCID: 5aviOn4CyJWWIyTEOcCWD3WcieY-] found.
Track | CTDB Status
1 | (17/17) Accurately ripped
2 | (17/17) Accurately ripped
3 | (17/17) Accurately ripped
4 | (17/17) Accurately ripped
5 | (17/17) Accurately ripped
6 | (17/17) Accurately ripped
7 | (17/17) Accurately ripped
8 | (17/17) Accurately ripped
9 | (17/17) Accurately ripped
10 | (17/17) Accurately ripped
11 | (17/17) Accurately ripped
12 | (15/17) Accurately ripped
13 | (15/17) Accurately ripped
14 | (16/17) Accurately ripped
[AccurateRip ID: 0028e2a8-01b3af2c-bc12630e] found.
Track [ CRC | V2 ] Status
01 [16717d16|f9c7b567] (00+05/20) Accurately ripped
02 [86071505|1ef0a697] (00+05/20) Accurately ripped
03 [102d8846|5c2b1dd9] (00+05/20) Accurately ripped
04 [91cd840d|33483d56] (00+05/20) Accurately ripped
05 [7c66bf3d|c40d540e] (00+05/20) Accurately ripped
06 [8503bede|8165b068] (00+05/20) Accurately ripped
07 [2dbdd5fd|1c8f2d6a] (00+05/20) Accurately ripped
08 [46642d07|0f18f534] (00+05/20) Accurately ripped
09 [11ee7446|9b9b26e7] (00+05/20) Accurately ripped
10 [7a1b9ffa|f17583a1] (00+05/20) Accurately ripped
11 [a0c3e4a8|a4bc26d2] (00+05/20) Accurately ripped
12 [f07a738b|9136c10e] (00+05/19) Accurately ripped
13 [94d84b7e|05871920] (00+05/20) Accurately ripped
14 [938193f0|7969a23f] (00+05/20) Accurately ripped
Offsetted by 92:
01 [01841175] (06/20) Accurately ripped
02 [d41b21e2] (06/20) Accurately ripped
03 [601b2183] (06/20) Accurately ripped
04 [6e38de9d] (06/20) Accurately ripped
05 [36630f71] (06/20) Accurately ripped
06 [3fef4b89] (06/20) Accurately ripped
07 [94b36a99] (06/20) Accurately ripped
08 [a43863a7] (06/20) Accurately ripped
09 [48af54ca] (06/20) Accurately ripped
10 [4a3609d5] (06/20) Accurately ripped
11 [5fdddca0] (06/20) Accurately ripped
12 [aa127811] (05/19) Accurately ripped
13 [86c475d5] (06/20) Accurately ripped
14 [4fa9cd18] (06/20) Accurately ripped
Offsetted by -554:
01 [e97d97b7] (00/20) No match (V2 was not tested)
02 [f410e88a] (00/20) No match (V2 was not tested)
03 [3c784a40] (00/20) No match (V2 was not tested)
04 [81a39513] (00/20) No match (V2 was not tested)
05 [a8a8002e] (00/20) No match (V2 was not tested)
06 [dd0fb7cf] (00/20) No match (V2 was not tested)
07 [56dfd2ad] (00/20) No match (V2 was not tested)
08 [32c4e417] (00/20) No match (V2 was not tested)
09 [4dee0f60] (00/20) No match (V2 was not tested)
10 [c9ddce37] (00/20) No match (V2 was not tested)
11 [79faedfb] (00/20) No match (V2 was not tested)
12 [9dfedea6] (00/19) No match (V2 was not tested)
13 [33261bc7] (00/20) No match (V2 was not tested)
14 [ac09cc74] (00/20) No match (V2 was not tested)
Offsetted by -6:
01 [45479347] (00/20) No match (V2 was not tested)
02 [9038c32e] (00/20) No match (V2 was not tested)
03 [ac13a398] (00/20) No match (V2 was not tested)
04 [75b3f83b] (00/20) No match (V2 was not tested)
05 [14b30353] (00/20) No match (V2 was not tested)
06 [06402de9] (00/20) No match (V2 was not tested)
07 [ac1f9966] (00/20) No match (V2 was not tested)
08 [a4722977] (00/20) No match (V2 was not tested)
09 [84f8e546] (00/20) No match (V2 was not tested)
10 [8f44f16b] (00/20) No match (V2 was not tested)
11 [df1314b4] (00/20) No match (V2 was not tested)
12 [e5f149a2] (00/19) No match (V2 was not tested)
13 [b1ac6ef0] (00/20) No match (V2 was not tested)
14 [17ee424c] (00/20) No match (V2 was not tested)

Track Peak [ CRC32 ] [W/O NULL] [ LOG ]
– 99,8 [F83BC6E5] [BECBBC99] CRC32
01 99,8 [F21159A6] [A2D4C400]
02 99,8 [93B0069D] [D2FEC8E3]
03 99,7 [A1140D45] [C7ECE4B8]
04 99,6 [D51C29B2] [44EF8DDC]
05 99,8 [CF8278A3] [E502BD97]
06 99,8 [7489C99A] [36F73011]
07 99,8 [6F5F7974] [5FA75EF5]
08 99,7 [5FF6B7C1] [533C6D6C]
09 58,3 [CFA16418] [ACA22362]
10 99,8 [071CE143] [B7A3AE30]
11 99,8 [4257B2BA] [51A23688]
12 99,8 [8E3C8041] [CBDE2684]
13 99,7 [C4F467B6] [7E1141B5]
14 99,5 [ECE5C582] [9764448D]

Big Big Train - English Boy Wonders (1997) {2008, Remastered}


All thanks go to Angel Station

>>> Big Big Train in my Blog <<<

Download: