Subcategories

Big 4 + 1 - 7 Years (2017) {Neuklang}

Posted By: tiburon
Big 4 + 1 - 7 Years (2017) {Neuklang}

Big 4 + 1 - 7 Years (2017) {Neuklang}
EAC 1.3 | FLAC tracks level 8 | Cue+Log+M3U | Full Scans 300dpi | 386MB + 5% Recovery
MP3 CBR 320 Kbps | 179MB + 5% Recovery
Genre: Free Jazz

The birth of this band comes from a deep wish to take up the challenge of a singular instrumentation : two Horns (Saxophone & Tuba) and two Percussions (Vibraphone and Drums). The Tuba/Vibraphone combination creates a clear demarcation with sound material of a "standard" quartet (w/ Piano & Bass), while bringing a warm tone as well as unusual acoustic textures.
Track List
. Voyou 5:16]
2. Pretty Much Henry 8:17
3. Zéphyr 7:36
4. Boule de neige 11:37
5. 160 bpm 6:00
6. rêver 6:32
7. marcher 3:57
8. courir 3:31
9. danser 3:50

musicians
Julien Soro - sax
Stephan Caracci - vibraphone
Rafael Koerner - drums
Fabien Debellefontaine - sousaphone
Quentin Ghomari - trumpet


Exact Audio Copy V1.3 from 2. September 2016

EAC extraction logfile from 14. November 2017, 16:43

Big 4+1 / 7 Years

Used drive : ATAPI iHBS112 2 Adapter: 1 ID: 1

Read mode : Secure
Utilize accurate stream : Yes
Defeat audio cache : Yes
Make use of C2 pointers : No

Read offset correction : 6
Overread into Lead-In and Lead-Out : No
Fill up missing offset samples with silence : Yes
Delete leading and trailing silent blocks : No
Null samples used in CRC calculations : Yes
Used interface : Native Win32 interface for Win NT & 2000
Gap handling : Appended to previous track

Used output format : User Defined Encoder
Selected bitrate : 128 kBit/s
Quality : High
Add ID3 tag : No
Command line compressor : C:\Program Files (x86)\Exact Audio Copy\Flac\flac.exe
Additional command line options : -8 -V -T "ARTIST=%artist%" -T "TITLE=%title%" -T "ALBUM=%albumtitle%" -T "DATE=%year%" -T "TRACKNUMBER=%tracknr%" -T "GENRE=%genre%" -T "PERFORMER=%albuminterpret%" -T "COMPOSER=%composer%" -T "ALBUMARTIST=%albumartist%" -T "DISCNUMBER=%cdnumber%" -T "TOTALDISCS=%totalcds%" -T "TOTALTRACKS=%numtracks%" -T "COMMENT=EAC Secure Mode, Test & Copy, AccurateRip, FLAC -8" %source% -o %dest%


TOC of the extracted CD

Track | Start | Length | Start sector | End sector
––––––––––––––––––––––––––––-
1 | 0:00.00 | 5:16.33 | 0 | 23732
2 | 5:16.33 | 8:17.28 | 23733 | 61035
3 | 13:33.61 | 7:36.35 | 61036 | 95270
4 | 21:10.21 | 11:37.73 | 95271 | 147618
5 | 32:48.19 | 6:00.41 | 147619 | 174659
6 | 38:48.60 | 6:32.41 | 174660 | 204100
7 | 45:21.26 | 3:57.69 | 204101 | 221944
8 | 49:19.20 | 3:31.71 | 221945 | 237840
9 | 52:51.16 | 3:50.38 | 237841 | 255128


Track 1

Filename H:\DL\Big 4 + 1 - 7 Years (2017) [FLAC]\01 - Voyou.wav

Pre-gap length 0:00:02.00

Peak level 98.2 %
Extraction speed 5.3 X
Track quality 100.0 %
Test CRC B79B7F7A
Copy CRC B79B7F7A
Track not present in AccurateRip database
Copy OK

Track 2

Filename H:\DL\Big 4 + 1 - 7 Years (2017) [FLAC]\02 - Pretty Much Henry.wav

Peak level 97.2 %
Extraction speed 6.3 X
Track quality 100.0 %
Test CRC BF1B593C
Copy CRC BF1B593C
Track not present in AccurateRip database
Copy OK

Track 3

Filename H:\DL\Big 4 + 1 - 7 Years (2017) [FLAC]\03 - Zephyr.wav

Peak level 92.1 %
Extraction speed 6.5 X
Track quality 99.9 %
Test CRC F2E36C47
Copy CRC F2E36C47
Track not present in AccurateRip database
Copy OK

Track 4

Filename H:\DL\Big 4 + 1 - 7 Years (2017) [FLAC]\04 - Boule de neige.wav

Peak level 100.0 %
Extraction speed 8.3 X
Track quality 100.0 %
Test CRC 7AB43DAF
Copy CRC 7AB43DAF
Track not present in AccurateRip database
Copy OK

Track 5

Filename H:\DL\Big 4 + 1 - 7 Years (2017) [FLAC]\05 - 160 bpm.wav

Peak level 97.1 %
Extraction speed 7.6 X
Track quality 99.9 %
Test CRC 8126D0F4
Copy CRC 8126D0F4
Track not present in AccurateRip database
Copy OK

Track 6

Filename H:\DL\Big 4 + 1 - 7 Years (2017) [FLAC]\06 - rever.wav

Pre-gap length 0:00:00.30

Peak level 92.0 %
Extraction speed 9.2 X
Track quality 100.0 %
Test CRC 440C0ADC
Copy CRC 440C0ADC
Track not present in AccurateRip database
Copy OK

Track 7

Filename H:\DL\Big 4 + 1 - 7 Years (2017) [FLAC]\07 - marcher.wav

Peak level 93.8 %
Extraction speed 9.0 X
Track quality 100.0 %
Test CRC 66B169E4
Copy CRC 66B169E4
Track not present in AccurateRip database
Copy OK

Track 8

Filename H:\DL\Big 4 + 1 - 7 Years (2017) [FLAC]\08 - courir.wav

Peak level 96.1 %
Extraction speed 9.2 X
Track quality 100.0 %
Test CRC 58AEA748
Copy CRC 58AEA748
Track not present in AccurateRip database
Copy OK

Track 9

Filename H:\DL\Big 4 + 1 - 7 Years (2017) [FLAC]\09 - danser.wav

Peak level 92.5 %
Extraction speed 9.4 X
Track quality 100.0 %
Test CRC F2A39948
Copy CRC F2A39948
Track not present in AccurateRip database
Copy OK


None of the tracks are present in the AccurateRip database

No errors occurred

End of status report

–– CUETools DB Plugin V2.1.6

[CTDB TOCID: OyIb8pE0lzoc6OJLQYLrli8CTxY-] disk not present in database
Submit result: OyIb8pE0lzoc6OJLQYLrli8CTxY- has been uploaded


==== Log checksum 828E562FC8D327C069FCC40D81C2DA55DB338112708D9372C3EBB1C69C7D8F3D ====


––––––––––––––––––––––––––––––––––––––––
Analyzed: Big 4+1 / 7 Years
––––––––––––––––––––––––––––––––––––––––

DR Peak RMS Duration Track
––––––––––––––––––––––––––––––––––––––––
DR10 -0.15 dB -12.56 dB 5:16 01-Voyou
DR10 -0.24 dB -12.16 dB 8:17 02-Pretty Much Henry
DR10 -0.71 dB -14.19 dB 7:36 03-Zéphyr
DR10 0.00 dB -13.37 dB 11:38 04-Boule de neige
DR10 -0.25 dB -12.44 dB 6:01 05-160 bpm
DR10 -0.72 dB -15.82 dB 6:33 06-rêver
DR10 -0.55 dB -12.94 dB 3:58 07-marcher
DR9 -0.35 dB -11.18 dB 3:32 08-courir
DR12 -0.67 dB -16.70 dB 3:51 09-danser
––––––––––––––––––––––––––––––––––––––––

Number of tracks: 9
Official DR value: DR10

Samplerate: 44100 Hz
Channels: 2
Bits per sample: 16
Bitrate: 765 kbps
Codec: FLAC
================================================================================

Big 4 + 1 - 7 Years (2017) {Neuklang}


Thanks to the original ripper