Subcategories

Bill Evans - The Paris Concert: Edition One & Edition Two (1979) 2CD Reissue 2001

Posted By: Designol
Bill Evans - The Paris Concert: Edition One & Edition Two (1979) 2CD Reissue 2001

Bill Evans - The Paris Concert: Edition One & Edition Two (1979) 2CD Reissue 2001
EAC | FLAC | Image (Cue&Log) ~ 255 / 225 Mb | Mp3 (CBR320) ~ 138 / 124 Mb | Scans included
Post-Bop, Cool, Piano Jazz | Label: Elektra | # 7559-62606-2 / 7559-62607-2 | 00:54:53 / 00:48:26

The two LP editions recorded at this Paris concert were the last examples of Bill Evans' playing to be released at the time. With bassist Marc Johnson and drummer Joe La Barbera, Evans had one of the strongest trios of his career, as can be heard on such pieces as Edition One's "My Romance," "I Loves You, Porgy," and "Beautiful Love." The close communication between the players is reminiscent of Evans' 1961 unit with Scott LaFaro and Paul Motian.

Review by Scott Yanow, Allmusic.com

Bill Evans' death in 1980 ended the career of the most influential (along with McCoy Tyner) acoustic pianist in jazz of the previous 20 years. This second of two LPs features Evans, bassist Marc Johnson, and drummer Joe La Barbera closely interacting on four of the pianist's originals, Gary McFarland's "Gary's Theme" and Miles Davis' "Nardis." The music is sensitive and subtly exciting. Until the release of some later live sessions from 1980, this could be considered Bill Evans' final recording and serves as evidence that, rather than declining, he was showing a renewed vitality and enthusiasm in his last year.

Review by Scott Yanow, Allmusic.com

Bill Evans - The Paris Concert: Edition One & Edition Two (1979) 2CD Reissue 2001

Bill Evans - The Paris Concert: Edition One & Edition Two (1979) 2CD Reissue 2001



Tracklist:

Edition One:

01. I Do It For Love (06:19)
02. Quiet Now (05:57)
03. Noelle's Theme (04:20)
04. My Romance (09:18)
05. I Loves You Porgy (07:02)
06. Up With The Lark (06:39)
07. All Mine (04:05)
08. Beautiful Love (09:23)
09. Excerpts of a conversation between Bill & Harry Evans (01:45)


Exact Audio Copy V1.0 beta 3 from 29. August 2011

Отчёт EAC об извлечении, выполненном 21. октября 2012, 16:46

Bill Evans / The Paris Concert - Edition One

Дисковод: HL-DT-STDVDRAM GH22NS70 Adapter: 1 ID: 0

Режим чтения : Достоверность
Использование точного потока : Да
Отключение кэша аудио : Да
Использование указателей C2 : Нет

Коррекция смещения при чтении : 667
Способность читать области Lead-in и Lead-out : Нет
Заполнение пропущенных сэмплов тишиной : Да
Удаление блоков с тишиной в начале и конце : Нет
При вычислениях CRC использовались нулевые сэмплы : Да
Интерфейс : Встроенный Win32-интерфейс для Win NT/2000

Выходной формат : Пользовательский кодировщик
Выбранный битрейт : 128 kBit/s
Качество : Высокий
Добавление ID3-тега : Нет
Утилита сжатия : C:\Program Files\Exact Audio Copy\FLAC\FLAC.EXE
Дополнительные параметры : -V -8 -T "Date=%year%" -T "Genre=%genre%" %source%


TOC извлечённого CD

Трек | Старт | Длительность | Начальный сектор | Конечный сектор
––––––––––––––––––––––––––––––––––-
1 | 0:00.00 | 6:19.00 | 0 | 28424
2 | 6:19.00 | 5:57.62 | 28425 | 55261
3 | 12:16.62 | 4:20.50 | 55262 | 74811
4 | 16:37.37 | 9:18.00 | 74812 | 116661
5 | 25:55.37 | 7:02.38 | 116662 | 148349
6 | 32:58.00 | 6:39.62 | 148350 | 178336
7 | 39:37.62 | 4:05.63 | 178337 | 196774
8 | 43:43.50 | 9:23.50 | 196775 | 239049
9 | 53:07.25 | 1:45.50 | 239050 | 246974


Характеристики диапазона извлечения и сообщения об ошибках

Выбранный диапазон

Имя файла D:\Up-Down\Bill Evans - The Paris Concert - Edition One\Bill Evans - The Paris Concert - Edition One.wav

Пиковый уровень 81.2 %
Скорость извлечения 1.8 X
Качество диапазона 100.0 %
CRC теста 702CC802
CRC копии 702CC802
Копирование… OK

Ошибок не произошло


AccurateRip: сводка

Трек 1 : извлечено точно (доверие 3) [3907444D] (AR v2)
Трек 2 : извлечено точно (доверие 3) [02EF9C6E] (AR v2)
Трек 3 : извлечено точно (доверие 3) [758811A6] (AR v2)
Трек 4 : извлечено точно (доверие 3) [96872373] (AR v2)
Трек 5 : извлечено точно (доверие 3) [70F5576F] (AR v2)
Трек 6 : извлечено точно (доверие 3) [550B4169] (AR v2)
Трек 7 : извлечено точно (доверие 3) [D5DE04EF] (AR v2)
Трек 8 : извлечено точно (доверие 3) [7B5F7292] (AR v2)
Трек 9 : извлечено точно (доверие 3) [CC9074F4] (AR v2)

Все треки извлечены точно

Конец отчёта

==== Контрольная сумма отчёта 095D3B0AE8BB6BF2C933195DF37E1EA5B6F8035CDB0A602C3ED5B3FBC6B35171 ====

foobar2000 1.3.8 / Dynamic Range Meter 1.1.1
log date: 2015-05-11 12:26:46

––––––––––––––––––––––––––––––––––––––––
Analyzed: Bill Evans / The Paris Concert - Edition One
––––––––––––––––––––––––––––––––––––––––

DR Peak RMS Duration Track
––––––––––––––––––––––––––––––––––––––––
DR15 -4.89 dB -24.91 dB 6:19 01-I Do It For Love
DR14 -5.24 dB -22.83 dB 5:58 02-Quiet Now
DR14 -6.49 dB -25.05 dB 4:21 03-Noelle's Theme
DR16 -1.80 dB -22.06 dB 9:18 04-My Romance
DR14 -6.89 dB -24.24 dB 7:03 05-I Loves You Porgy
DR15 -4.69 dB -26.24 dB 6:40 06-Up With The Lark
DR16 -4.97 dB -27.53 dB 4:06 07-All Mine
DR15 -3.58 dB -21.33 dB 9:24 08-Beautiful Love
DR14 -8.56 dB -26.44 dB 1:46 09-Excerpts of a conversation between Bill & Harry Evans
––––––––––––––––––––––––––––––––––––––––

Number of tracks: 9
Official DR value: DR15

Samplerate: 44100 Hz
Channels: 2
Bits per sample: 16
Bitrate: 616 kbps
Codec: FLAC
================================================================================



Tracklist:

Edition Two:

01. Re: Person I Knew (05:22)
02. Gary's Theme (05:32)
03. Letter to Evan (04:52)
04. 34 Skidoo (06:58)
05. Laurie (08:12)
06. Nardis (17:28)


Exact Audio Copy V1.0 beta 3 from 29. August 2011

Отчёт EAC об извлечении, выполненном 21. октября 2012, 17:50

Bill Evans / The Paris Concert - Edition Two

Дисковод: HL-DT-STDVDRAM GH22NS70 Adapter: 1 ID: 0

Режим чтения : Достоверность
Использование точного потока : Да
Отключение кэша аудио : Да
Использование указателей C2 : Нет

Коррекция смещения при чтении : 667
Способность читать области Lead-in и Lead-out : Нет
Заполнение пропущенных сэмплов тишиной : Да
Удаление блоков с тишиной в начале и конце : Нет
При вычислениях CRC использовались нулевые сэмплы : Да
Интерфейс : Встроенный Win32-интерфейс для Win NT/2000

Выходной формат : Пользовательский кодировщик
Выбранный битрейт : 128 kBit/s
Качество : Высокий
Добавление ID3-тега : Нет
Утилита сжатия : C:\Program Files\Exact Audio Copy\FLAC\FLAC.EXE
Дополнительные параметры : -V -8 -T "Date=%year%" -T "Genre=%genre%" %source%


TOC извлечённого CD

Трек | Старт | Длительность | Начальный сектор | Конечный сектор
––––––––––––––––––––––––––––––––––-
1 | 0:00.00 | 5:22.50 | 0 | 24199
2 | 5:22.50 | 5:32.50 | 24200 | 49149
3 | 10:55.25 | 4:52.12 | 49150 | 71061
4 | 15:47.37 | 6:58.00 | 71062 | 102411
5 | 22:45.37 | 8:12.00 | 102412 | 139311
6 | 30:57.37 | 17:28.38 | 139312 | 217949


Характеристики диапазона извлечения и сообщения об ошибках

Выбранный диапазон

Имя файла D:\Up-Down\Bill Evans - The Paris Concert - Edition Two\Bill Evans - The Paris Concert - Edition Two.wav

Пиковый уровень 80.1 %
Скорость извлечения 1.7 X
Качество диапазона 99.9 %
CRC теста 0B596601
CRC копии 0B596601
Копирование… OK

Ошибок не произошло


AccurateRip: сводка

Трек 1 : извлечено точно (доверие 16) [EB5BA36D] (AR v1)
Трек 2 : извлечено точно (доверие 15) [EB619DFE] (AR v1)
Трек 3 : извлечено точно (доверие 15) [5297E70F] (AR v1)
Трек 4 : извлечено точно (доверие 15) [06E77EF2] (AR v1)
Трек 5 : извлечено точно (доверие 15) [5DBBB285] (AR v1)
Трек 6 : извлечено точно (доверие 15) [FEC07D5D] (AR v1)

Все треки извлечены точно

Конец отчёта

==== Контрольная сумма отчёта B84037AF708EAB677A1967D401A9E21A01A8197523DCA16B4D1A413804C4E58B ====

foobar2000 1.3.8 / Dynamic Range Meter 1.1.1
log date: 2015-05-11 12:27:21

––––––––––––––––––––––––––––––––––––––––
Analyzed: Bill Evans / The Paris Concert - Edition Two
––––––––––––––––––––––––––––––––––––––––

DR Peak RMS Duration Track
––––––––––––––––––––––––––––––––––––––––
DR14 -5.14 dB -23.18 dB 5:23 01-Re: Person I Knew
DR14 -2.14 dB -23.49 dB 5:33 02-Gary's Theme
DR13 -1.92 dB -20.15 dB 4:52 03-Letter to Evan
DR14 -2.19 dB -19.70 dB 6:58 04-34 Skidoo
DR14 -3.96 dB -22.97 dB 8:12 05-Laurie
DR14 -2.09 dB -20.17 dB 17:29 06-Nardis
––––––––––––––––––––––––––––––––––––––––

Number of tracks: 6
Official DR value: DR14

Samplerate: 44100 Hz
Channels: 2
Bits per sample: 16
Bitrate: 611 kbps
Codec: FLAC
================================================================================

Bill Evans - The Paris Concert: Edition One & Edition Two (1979) 2CD Reissue 2001

Bill Evans - The Paris Concert: Edition One & Edition Two (1979) 2CD Reissue 2001

All thanks to original releaser - strizh64

More interesting music in My Blog