Tags
Language
Tags

Billy Cobham - B.C. (1979) {Wounded Bird}

Posted By: tiburon
Billy Cobham - B.C. (1979) {Wounded Bird}

Billy Cobham - B.C. (1979) {Wounded Bird}
X Lossless Decoder | FLAC tracks | Cue+Log+M3U | Scans 200dpi | 302MB + 5% Recovery
MP3 CBR 320 Kbps | 112MB + 5% Recovery
Genre: Jazz-Funk
Billy Cobham - B.C. (1979) {Wounded Bird}

CD reissue of this 1979 album by the jazz percussionist/bandleader. Fans of Billy Cobham have been screaming for B.C. to make its worldwide CD debut. This album features Ernie Watts and Bobby Lyle. Our CD reissue features a bonus track of the 12" extended version of the song "What Is Your Fantasy". You will note that Billy takes his fusion drumming seriously on this album as well.
Track List
1. Oh Mendocino (06:39)
2. Dana (04:30)
3. What Is Your Fantasy (03:32)
4. A Little Travelin' Music (04:11)
5. The Lonely Bull (El Solo Toro) (06:22)
6. I Don't Want To Be Without You (04:08)
7. Bring Up The House Lights (04:26)
8. Vlastar - An Encounter (07:23)
9. What Is Your Fantasy (12" Version) (07:35)

musicians
Billy Cobham - Drums, Moog Synthesizer, Percussion, Synthesizer, Synthesizer Drums, Timbales
Bobby Lyle Piano (Electric), Quadra
Ernie Watts Reeds, Woodwind
Nathaniel Phillips Bass
Robert Adcock Cello, Strings
Israel Baker Violin
Oscar Brashear Brass, Trumpet
Alexandra Brown Vocals (Background)
Garnett Brown Brass, Trombone (Tenor)
Stephen Bryant Violin
Pete Christlieb Reeds, Woodwind
Joe Croyle Vocals (Background)
Douglas David Cello, Strings
Glenn Dicterow Violin
Bonnie Douglas Violin
David Duke Brass, French Horn
Donna Fein Vocals (Background)
James Getzoff Violin
Jim Gilstrap Vocals, Vocals (Background)
Catherine Gotthoffer Harp
Bill Green Reeds, Woodwind
Merry Greene Vocals (Background)
Clayton Haslop Violin
Muffy Hendrix Vocals (Background)
Paula Hochhalter Cello, Strings
Miki Howard Vocals, Vocals (Background)
Selene Hurford Cello, Strings
August Johnson Vocals (Background)
Jon Joyce Vocals (Background)
Janet Lakatos Violin
Steve Madaio Brass, Flugelhorn, Trumpet
Gordon Marron Violin
Michael McGloiry Guitar
Louis Patton Vocals (Background)
Jack Pepper Violin
Ed Reddick Bass, Guitar (Bass)
Dorothy Remsen Harp
Nathan Ross Violin
John Shykun Quadra
Carroll Stephens Violin
Ernie Tack Brass, Trombone (Bass), Tuba
Vance "Mad Dog" Tenort Congas
Michael Wright Vocals (Background)
David Yost Moog Synthesizer, Synthesizer, Synthesizer Drums

Produced by Billy Cobham and Wayne Henderson


X Lossless Decoder version 20170729 (150.3)

XLD extraction logfile from 2018-03-24 16:27:18 +0000

Billy Cobham / B.C.

Used drive : TSSTcorp CDDVDW SH-S203N (revision LA00)
Media type : Pressed CD

Ripper mode : XLD Secure Ripper
Disable audio cache : OK for the drive with a cache less than 1375KiB
Make use of C2 pointers : NO
Read offset correction : 6
Max retry count : 100
Gap status : Analyzed, Appended

TOC of the extracted CD
Track | Start | Length | Start sector | End sector
––––––––––––––––––––––––––––-
1 | 00:00:00 | 06:41:07 | 0 | 30081
2 | 06:41:07 | 04:31:47 | 30082 | 50453
3 | 11:12:54 | 03:34:14 | 50454 | 66517
4 | 14:46:68 | 04:13:21 | 66518 | 85513
5 | 19:00:14 | 06:24:01 | 85514 | 114314
6 | 25:24:15 | 04:09:50 | 114315 | 133039
7 | 29:33:65 | 04:27:69 | 133040 | 153133
8 | 34:01:59 | 07:24:71 | 153134 | 186504
9 | 41:26:55 | 07:35:07 | 186505 | 220636

AccurateRip Summary (DiscID: 000fdf47-007475c6-7b0b7d09)
Track 01 : OK (v2, confidence 5/5)
Track 02 : OK (v2, confidence 5/5)
Track 03 : OK (v2, confidence 5/5)
Track 04 : OK (v2, confidence 5/5)
Track 05 : OK (v2, confidence 5/5)
Track 06 : OK (v2, confidence 5/5)
Track 07 : OK (v2, confidence 5/5)
Track 08 : OK (v2, confidence 5/5)
Track 09 : OK (v2, confidence 5/5)
->All tracks accurately ripped.

All Tracks
Album gain : -4.08 dB
Peak : 0.944550
Statistics
Read error : 0
Jitter error (maybe fixed) : 0
Retry sector count : 0
Damaged sector count : 0

Track 01
Filename : /Volumes/Transmission 4TB/+Apollo Launchpad/Billy Cobham - B.C. (1979) [FLAC]/01 Oh Mendocino.flac
Pre-gap length : 00:02:00

Track gain : -2.95 dB
Peak : 0.944550
CRC32 hash (test run) : 4E482623
CRC32 hash : 4E482623
CRC32 hash (skip zero) : 63D2D81A
AccurateRip v1 signature : 262950A5
AccurateRip v2 signature : 226EE034
->Accurately ripped (v2, confidence 5/5)
Statistics
Read error : 0
Jitter error (maybe fixed) : 0
Retry sector count : 0
Damaged sector count : 0

Track 02
Filename : /Volumes/Transmission 4TB/+Apollo Launchpad/Billy Cobham - B.C. (1979) [FLAC]/02 Dana.flac
Pre-gap length : 00:02:00

Track gain : -2.47 dB
Peak : 0.944550
CRC32 hash (test run) : 5422157D
CRC32 hash : 5422157D
CRC32 hash (skip zero) : A26C0B40
AccurateRip v1 signature : 63DB931E
AccurateRip v2 signature : 531A208B
->Accurately ripped (v2, confidence 5/5)
Statistics
Read error : 0
Jitter error (maybe fixed) : 0
Retry sector count : 0
Damaged sector count : 0

Track 03
Filename : /Volumes/Transmission 4TB/+Apollo Launchpad/Billy Cobham - B.C. (1979) [FLAC]/03 What Is Your Fantasy.flac
Pre-gap length : 00:02:00

Track gain : -3.75 dB
Peak : 0.944550
CRC32 hash (test run) : 69057FDE
CRC32 hash : 69057FDE
CRC32 hash (skip zero) : DBE449C9
AccurateRip v1 signature : CB870E8C
AccurateRip v2 signature : 831797AA
->Accurately ripped (v2, confidence 5/5)
Statistics
Read error : 0
Jitter error (maybe fixed) : 0
Retry sector count : 0
Damaged sector count : 0

Track 04
Filename : /Volumes/Transmission 4TB/+Apollo Launchpad/Billy Cobham - B.C. (1979) [FLAC]/04 A Little Travelin' Music.flac
Pre-gap length : 00:02:00

Track gain : -4.44 dB
Peak : 0.944550
CRC32 hash (test run) : 3BB7B193
CRC32 hash : 3BB7B193
CRC32 hash (skip zero) : D28568E3
AccurateRip v1 signature : B15FFCF8
AccurateRip v2 signature : 21913E8F
->Accurately ripped (v2, confidence 5/5)
Statistics
Read error : 0
Jitter error (maybe fixed) : 0
Retry sector count : 0
Damaged sector count : 0

Track 05
Filename : /Volumes/Transmission 4TB/+Apollo Launchpad/Billy Cobham - B.C. (1979) [FLAC]/05 The Lonely Bull (El Solo Toro).flac
Pre-gap length : 00:02:00

Track gain : -5.21 dB
Peak : 0.944550
CRC32 hash (test run) : F6283A29
CRC32 hash : F6283A29
CRC32 hash (skip zero) : 7C78F83A
AccurateRip v1 signature : 678571AD
AccurateRip v2 signature : 3AC81152
->Accurately ripped (v2, confidence 5/5)
Statistics
Read error : 0
Jitter error (maybe fixed) : 0
Retry sector count : 0
Damaged sector count : 0

Track 06
Filename : /Volumes/Transmission 4TB/+Apollo Launchpad/Billy Cobham - B.C. (1979) [FLAC]/06 I Don't Want To Be Without You.flac
Pre-gap length : 00:02:00

Track gain : -5.21 dB
Peak : 0.944550
CRC32 hash (test run) : 3308251F
CRC32 hash : 3308251F
CRC32 hash (skip zero) : 60E3C4F1
AccurateRip v1 signature : 3FDE59BE
AccurateRip v2 signature : A1A046DA
->Accurately ripped (v2, confidence 5/5)
Statistics
Read error : 0
Jitter error (maybe fixed) : 0
Retry sector count : 0
Damaged sector count : 0

Track 07
Filename : /Volumes/Transmission 4TB/+Apollo Launchpad/Billy Cobham - B.C. (1979) [FLAC]/07 Bring Up The House Lights.flac
Pre-gap length : 00:02:00

Track gain : -2.80 dB
Peak : 0.944550
CRC32 hash (test run) : 05CDC85C
CRC32 hash : 05CDC85C
CRC32 hash (skip zero) : CB6A73AB
AccurateRip v1 signature : 307EFB1A
AccurateRip v2 signature : 899276CF
->Accurately ripped (v2, confidence 5/5)
Statistics
Read error : 0
Jitter error (maybe fixed) : 0
Retry sector count : 0
Damaged sector count : 0

Track 08
Filename : /Volumes/Transmission 4TB/+Apollo Launchpad/Billy Cobham - B.C. (1979) [FLAC]/08 Vlaster - An Encounter.flac
Pre-gap length : 00:02:00

Track gain : -0.98 dB
Peak : 0.944550
CRC32 hash (test run) : BBC9BAF8
CRC32 hash : BBC9BAF8
CRC32 hash (skip zero) : 7B1BDF50
AccurateRip v1 signature : CE339E96
AccurateRip v2 signature : 8CD3771E
->Accurately ripped (v2, confidence 5/5)
Statistics
Read error : 0
Jitter error (maybe fixed) : 0
Retry sector count : 0
Damaged sector count : 0

Track 09
Filename : /Volumes/Transmission 4TB/+Apollo Launchpad/Billy Cobham - B.C. (1979) [FLAC]/09 What Is Your Fantasy [12" Version].flac
Pre-gap length : 00:02:00

Track gain : -4.26 dB
Peak : 0.944550
CRC32 hash (test run) : 044DA8C3
CRC32 hash : 044DA8C3
CRC32 hash (skip zero) : 8C34C56B
AccurateRip v1 signature : 014C5208
AccurateRip v2 signature : B54D24FA
->Accurately ripped (v2, confidence 5/5)
Statistics
Read error : 0
Jitter error (maybe fixed) : 0
Retry sector count : 0
Damaged sector count : 0

No errors occurred

End of status report

––-BEGIN XLD SIGNATURE––-
byKiF9WN6lx1Hk1jvmDC73U9tHVktiA0oC43U22VNiMFBVj0yYtTmXr58HsTREp1kltmd8Xv8BPP04ukcJ9BUflXVArkKDffW7RRoIW
––-END XLD SIGNATURE––-


foobar2000 1.3.13 / Dynamic Range Meter 1.1.1
log date: 2019-01-14 19:02:47

––––––––––––––––––––––––––––––––––––––––
Analyzed: Billy Cobham / B.C.
––––––––––––––––––––––––––––––––––––––––

DR Peak RMS Duration Track
––––––––––––––––––––––––––––––––––––––––
DR13 -0.50 dB -15.68 dB 6:41 01-Oh Mendocino
DR14 -0.50 dB -16.40 dB 4:32 02-Dana
DR15 -0.50 dB -16.86 dB 3:34 03-What Is Your Fantasy
DR12 -0.50 dB -14.44 dB 4:13 04-A Little Travelin' Music
DR11 -0.50 dB -13.56 dB 6:24 05-The Lonely Bull (El Solo Toro)
DR11 -0.50 dB -13.55 dB 4:10 06-I Don't Want To Be Without You
DR15 -0.50 dB -16.70 dB 4:28 07-Bring Up The House Lights
DR15 -0.50 dB -18.89 dB 7:25 08-Vlaster - An Encounter
DR13 -0.50 dB -14.63 dB 7:35 09-What Is Your Fantasy [12" Version]
––––––––––––––––––––––––––––––––––––––––

Number of tracks: 9
Official DR value: DR13

Samplerate: 44100 Hz
Channels: 2
Bits per sample: 16
Bitrate: 864 kbps
Codec: FLAC
================================================================================

Billy Cobham - B.C. (1979) {Wounded Bird}


Thanks to the original ripper