Subcategories
Tags
Language
Tags

Billy Cobham - Drum 'n' Voice 2 (2006) {Just Groove}

Posted By: tiburon
Billy Cobham - Drum 'n' Voice 2 (2006) {Just Groove}

Billy Cobham - Drum 'n' Voice 2 (2006) {Just Groove}
EAC 0.95b3 | FLAC tracks level 8 | Cue+Log+M3U | Full Scans 300dpi | 467MB + 5% Recovery
MP3 CBR 320 Kbps | 117MB + 5% Recovery
Genre: Fusion

Drummer Billy Cobham played some of the most exciting music of the 1970s. As a member of the Mahavishnu Orchestra and as a leader of his own bands, Cobham was at the forefront of the jazz fusion movement and was a prime mover during its glory days. He was still at it as of 2007, and proved more than capable of keeping up with both the new breed of fusion players and fellow veterans. Assisted by such stalwarts as Jan Hammer, Jeff Berlin, and Brian Auger, Cobham storms, crackles, and soars through a dazzling brace of dynamic, concise compositions on DRUM 'N' VOICE 2.
Track List
01. Waveform
02. Real Funk
03. Running
04. Final Destination
05. One More Day To Live
06. Ozone Part 1
07. Ozone Part 2
08. Take Seven
09. Let Me Breathe
10. Amazon

musicians
Billy Cobham - drums
John Patitucci - bass
Airto Moreira - percussion, vocals
Frank Gambale - guitar
Dominic Miller - guitar
Jeff Berlin - bass
Jan Hammer - synthesizer
Brian Auger - Hammond organ
Marco Fadda - percussion
Buddy Miles - vocals
Mike Lindup - vocals
Dora Nicolosi - vocals
Juan Carlos Calderin - percussion
Lino Nicolosi - guitar
Michele Carrabba - tenor saxophone
Pepe Ragonese - trumpet
Guy Barker - flugelhorn
Pino Nicolosi - Fender Rhodes, piano
Rossana Nicolosi - bass

Produced by Nicolosi "Novecento"


EAC extraction logfile from 27. November 2006, 20:12 for CD
Billy Cobham / Drum 'n' Voice 2

Used drive : PLEXTOR DVDR PX-716A Adapter: 1 ID: 0
Read mode : Secure with NO C2, accurate stream, disable cache
Read offset correction : 30
Overread into Lead-In and Lead-Out : No

Used output format : C:\Programmi\Exact Audio Copy\flac-1.1.2-win\bin\flac.exe (User Defined Encoder)
32 kBit/s
Additional command line options : -8 -V %s

Other options :
Fill up missing offset samples with silence : Yes
Delete leading and trailing silent blocks : No
Installed external ASPI interface


Track 1
Filename F:\[MyRip]\01 - Waveform.wav

Pre-gap length 0:00:02.00

Peak level 98.8 %
Track quality 100.0 %
Test CRC 01C8EB8E
Copy CRC 01C8EB8E
Copy OK

Track 2
Filename F:\[MyRip]\02 - Real Funk.wav

Pre-gap length 0:00:02.00

Peak level 97.7 %
Track quality 100.0 %
Test CRC 4076642C
Copy CRC 4076642C
Copy OK

Track 3
Filename F:\[MyRip]\03 - Running.wav

Pre-gap length 0:00:02.00

Peak level 98.8 %
Track quality 100.0 %
Test CRC 22DEDF76
Copy CRC 22DEDF76
Copy OK

Track 4
Filename F:\[MyRip]\04 - Final Destination.wav

Pre-gap length 0:00:02.00

Peak level 100.0 %
Track quality 100.0 %
Test CRC 749695C2
Copy CRC 749695C2
Copy OK

Track 5
Filename F:\[MyRip]\05 - One More Day To Live.wav

Pre-gap length 0:00:02.00

Peak level 98.8 %
Track quality 100.0 %
Test CRC 8DA24E8B
Copy CRC 8DA24E8B
Copy OK

Track 6
Filename F:\[MyRip]\06 - Ozone Part 1.wav

Pre-gap length 0:00:02.00

Peak level 98.8 %
Track quality 100.0 %
Test CRC 278693FC
Copy CRC 278693FC
Copy OK

Track 7
Filename F:\[MyRip]\07 - Ozone Part 2.wav

Peak level 98.0 %
Track quality 100.0 %
Test CRC 00FD3162
Copy CRC 00FD3162
Copy OK

Track 8
Filename F:\[MyRip]\08 - Take Seven.wav

Pre-gap length 0:00:02.00

Peak level 100.0 %
Track quality 100.0 %
Test CRC 8AC38FD8
Copy CRC 8AC38FD8
Copy OK

Track 9
Filename F:\[MyRip]\09 - Let Me Breathe.wav

Pre-gap length 0:00:02.00

Peak level 100.0 %
Track quality 100.0 %
Test CRC 0D11B468
Copy CRC 0D11B468
Copy OK

Track 10
Filename F:\[MyRip]\10 - Amazon.wav

Pre-gap length 0:00:02.00

Peak level 98.8 %
Track quality 100.0 %
Test CRC 394A73F1
Copy CRC 394A73F1
Copy OK

No errors occured


End of status report


––––––––––––––––––––––––––––––––––––––––
Analyzed: Billy Cobham / Drum 'n' Voice
––––––––––––––––––––––––––––––––––––––––

DR Peak RMS Duration Track
––––––––––––––––––––––––––––––––––––––––
DR10 -0.10 dB -11.55 dB 5:06 01-Waveform
DR9 -0.19 dB -10.41 dB 4:38 02-Real Funk
DR7 -0.10 dB -9.25 dB 7:48 03-Running
DR10 0.00 dB -11.53 dB 6:56 04-Final Destination
DR10 -0.10 dB -11.67 dB 5:15 05-One More Day To Live
DR16 -0.10 dB -18.80 dB 2:13 06-Ozone Part 1
DR9 -0.18 dB -11.24 dB 6:31 07-Ozone Part 2
DR10 0.00 dB -11.81 dB 6:04 08-Take Seven
DR11 0.00 dB -12.45 dB 4:26 09-Let Me Breathe
DR14 -0.10 dB -16.01 dB 2:11 10-Amazon
––––––––––––––––––––––––––––––––––––––––

Number of tracks: 10
Official DR value: DR11

Samplerate: 44100 Hz
Channels: 2
Bits per sample: 16
Bitrate: 893 kbps
Codec: FLAC
================================================================================

Billy Cobham - Drum 'n' Voice 2 (2006) {Just Groove}
Billy Cobham - Drum 'n' Voice 2 (2006) {Just Groove}
Billy Cobham - Drum 'n' Voice 2 (2006) {Just Groove}


Thanks to the original ripper