Subcategories
Tags
Language
Tags

Billy Cobham - Radioactive (2005) [2CDs] {Eagle Rock}

Posted By: tiburon
Billy Cobham - Radioactive (2005) [2CDs] {Eagle Rock}

Billy Cobham - Radioactive (2005) [2CDs] {Eagle Rock}
EAC 0.95b4 | FLAC tracks level 8 | Cue+Log+M3U | Full Scans 300dpi | 668MB + 5% Recovery
MP3 CBR 320 Kbps | 256MB + 5% Recovery
Genre: Jazz, Fusion

2-CD containing both "Hope street" and "Powerplay" albums. A highly acclaimed drummer than need no introduction in the fusion / jazz world, once behind the drums of MAHAVISHNU ORCHESTRA.

Track List

CD1 - Hope Street
1. Claustrophobia (6:20)
2. In The Bar (5:15)
3. Ann (7:25)
4. Crescent 434 (5:44)
5. Hope Street (5:45)
6. 5 Will Get You 7 (7:01)
7. Dawa (8:05)
8. 6/8 (6:09)
9. Uooooh's Danse (4:39)
10. SOS (4:38)

musicians
Acoustic Bass, Electric Bass – Torben Bjørnskov Bøtker
Alto Saxophone, Tenor Saxophone, Soprano Saxophone, Flute – Marc Bernstein
Drums, Percussion – Niclas Campagnol
Guitar – Hans Henrik Bay
Piano – Henrik Sørensen
Vocals – Søren Frieboe

CD2 - Powerplay
1. Times Of My Life (5:20)
2. Zanzibar Breeze (4:52)
3. Radioactive (4:03)
4. A Light Shines In Your Eyes/ Summit Afrique (Excerpts From…) (6:02)
5. A. The Foundation ('Isisekelo Zulu') (2:03)
6. B. Dance Of The Blue Men/ The Nomads (2:03)
7. C. The Debate ('Indaba') (0:51)
8. D. The Conflict (1:41)
9. E. The Little One (4:50)
10. F. The Promise… Unity ('Isithembiso… Umanyano') (2:25)
11. Desiccated Coconuts (4:27)
12. Tinseltown (5:55)
13. Schmagofatz (6:15)

musicians
Bass – Baron Browne
Drums, Drum Programming – Billy Cobham
Guitar [Synthesizer] – Dean Brown
Keyboards – Gerry Etkins, Onaje Allan Gumbs
Percussion – Sa Davis


EAC extraction logfile from 31. December 2006, 19:27 for CD
Billy Cobham / Radioactive (CD 1 - Hope Street)

Used drive : BENQ DVD LS DW1655 Adapter: 0 ID: 0
Read mode : Secure with NO C2, accurate stream, disable cache
Read offset correction : 684
Overread into Lead-In and Lead-Out : No

Used output format : C:\Program Files\EAC 0.95\flac.exe (User Defined Encoder)
256 kBit/s
Additional command line options : -V -8 -T "artist=%a" -T "title=%t" -T "album=%g" -T "date=%y" -T "tracknumber=%n" -T "genre=%m" %s

Other options :
Fill up missing offset samples with silence : Yes
Delete leading and trailing silent blocks : No
Installed external ASPI interface


Track 1
Filename C:\_Music\flac\Billy Cobham - Radioactive (CD 1 - Hope Street) (2005) [FLAC]\01 - Claustrophobia.wav

Pre-gap length 0:00:02.00

Peak level 98.0 %
Track quality 100.0 %
Test CRC 55A921B8
Copy CRC 55A921B8
Copy OK

Track 2
Filename C:\_Music\flac\Billy Cobham - Radioactive (CD 1 - Hope Street) (2005) [FLAC]\02 - In The Bar.wav

Pre-gap length 0:00:02.00

Peak level 98.0 %
Track quality 100.0 %
Test CRC 8FBFC361
Copy CRC 8FBFC361
Copy OK

Track 3
Filename C:\_Music\flac\Billy Cobham - Radioactive (CD 1 - Hope Street) (2005) [FLAC]\03 - Ann.wav

Pre-gap length 0:00:02.00

Peak level 98.0 %
Track quality 100.0 %
Test CRC D8A03548
Copy CRC D8A03548
Copy OK

Track 4
Filename C:\_Music\flac\Billy Cobham - Radioactive (CD 1 - Hope Street) (2005) [FLAC]\04 - Cresent 434.wav

Pre-gap length 0:00:02.00

Peak level 98.0 %
Track quality 100.0 %
Test CRC D29BAE0D
Copy CRC D29BAE0D
Copy OK

Track 5
Filename C:\_Music\flac\Billy Cobham - Radioactive (CD 1 - Hope Street) (2005) [FLAC]\05 - Hope Street.wav

Pre-gap length 0:00:02.00

Peak level 98.0 %
Track quality 100.0 %
Test CRC D5363CF8
Copy CRC D5363CF8
Copy OK

Track 6
Filename C:\_Music\flac\Billy Cobham - Radioactive (CD 1 - Hope Street) (2005) [FLAC]\06 - 5 Will Get You 7.wav

Pre-gap length 0:00:02.00

Peak level 98.0 %
Track quality 100.0 %
Test CRC AAF28A16
Copy CRC AAF28A16
Copy OK

Track 7
Filename C:\_Music\flac\Billy Cobham - Radioactive (CD 1 - Hope Street) (2005) [FLAC]\07 - Dawa.wav

Pre-gap length 0:00:02.00

Peak level 92.3 %
Track quality 100.0 %
Test CRC 605B8C2D
Copy CRC 605B8C2D
Copy OK

Track 8
Filename C:\_Music\flac\Billy Cobham - Radioactive (CD 1 - Hope Street) (2005) [FLAC]\08 - 6,8.wav

Pre-gap length 0:00:02.00

Peak level 98.1 %
Track quality 100.0 %
Test CRC AE3C5736
Copy CRC AE3C5736
Copy OK

Track 9
Filename C:\_Music\flac\Billy Cobham - Radioactive (CD 1 - Hope Street) (2005) [FLAC]\09 - Uooooh's Danse.wav

Pre-gap length 0:00:02.00

Peak level 98.8 %
Track quality 99.9 %
Test CRC CCF15EAC
Copy CRC CCF15EAC
Copy OK

Track 10
Filename C:\_Music\flac\Billy Cobham - Radioactive (CD 1 - Hope Street) (2005) [FLAC]\10 - Sos.wav

Pre-gap length 0:00:02.00

Peak level 98.1 %
Track quality 100.0 %
Test CRC E0051F81
Copy CRC E0051F81
Copy OK

No errors occured


End of status report
_________________________________________________________________________
EAC extraction logfile from 31. December 2006, 19:47 for CD
Billy Cobham / Radioavtive (CD 2 - Powerplay)

Used drive : BENQ DVD LS DW1655 Adapter: 0 ID: 0
Read mode : Secure with NO C2, accurate stream, disable cache
Read offset correction : 684
Overread into Lead-In and Lead-Out : No

Used output format : C:\Program Files\EAC 0.95\flac.exe (User Defined Encoder)
256 kBit/s
Additional command line options : -V -8 -T "artist=%a" -T "title=%t" -T "album=%g" -T "date=%y" -T "tracknumber=%n" -T "genre=%m" %s

Other options :
Fill up missing offset samples with silence : Yes
Delete leading and trailing silent blocks : No
Installed external ASPI interface


Track 1
Filename C:\_Music\flac\Billy Cobham - Radioavtive (CD 2 - Powerplay) (2005) [FLAC]\01 - Times Of My Life.wav

Pre-gap length 0:00:02.00

Peak level 100.0 %
Track quality 100.0 %
Test CRC 8A5880B2
Copy CRC 8A5880B2
Copy OK

Track 2
Filename C:\_Music\flac\Billy Cobham - Radioavtive (CD 2 - Powerplay) (2005) [FLAC]\02 - Zanzibar Breeze.wav

Peak level 100.0 %
Track quality 100.0 %
Test CRC 367B99D2
Copy CRC 367B99D2
Copy OK

Track 3
Filename C:\_Music\flac\Billy Cobham - Radioavtive (CD 2 - Powerplay) (2005) [FLAC]\03 - Radioactive.wav

Pre-gap length 0:00:02.00

Peak level 100.0 %
Track quality 100.0 %
Test CRC A86D1873
Copy CRC A86D1873
Copy OK

Track 4
Filename C:\_Music\flac\Billy Cobham - Radioavtive (CD 2 - Powerplay) (2005) [FLAC]\04 - A Light Shines In Your Eyes Summit Afrique ( Excerpts From …).wav

Pre-gap length 0:00:02.00

Peak level 59.6 %
Track quality 100.0 %
Test CRC D2244312
Copy CRC D2244312
Copy OK

Track 5
Filename C:\_Music\flac\Billy Cobham - Radioavtive (CD 2 - Powerplay) (2005) [FLAC]\05 - A.The Foundation ('Isisekelo Zulu').wav

Pre-gap length 0:00:02.00

Peak level 93.1 %
Track quality 100.0 %
Test CRC 64169FA9
Copy CRC 64169FA9
Copy OK

Track 6
Filename C:\_Music\flac\Billy Cobham - Radioavtive (CD 2 - Powerplay) (2005) [FLAC]\06 - B.Dance Of The Blue Men,The Nomads.wav

Peak level 100.0 %
Track quality 100.0 %
Test CRC 37F0729D
Copy CRC 37F0729D
Copy OK

Track 7
Filename C:\_Music\flac\Billy Cobham - Radioavtive (CD 2 - Powerplay) (2005) [FLAC]\07 - C.The Debate ('Indaba').wav

Peak level 99.9 %
Track quality 100.0 %
Test CRC 6DC379DB
Copy CRC 6DC379DB
Copy OK

Track 8
Filename C:\_Music\flac\Billy Cobham - Radioavtive (CD 2 - Powerplay) (2005) [FLAC]\08 - D.The Conflict ('Ingxabano').wav

Peak level 100.0 %
Track quality 100.0 %
Test CRC 232AEE8A
Copy CRC 232AEE8A
Copy OK

Track 9
Filename C:\_Music\flac\Billy Cobham - Radioavtive (CD 2 - Powerplay) (2005) [FLAC]\09 - E.The Little One ('Omncane').wav

Peak level 80.9 %
Track quality 100.0 %
Test CRC 412BA5A4
Copy CRC 412BA5A4
Copy OK

Track 10
Filename C:\_Music\flac\Billy Cobham - Radioavtive (CD 2 - Powerplay) (2005) [FLAC]\10 - F.The Promise…Unity ('Isithembiso…Umanyano').wav

Peak level 100.0 %
Track quality 100.0 %
Test CRC 0132B600
Copy CRC 0132B600
Copy OK

Track 11
Filename C:\_Music\flac\Billy Cobham - Radioavtive (CD 2 - Powerplay) (2005) [FLAC]\11 - Desiccated Coconuts.wav

Peak level 100.0 %
Track quality 100.0 %
Test CRC 000DFB2C
Copy CRC 000DFB2C
Copy OK

Track 12
Filename C:\_Music\flac\Billy Cobham - Radioavtive (CD 2 - Powerplay) (2005) [FLAC]\12 - Tinseltown.wav

Peak level 100.0 %
Track quality 100.0 %
Test CRC 1766D2D9
Copy CRC 1766D2D9
Copy OK

Track 13
Filename C:\_Music\flac\Billy Cobham - Radioavtive (CD 2 - Powerplay) (2005) [FLAC]\13 - Schmagofatz.wav

Pre-gap length 0:00:02.00

Peak level 97.7 %
Track quality 100.0 %
Test CRC 4F5F9CB8
Copy CRC 4F5F9CB8
Copy OK

No errors occured


End of status report


foobar2000 1.3.13 / Dynamic Range Meter 1.1.1
log date: 2020-09-13 17:26:51

––––––––––––––––––––––––––––––––––––––––
Analyzed: Billy Cobham's New Ensemble / Radioactive - CD1 Hope Street
––––––––––––––––––––––––––––––––––––––––

DR Peak RMS Duration Track
––––––––––––––––––––––––––––––––––––––––
DR15 -0.17 dB -16.19 dB 6:20 01-Claustrophobia
DR14 -0.17 dB -16.27 dB 5:15 02-In The Bar
DR12 -0.17 dB -15.38 dB 7:25 03-Ann
DR14 -0.17 dB -15.59 dB 5:44 04-Cresent 434
DR13 -0.17 dB -15.31 dB 5:45 05-Hope Street
DR13 -0.17 dB -15.73 dB 7:02 06-5 Will Get You 7
DR17 -0.69 dB -23.14 dB 8:06 07-Dawa
DR12 -0.16 dB -14.87 dB 6:09 08-6/8
DR16 -0.10 dB -18.07 dB 4:39 09-Uooooh's Danse
DR13 -0.17 dB -15.45 dB 4:36 10-SOS
––––––––––––––––––––––––––––––––––––––––

Number of tracks: 10
Official DR value: DR14

Samplerate: 44100 Hz
Channels: 2
Bits per sample: 16
Bitrate: 894 kbps
Codec: FLAC
================================================================================
foobar2000 1.3.13 / Dynamic Range Meter 1.1.1
log date: 2020-09-13 17:28:03

––––––––––––––––––––––––––––––––––––––––
Analyzed: B. Dance Of The Blue Men / Radioactive - CD2 Powerplay (1)
Billy Cobham's New Ensemble / Radioactive - CD2 Powerplay (2-13)
––––––––––––––––––––––––––––––––––––––––

DR Peak RMS Duration Track
––––––––––––––––––––––––––––––––––––––––
DR15 0.00 dB -17.42 dB 2:03 06-The Nomads
DR15 0.00 dB -18.32 dB 5:18 01-Times Of My Life
DR16 0.00 dB -17.73 dB 4:54 02-Zanzibar Breeze
DR14 0.00 dB -16.81 dB 4:04 03-Radioactive
DR13 -4.49 dB -19.19 dB 6:03 04-A Light Shines In Your Eyes Summit Afrique ( Excerpts From …)
DR15 -0.62 dB -18.32 dB 2:01 05-A. The Foundation (''Isisekelo Zulu'')
DR16 -0.01 dB -19.52 dB 0:51 07-C. The Debate (''Indaba'')
DR15 0.00 dB -16.69 dB 1:42 08-D. The Conflict (''Ingxabano'')
DR14 -1.84 dB -20.64 dB 4:50 09-E. The Little One (''Omncane'')
DR15 0.00 dB -16.57 dB 2:16 10-F. The Promise….Unity (''Isithembiso…Umanyano'')
DR16 0.00 dB -17.03 dB 4:27 11-Desiccated Coconuts
DR16 0.00 dB -17.09 dB 5:58 12-Tinseltown
DR17 -0.19 dB -19.29 dB 6:13 13-Schmagofatz
––––––––––––––––––––––––––––––––––––––––

Number of tracks: 13
Official DR value: DR15

Samplerate: 44100 Hz
Channels: 2
Bits per sample: 16
Bitrate: 831 kbps
Codec: FLAC
================================================================================

Billy Cobham - Radioactive (2005) [2CDs] {Eagle Rock}
Billy Cobham - Radioactive (2005) [2CDs] {Eagle Rock}
Billy Cobham - Radioactive (2005) [2CDs] {Eagle Rock}


Thanks to the original ripper