Subcategories
Tags
Language
Tags

Billy Cobham - Tales From The Skeleton Coast (2014) {Creative MultiMedia}

Posted By: tiburon
Billy Cobham - Tales From The Skeleton Coast (2014) {Creative MultiMedia}

Billy Cobham - Tales From The Skeleton Coast (2014) {Creative MultiMedia}
EAC 1.0b2 | FLAC tracks level 8 | Cue+Log+M3U | Full Scans 400dpi | 454MB + 5% Recovery
MP3 CBR 320 Kbps | 158MB + 5% Recovery
Genre: Fusion
Billy Cobham - Tales From The Skeleton Coast (2014) {Creative MultiMedia}

Today marks the 70th birthday of one of the greatest drummers of this, or any generation; the remarkable Billy Cobham. From his earliest recordings with Horace Silver, Miles Davis and Milt Jackson, to his scintillating and seminal work with John McLaughlin's Mahavishnu Orchestra, keyboardist George Duke, and his own groups, like Culture Mix, Asere and the Spectrum 40; Cobham has thrilled audiences around the world by bringing his incomparable talents as a composer, drummer, and producer to the forefront of jazz, rock, fusion and world music. His latest effort is the eagerly awaited "Tales from the Skeleton Coast", part 3 of a series dedicated to his Panamanian parents.
Track List
01. Pomegranates
02. Sal Si Puedes (Get Out If You Can!)
03. March Of The Pomegranates
04. Ingel Inside
05. Tales Of The Skeleton Coast (Intro)
06. Behold! The Coast Of Lost Ships
07. Locusts Incoming
08. Reunion "9"
09. Tales From The Skeleton Coast (Outro)
10. Cap Breton
11. Konakol Conversation
12. Na Pasashok

musicians
Billy Cobham - drums, percussion
Jean-Marie Ecay - electric & acoustic guitars
Carl Orr - acoustic guitar
Gary Husband - piano
Gerardo Martinez - trumpet
Bernard Camion - trombone
Thierry Farrugla - saxophone
Andy Panayi - alto flute
Camelia Ben Naceur - piano, electric piano, synthesizer
Christophe Cravero - keyboards, organ, piano, electric piano, synthesizer, viola
Mike Mondesir - basss, electric bass
Kevin Reveyrand - electric bass
Jean-Michel Carbonnel - acoustic bass
Wilbert Junior Gill - steel pan drums, percussion
Marco Lobo - latin percussion
Joel De Almeida - konakkol, vocals
Johan Renard - violin
Pierre-Marie Braye - violin
Clement Petit - cello

Produced by Billy Cobham


Exact Audio Copy V1.0 beta 2 from 29. April 2011

EAC extraction logfile from 24. October 2014, 12:58

Billy Cobham / Tales From The Skeleton Coast

Used drive : HL-DT-STDVDRAM GH24NS70 Adapter: 0 ID: 1

Read mode : Secure
Utilize accurate stream : Yes
Defeat audio cache : Yes
Make use of C2 pointers : No

Read offset correction : 667
Overread into Lead-In and Lead-Out : No
Fill up missing offset samples with silence : Yes
Delete leading and trailing silent blocks : No
Null samples used in CRC calculations : Yes
Used interface : Native Win32 interface for Win NT & 2000
Gap handling : Appended to previous track

Used output format : User Defined Encoder
Selected bitrate : 1024 kBit/s
Quality : High
Add ID3 tag : No
Command line compressor : C:\Program Files (x86)\FLAC\flac.exe
Additional command line options : -8 -V -T "ARTIST=%artist%" -T "TITLE=%title%" -T "ALBUM=%albumtitle%" -T "DATE=%year%" -T "TRACKNUMBER=%tracknr%" -T "GENRE=%genre%" -T "COMMENT=EAC FLAC 1.2.1 -8" %source%


TOC of the extracted CD

Track | Start | Length | Start sector | End sector
––––––––––––––––––––––––––––-
1 | 0:00.00 | 4:48.54 | 0 | 21653
2 | 4:48.54 | 9:00.12 | 21654 | 62165
3 | 13:48.66 | 7:08.00 | 62166 | 94265
4 | 20:56.66 | 6:55.09 | 94266 | 125399
5 | 27:52.00 | 0:42.24 | 125400 | 128573
6 | 28:34.24 | 5:13.54 | 128574 | 152102
7 | 33:48.03 | 1:39.38 | 152103 | 159565
8 | 35:27.41 | 5:46.03 | 159566 | 185518
9 | 41:13.44 | 0:47.39 | 185519 | 189082
10 | 42:01.08 | 5:28.57 | 189083 | 213739
11 | 47:29.65 | 2:58.67 | 213740 | 227156
12 | 50:28.57 | 12:03.47 | 227157 | 281428


Track 1

Filename F:\what_cd_up\Billy Cobham - Tales From The Skeleton Coast (2014)\01 - Pomegranates.wav

Pre-gap length 0:00:02.00

Peak level 99.9 %
Extraction speed 1.2 X
Track quality 100.0 %
Test CRC 8D326DE9
Copy CRC 8D326DE9
Accurately ripped (confidence 1) [4272229A] (AR v2)
Copy OK

Track 2

Filename F:\what_cd_up\Billy Cobham - Tales From The Skeleton Coast (2014)\02 - Sal Si Puedes.wav

Peak level 99.9 %
Extraction speed 1.4 X
Track quality 99.9 %
Test CRC 8D42C556
Copy CRC 8D42C556
Accurately ripped (confidence 1) [877AC0CF] (AR v2)
Copy OK

Track 3

Filename F:\what_cd_up\Billy Cobham - Tales From The Skeleton Coast (2014)\03 - The March Of The Pomegranates.wav

Peak level 99.9 %
Extraction speed 1.7 X
Track quality 100.0 %
Test CRC B8E1D5BB
Copy CRC B8E1D5BB
Accurately ripped (confidence 1) [D770FAD7] (AR v2)
Copy OK

Track 4

Filename F:\what_cd_up\Billy Cobham - Tales From The Skeleton Coast (2014)\04 - Insel Inside.wav

Pre-gap length 0:00:00.59

Peak level 96.1 %
Extraction speed 1.8 X
Track quality 100.0 %
Test CRC ACE68E14
Copy CRC ACE68E14
Accurately ripped (confidence 1) [DDD2E887] (AR v2)
Copy OK

Track 5

Filename F:\what_cd_up\Billy Cobham - Tales From The Skeleton Coast (2014)\05 - The Skeleton Coast.wav

Peak level 76.1 %
Extraction speed 1.1 X
Track quality 100.0 %
Test CRC 80A0A8B6
Copy CRC 80A0A8B6
Accurately ripped (confidence 1) [5258D355] (AR v2)
Copy OK

Track 6

Filename F:\what_cd_up\Billy Cobham - Tales From The Skeleton Coast (2014)\06 - Behold.wav

Peak level 99.9 %
Extraction speed 1.7 X
Track quality 99.9 %
Test CRC 0AD2D3DB
Copy CRC 0AD2D3DB
Accurately ripped (confidence 1) [3C0249B0] (AR v2)
Copy OK

Track 7

Filename F:\what_cd_up\Billy Cobham - Tales From The Skeleton Coast (2014)\07 - Locusts Incoming.wav

Peak level 99.9 %
Extraction speed 1.5 X
Track quality 100.0 %
Test CRC B2B21144
Copy CRC B2B21144
Accurately ripped (confidence 1) [365B0F45] (AR v2)
Copy OK

Track 8

Filename F:\what_cd_up\Billy Cobham - Tales From The Skeleton Coast (2014)\08 - Reunion 9.wav

Peak level 99.9 %
Extraction speed 2.1 X
Track quality 100.0 %
Test CRC 0AADC4C8
Copy CRC 0AADC4C8
Accurately ripped (confidence 1) [CEBE2D48] (AR v2)
Copy OK

Track 9

Filename F:\what_cd_up\Billy Cobham - Tales From The Skeleton Coast (2014)\09 - The Skeleton Coast Outro.wav

Peak level 99.9 %
Extraction speed 1.3 X
Track quality 100.0 %
Test CRC ECDD3510
Copy CRC ECDD3510
Accurately ripped (confidence 1) [E5D6710A] (AR v2)
Copy OK

Track 10

Filename F:\what_cd_up\Billy Cobham - Tales From The Skeleton Coast (2014)\10 - Cap Breton.wav

Peak level 99.9 %
Extraction speed 2.2 X
Track quality 100.0 %
Test CRC 56F91374
Copy CRC 56F91374
Accurately ripped (confidence 1) [DA176108] (AR v2)
Copy OK

Track 11

Filename F:\what_cd_up\Billy Cobham - Tales From The Skeleton Coast (2014)\11 - Konakol Conversation.wav

Pre-gap length 0:00:00.71

Peak level 99.9 %
Extraction speed 2.0 X
Track quality 100.0 %
Test CRC 12FD568E
Copy CRC 12FD568E
Accurately ripped (confidence 1) [2839B73F] (AR v2)
Copy OK

Track 12

Filename F:\what_cd_up\Billy Cobham - Tales From The Skeleton Coast (2014)\12 - Na Pasashok.wav

Peak level 99.9 %
Extraction speed 2.5 X
Track quality 100.0 %
Test CRC FE675081
Copy CRC FE675081
Accurately ripped (confidence 1) [EAB3007B] (AR v2)
Copy OK


All tracks accurately ripped

No errors occurred

End of status report

==== Log checksum 3230FEA98FDE4F0E0B003783C02F2509584100AE9EC1DF758CA1EEFE408F6830 ====


––––––––––––––––––––––––––––––––––––––––
Analyzed: Billy Cobham / Tales From The Skeleton Coast
––––––––––––––––––––––––––––––––––––––––

DR Peak RMS Duration Track
––––––––––––––––––––––––––––––––––––––––
DR8 -0.01 dB -9.09 dB 4:49 01-Pomegranates
DR7 -0.01 dB -8.45 dB 9:00 02-Sal Si Puedes
DR8 -0.01 dB -8.98 dB 7:08 03-The March of the Pomegranates
DR8 -0.35 dB -10.78 dB 6:55 04-Insel Inside
DR11 -2.37 dB -17.82 dB 0:42 05-The Skeleton Coast
DR7 -0.01 dB -8.86 dB 5:14 06-Behold
DR8 -0.01 dB -9.58 dB 1:40 07-Locusts Incoming
DR8 -0.01 dB -8.77 dB 5:46 08-Reunion 9
DR9 -0.01 dB -11.73 dB 0:48 09-The Skeleton Coast Outro
DR8 -0.01 dB -9.32 dB 5:29 10-Cap Breton
DR9 -0.01 dB -10.81 dB 2:59 11-Konakol Conversation
DR8 -0.01 dB -9.88 dB 12:04 12-Na Pasashok
––––––––––––––––––––––––––––––––––––––––

Number of tracks: 12
Official DR value: DR8

Samplerate: 44100 Hz
Channels: 2
Bits per sample: 16
Bitrate: 985 kbps
Codec: FLAC
================================================================================

Billy Cobham - Tales From The Skeleton Coast (2014) {Creative MultiMedia}
Billy Cobham - Tales From The Skeleton Coast (2014) {Creative MultiMedia}
Billy Cobham - Tales From The Skeleton Coast (2014) {Creative MultiMedia}