Subcategories
Tags
Language
Tags

Billy Cobham - The Art Of Five (2003) {IOR 77063}

Posted By: tiburon
Billy Cobham - The Art Of Five (2003) {IOR 77063}

Billy Cobham - The Art Of Five (2003) {IOR 77063}
EAC 0.99pb4 | FLAC tracks level 8 | Cue+Log+M3U | Full Scans 300dpi | 408MB + 5% Recovery
MP3 CBR 320 Kbps | 169MB + 5% Recovery
Genre: Jazz, Post-Bop
Billy Cobham - The Art Of Five (2003) {IOR 77063}

The group is call Billy Cobham’s Art of 5 and features Donald Harrison, Guy Barker, Julian Joseph, and Robert Hurst. I could tell from the line-up not to expect any Mahavishnu covers or “out there” fusion excursions, and what I got was what I expected: well-rendered post-bop with tasteful flourishes courtesy of Cobham. He really is a superb technician, and he follows soloists in ways I had yet to hear other drummers even attempt. He also seems to have incorporated the vocabulary of his “fusion” drumming into that of his “jazz” drumming, as evidenced by his fiery, unexpected press rolls and his rapid, quick-as-lightning kick drum hits.
Track List
01. Izatso 5:49
02. Good For The Soul 5:03
03. Jacquelyn 12:33
04. Camouflage 10:27
05. Time Lapse Photos 9:04
06. Infinite Heart 8:14
07. My Brother 12:23
08. Change Partners 5:22

musicians
Billy Cobham - drums
Guy Barker - trumpet
Donald Harrison - alto sax
Orlando Le Flemming - bass
Robert Hurst - bass
Eric Reed - piano
Julian Joseph - piano

Produced by Bill Cobham


Exact Audio Copy V0.99 prebeta 4 from 23. January 2008

EAC extraction logfile from 5. June 2008, 0:04

Billy Cobham / The Art Of Five

Used drive : PLEXTOR CD-R PREMIUM2 Adapter: 1 ID: 1

Read mode : Secure
Utilize accurate stream : Yes
Defeat audio cache : Yes
Make use of C2 pointers : No

Read offset correction : 30
Overread into Lead-In and Lead-Out : No
Fill up missing offset samples with silence : Yes
Delete leading and trailing silent blocks : No
Null samples used in CRC calculations : Yes
Used interface : Installed external ASPI interface
Gap handling : Appended to previous track

Used output format : User Defined Encoder
Selected bitrate : 32 kBit/s
Quality : High
Add ID3 tag : No
Command line compressor : C:\Programmi\FLAC\flac.exe
Additional command line options : -8 -V -T "ARTIST=%a" -T "TITLE=%t" -T "ALBUM=%g" -T "DATE=%y" -T "TRACKNUMBER=%n" -T "GENRE=%m" -T "COMMENT=EAC FLAC -8" %s


TOC of the extracted CD

Track | Start | Length | Start sector | End sector
––––––––––––––––––––––––––––-
1 | 0:00.00 | 5:49.60 | 0 | 26234
2 | 5:49.60 | 5:03.36 | 26235 | 48995
3 | 10:53.21 | 12:33.14 | 48996 | 105484
4 | 23:26.35 | 10:27.55 | 105485 | 152564
5 | 33:54.15 | 9:04.05 | 152565 | 193369
6 | 42:58.20 | 8:14.19 | 193370 | 230438
7 | 51:12.39 | 12:23.26 | 230439 | 286189
8 | 63:35.65 | 5:22.42 | 286190 | 310381


Track 1

Filename C:\My Rip\01 - Izatso.wav

Pre-gap length 0:00:02.00

Peak level 99.7 %
Track quality 100.0 %
Test CRC 6AEBD7DE
Copy CRC 6AEBD7DE
Accurately ripped (confidence 1) [E3094C9D]
Copy OK

Track 2

Filename C:\My Rip\02 - Good For The Soul.wav

Pre-gap length 0:00:02.00

Peak level 98.2 %
Track quality 99.9 %
Test CRC 32780588
Copy CRC 32780588
Accurately ripped (confidence 1) [F9841357]
Copy OK

Track 3

Filename C:\My Rip\03 - Jacquelyn.wav

Pre-gap length 0:00:02.32

Peak level 98.8 %
Track quality 100.0 %
Test CRC 615FA8FA
Copy CRC 615FA8FA
Accurately ripped (confidence 1) [48AC52B4]
Copy OK

Track 4

Filename C:\My Rip\04 - Camouflage.wav

Pre-gap length 0:00:02.00

Peak level 93.1 %
Track quality 100.0 %
Test CRC BA9ADE78
Copy CRC BA9ADE78
Accurately ripped (confidence 1) [F519841E]
Copy OK

Track 5

Filename C:\My Rip\05 - Time Lapse Photos.wav

Pre-gap length 0:00:02.00

Peak level 91.5 %
Track quality 100.0 %
Test CRC 877661E7
Copy CRC 877661E7
Accurately ripped (confidence 1) [04E60335]
Copy OK

Track 6

Filename C:\My Rip\06 - Infinite Heart.wav

Pre-gap length 0:00:02.00

Peak level 90.9 %
Track quality 100.0 %
Test CRC 102AB408
Copy CRC 102AB408
Accurately ripped (confidence 1) [B4ED8C25]
Copy OK

Track 7

Filename C:\My Rip\07 - My Brother.wav

Pre-gap length 0:00:02.00

Peak level 98.8 %
Track quality 100.0 %
Test CRC BF9DECA5
Copy CRC BF9DECA5
Accurately ripped (confidence 1) [72682031]
Copy OK

Track 8

Filename C:\My Rip\08 - Change Partners.wav

Pre-gap length 0:00:02.00

Peak level 80.6 %
Track quality 100.0 %
Test CRC AC5CC05A
Copy CRC AC5CC05A
Accurately ripped (confidence 1) [54F0B7F4]
Copy OK


All tracks accurately ripped

No errors occurred

End of status report


––––––––––––––––––––––––––––––––––––––––
Analyzed: Billy Cobham / The Art Of Five
––––––––––––––––––––––––––––––––––––––––

DR Peak RMS Duration Track
––––––––––––––––––––––––––––––––––––––––
DR15 -0.02 dB -18.21 dB 5:50 01-Izatso
DR16 -0.15 dB -18.07 dB 5:03 02-Good For The Soul
DR14 -0.10 dB -16.38 dB 12:33 03-Jacquelyn
DR14 -0.62 dB -17.58 dB 10:28 04-Camouflage
DR14 -0.76 dB -18.38 dB 9:04 05-Time Lapse Photos
DR13 -0.82 dB -17.53 dB 8:14 06-Infinite Heart
DR12 -0.10 dB -14.27 dB 12:23 07-My Brother
DR12 -1.87 dB -16.58 dB 5:23 08-Change Partners
––––––––––––––––––––––––––––––––––––––––

Number of tracks: 8
Official DR value: DR14

Samplerate: 44100 Hz
Channels: 2
Bits per sample: 16
Bitrate: 759 kbps
Codec: FLAC
================================================================================

Billy Cobham - 			  		  		  		 	 	  	 			   		   	  		 			  		  		  	 			   		  	   		  		  		 	    	 			   		   	  		 		   			  				 The Art Of Five (2003) {IOR 77063}
Billy Cobham - The Art Of Five (2003) {IOR 77063}
Billy Cobham - The Art Of Five (2003) {IOR 77063}


Thanks to the original ripper