Subcategories

Gianandrea Noseda, Metropolitan Opera Orchestra - Bizet: Les Pecheurs de Perles (2017) [Blu-Ray]

Posted By: Vilboa
Gianandrea Noseda, Metropolitan Opera Orchestra - Bizet: Les Pecheurs de Perles (2017) [Blu-Ray]

Gianandrea Noseda, Metropolitan Opera Orchestra - Bizet: Les Pêcheurs de Perles (2017) [Blu-Ray]
BluRay | BDMV | MPEG-4 AVC Video / 1080i / 29,970 fps | 120 min | 34,9 Gb
Audio1: Français / LPCM Audio / 2.0 / 24-bit | Audio2: DTS-HD Master Audio / 5.1 / 48 kHz / 24-bit
––––––
BluRay-rip | AVC | MKV 1920x1080 / 6215 kbps / 29,97 fps | 120 min | 8,48 Gb
Audio: Français / PCM / 2ch / 48.0 KHz / 24 bits | DTS / 6ch / 48.0 KHz / 24 bits
Classical | Erato | Sub: French, English, German, Spanish

Bizet’s Les Pêcheurs de perles, set in Sri Lanka, is known above all for its unforgettable duet for tenor and baritone, but it its score is full of delightful and dramatic music. When recently staged at the Metropolitan Opera in New York it proved a major success, both for the production by Penny Woolcock and the musical performance, conducted by Paolo Noseda, with (once again) Diana Damrau as the priestess Leïla and, as the two men competing for love, the tenor Matthew Polenzani (Nadir) and the baritone Mariusz Kwiecien (Zurga). Woolcock’s concept brought the production up to date, with photographic and video references to the 2004 tsunami, and offered a superb ‘aquatic’ spectacle during the overture: the whole stage appeared to be beneath the Indian Ocean and acrobatic divers ‘swam’ down from the surface (located in the flies of the theatre).

Cast:
Leïla - Diana Damrau
Nadir - Matthew Polenzani
Zurga - Mariusz Kwiecień
Nourabad - Nicolas Teste
Metropolitan Opera Orchestra and Chorus
Conductor - Gianandrea Noseda


General
ID : 0 (0x0)
Complete name : C:\LES PECHEURS DE PERLES\BDMV\STREAM\00000.m2ts
Format : BDAV
Format/Info : Blu-ray Video
File size : 12.7 GiB
Duration : 49mn 56s
Overall bit rate mode : Variable
Overall bit rate : 36.3 Mbps
Maximum Overall bit rate : 48.0 Mbps

Video
ID : 4113 (0x1011)
Menu ID : 1 (0x1)
Format : AVC
Format/Info : Advanced Video Codec
Format profile : High@L4.1
Format settings, CABAC : Yes
Format settings, ReFrames : 4 frames
Codec ID : 27
Duration : 49mn 55s
Bit rate mode : Variable
Maximum bit rate : 34.0 Mbps
Width : 1 920 pixels
Height : 1 080 pixels
Display aspect ratio : 16:9
Frame rate : 29.970 fps
Standard : NTSC
Color space : YUV
Chroma subsampling : 4:2:0
Bit depth : 8 bits
Scan type : MBAFF
Scan order : Top Field First
Color primaries : BT.709
Transfer characteristics : BT.709
Matrix coefficients : BT.709
Color range : Limited

Audio #1
ID : 4352 (0x1100)
Menu ID : 1 (0x1)
Format : PCM
Format settings, Endianness : Big
Format settings, Sign : Signed
Muxing mode : Blu-ray
Codec ID : 128
Duration : 49mn 55s
Bit rate mode : Constant
Bit rate : 2 304 Kbps
Channel(s) : 2 channels
Channel positions : Front: L R
Sampling rate : 48.0 KHz
Bit depth : 24 bits
Stream size : 823 MiB (6%)

Audio #2
ID : 4353 (0x1101)
Menu ID : 1 (0x1)
Format : DTS
Format/Info : Digital Theater Systems
Format profile : MA / Core
Mode : 16
Format settings, Endianness : Big
Muxing mode : Stream extension
Codec ID : 134
Duration : 49mn 55s
Bit rate mode : Variable
Bit rate : Unknown / 1 509 Kbps
Channel(s) : 6 channels
Channel positions : Front: L C R, Side: L R, LFE
Sampling rate : 48.0 KHz
Bit depth : 24 bits
Compression mode : Lossless / Lossy

Text #1
ID : 4608 (0x1200)
Menu ID : 1 (0x1)
Format : PGS
Codec ID : 144

Text #2
ID : 4609 (0x1201)
Menu ID : 1 (0x1)
Format : PGS
Codec ID : 144

Text #3
ID : 4610 (0x1202)
Menu ID : 1 (0x1)
Format : PGS
Codec ID : 144

Text #4
ID : 4611 (0x1203)
Menu ID : 1 (0x1)
Format : PGS
Codec ID : 144


General
Unique ID : 194474842888201190161386761250251277669 (0x924E7E09A7F014078DE34618FFC10565)
Complete name : C:\Les Pecheurs de perles.mkv
Format : Matroska
Format version : Version 2
File size : 8.49 GiB
Duration : 2h 0mn
Overall bit rate : 10.1 Mbps
Movie name : Les Pecheurs de perles
Encoded date : UTC 2020-03-17 10:19:53
Writing application : DVDFab 9.1.6.8
Writing library : libebml v0.7.8 + libmatroska v0.8.1

Video
ID : 1
Format : AVC
Format/Info : Advanced Video Codec
Format profile : High@L4.1
Format settings, CABAC : Yes
Format settings, ReFrames : 2 frames
Codec ID : V_MPEG4/ISO/AVC
Duration : 2h 0mn
Nominal bit rate : 6 215 Kbps
Width : 1 920 pixels
Height : 1 080 pixels
Display aspect ratio : 16:9
Frame rate mode : Constant
Frame rate : 29.970 fps
Color space : YUV
Chroma subsampling : 4:2:0
Bit depth : 8 bits
Scan type : Progressive
Bits/(Pixel*Frame) : 0.100
Writing library : x264 core 142
Encoding settings : cabac=1 / ref=1 / deblock=1:-1:-1 / analyse=0x3:0 / me=hex / subme=5 / psy=0 / mixed_ref=0 / me_range=16 / chroma_me=1 / trellis=0 / 8x8dct=1 / cqm=0 / deadzone=21,11 / fast_pskip=1 / chroma_qp_offset=0 / threads=8 / lookahead_threads=2 / sliced_threads=0 / nr=0 / decimate=1 / interlaced=0 / bluray_compat=0 / constrained_intra=0 / bframes=2 / b_pyramid=0 / b_adapt=1 / b_bias=0 / direct=1 / weightb=1 / open_gop=0 / weightp=0 / keyint=24 / keyint_min=13 / scenecut=40 / intra_refresh=0 / rc=abr / mbtree=0 / bitrate=6215 / ratetol=1.0 / qcomp=0.60 / qpmin=0 / qpmax=69 / qpstep=4 / ip_ratio=1.40 / pb_ratio=1.30 / aq=1:1.00
Default : Yes
Forced : No
Color primaries : BT.709
Transfer characteristics : BT.709
Matrix coefficients : BT.709
Color range : Limited

Audio #1
ID : 2
Format : PCM
Codec ID : A_PCM/INT/LIT
Duration : 2h 0mn
Bit rate mode : Constant
Channel(s) : 2 channels
Sampling rate : 48.0 KHz
Bit depth : 24 bits
Language : French
Default : Yes
Forced : No

Audio #2
ID : 3
Format : DTS
Format/Info : Digital Theater Systems
Mode : 16
Format settings, Endianness : Big
Codec ID : A_DTS
Duration : 2h 0mn
Bit rate mode : Constant
Bit rate : 1 509 Kbps
Channel(s) : 6 channels
Channel positions : Front: L C R, Side: L R, LFE
Sampling rate : 48.0 KHz
Bit depth : 24 bits
Compression mode : Lossy
Stream size : 1.27 GiB (15%)
Language : French
Default : No
Forced : No

Text #1
ID : 4
Format : VobSub
Codec ID : S_VOBSUB
Codec ID/Info : The same subtitle format used on DVDs
Language : English
Default : Yes
Forced : No

Text #2
ID : 5
Format : VobSub
Codec ID : S_VOBSUB
Codec ID/Info : The same subtitle format used on DVDs
Language : French
Default : No
Forced : No

Text #3
ID : 6
Format : VobSub
Codec ID : S_VOBSUB
Codec ID/Info : The same subtitle format used on DVDs
Language : German
Default : No
Forced : No

Text #4
ID : 7
Format : VobSub
Codec ID : S_VOBSUB
Codec ID/Info : The same subtitle format used on DVDs
Language : Spanish
Default : No
Forced : No

Menu
00:00:00.000 : en:Chapter 01
00:00:38.772 : en:Chapter 02
00:02:01.788 : en:Chapter 03
00:04:36.276 : en:Chapter 04
00:08:35.948 : en:Chapter 05
00:12:31.650 : en:Chapter 06
00:14:54.360 : en:Chapter 07
00:17:32.618 : en:Chapter 08
00:23:22.801 : en:Chapter 09
00:25:42.541 : en:Chapter 10
00:29:26.898 : en:Chapter 11
00:37:05.890 : en:Chapter 12
00:42:17.968 : en:Chapter 13
00:44:04.408 : en:Chapter 14
00:49:55.459 : en:Chapter 15
00:50:48.211 : en:Chapter 16
00:58:20.363 : en:Chapter 17
01:05:27.657 : en:Chapter 18
01:07:19.668 : en:Chapter 19
01:14:24.893 : en:Chapter 20
01:22:40.288 : en:Chapter 21
01:24:42.944 : en:Chapter 22
01:31:39.594 : en:Chapter 23
01:32:52.400 : en:Chapter 24
01:42:38.085 : en:Chapter 25
01:45:04.298 : en:Chapter 26
01:47:25.839 : en:Chapter 27
01:48:50.790 : en:Chapter 28
01:52:13.893 : en:Chapter 29
01:56:08.861 : en:Chapter 30

All screenshots taken from BDRip

Gianandrea Noseda, Metropolitan Opera Orchestra - Bizet: Les Pecheurs de Perles (2017) [Blu-Ray]