Subcategories

Gerard Caussee; OSR; Lior Shambadal - Ernest Bloch: Helvetia; Suite for Viola & Orchestra; Suite hebraique (2003)

Posted By: Designol
Gerard Caussee; OSR; Lior Shambadal - Ernest Bloch: Helvetia; Suite for Viola & Orchestra; Suite hebraique (2003)

Ernest Bloch: Helvetia; Suite for Viola & Orchestra; Suite hébraïque (2003)
Gérard Caussée, viola; Orchestre de la Suisse Romande; Lior Shambadal, conductor

EAC | FLAC | Image (Cue&Log) ~ 259 Mb | Mp3 (CBR320) ~ 170 Mb | Scans included
Genre: Classical | Label: Cascavelle | # RSR 6170 | Time: 01:12:20

Quite a little procession of Bloch discs have been issued recently, mostly with very little by way of fanfare. This is par for the course. When two years ago both Capriccio and Actes-Sud issued different recordings of Bloch's grand opera Macbeth there was not a single mainstream paper journal review.

This Swiss Cascavelle disc most adroitly presents the world premiere recording of the orchestral poem Helvetia alongside two less obscure works for viola and orchestra.

Helvetia was composed in San Francisco in 1929 and premiered by the redoubtable Frederick Stock in Chicago in 1932. This serves as further evidence for the premise that the most nationalist-nostalgic music is written in exile or at least from a distance. The work is subtitled The Land of Mountains and its People - A Symphonic Fresco for orchestra. It was the third of Bloch’s national 'epics'. The first was the symphony Israel 1916 (recorded by Abravanel on Vanguard). The second is America, the longest of the three at well over three-quarters of an hour. This was recorded by both Stokowski (Vanguard) and Gerard Schwarz (Delos). Both Helvetia and Israel are short by comparison. Helvetia, using the Latin name for Switzerland, is about the same length as Israel but unlike Israel is in a single movement and is for orchestra alone. The first two sections are alive with mysterious horn calls, high-floating strings and bird-calls all evocative of the Alpine heights. There is about this writing something of the Delius Song of the High Hills and of Strauss's Alpensinfonie though without the discursive bombast of the latter. At 10.02 a dancing oboe announces the appearance of the Swiss people and later a bluff rustic theme appears sounding like Vaughan Williams in straw and smock mood. However the exalted mountain air soon reasserts itself in natural dignity. According to the composer's notes (reproduced in the ideally designed booklet - French and English) the music moves to portray a medieval battle to throw out the invaders of Switzerland - a touch of Liszt's Hunnenschlacht here. A Swiss paean rings out like a chorale to signify the victory and as it fades the high Delian mysteries of the mountains return serene and eternal. This interesting work, which despite a momentary flirtation with hokiness in the hymn, registers pretty sincerely and is well worth hearing. Fortunately the pages depicting a trance-like communing with nature outnumber the episodes concerned with battle and victory. Indeed this inward element serves to bind the work together.

The Viola Suite was first written in New York in May 1919 for viola and piano. It was orchestrated in March 1920. He had intended it to be orchestrated all along. The composer made it clear that this was not intended to be one of his Jewish works (Schelomo, Avodath Hakodesh, Israel, A Voice in the Wilderness etc). Instead his aim was to portray the far east: Java, Sumatra and Borneo. This typefies a Gallic trend which can be heard in the works of Roussel, Ravel, Cras and Tomasi. The three movements are entitled In the Jungle (rhapsodic and glistening mysteriously), Grotesques (a macabre allegro ironico), Nocturne (a hieratic lento - suggesting a liana-entangled temple), The Land of the Sun (gamelan-bright rather like certain works by Henri Tomasi). This would go well with Roussel's Evocations, Ravel's Ma Mère l'Oye, and the Jungle-based works of Werner Josten and Charles Koechlin.

The Suite Hébraïque is in three movements. The first is full of modest grace and a certain blessed understated confidence. These are in the style of the suite Baal Shem for violin and orchestra; in fact this piece exists also in a version for violin and orchestra. It has been recorded on Supraphon by Hyman Bress. The Suite Hébraïque is rhapsodic but not as tormentedly lyrical as Schelomo. Gérard Caussée is masterly throughout, limning the contours with utmost care and some abandon when called for. This work would pair very neatly with Vaughan Williams' Flos Campi though it is not quite so sensual.

A highly attractive release, well designed and documented. Enthusiasts of Bloch, the viola and the mountain heights must not miss this.

Review by Rob Barnett, MusicWeb-International.com

Although written long after he had settled in the United States, Bloch’s Helvetia pays homage to the country of his birth. The composer’s intention seems to have been to depict the historical evolution of the people of Switzerland through their fight for liberty and independence within a quasi-symphonic framework. Along this journey there are frequent allusions to the country’s topography of mountains and forests, and at its bombastic climax Bloch even quotes directly from a traditional song from Geneva. The quieter outer sections of the work are particularly evocative. By contrast, the passages that depict national strife and conflict seem rather empty, and the melodic material seems insufficiently distinctive to carry the listener through the extended argument. Far more interesting is the larger-scale Viola Suite, its exotic and elaborate orchestration not only illustrating Bloch’s fascination with the Far East, but also surprisingly sharing common textural and harmonic ground with the music of Szymanowski. It receives a strongly committed and expressive performance from Gérard Caussé and the lush orchestral accompaniment is enhanced by the resonant acoustics of Geneva’s Victoria Hall. With the Suite hébraïque Bloch returns to the familiar rhapsodic style of Schelomo and Baal Shem. Once again Caussé plays with great intensity, but I wonder whether he could have effected a brighter timbre in the final movement, thus providing greater contrast to the sombre emotions of the ‘Rhapsodie’ and ‘Processional’.

Review by Erik Levi, BBC Music Magazine

Gerard Caussee; OSR; Lior Shambadal - Ernest Bloch: Helvetia; Suite for Viola & Orchestra; Suite hebraique (2003)



Gérard Caussée (viola)
Orchestre de la Suisse Romande
Lior Shambadal, conductor

rec. Victoria Hall, Geneva, 1-2 Sept 2002

Tracklist:

Ernest BLOCH (1880-1959)

01. Helvetia, The Land of Mountains and its People (23:54)

Suite for viola and orchestra
02. I. Lento - Allegro - Moderato (13:44)
03. II. Allegro ironico (5:27)
04. III. Lento (4:58)
05. IV. Molto vivo (9:28)

Suite Hébraïque for viola and orchestra
06. I. Rhapsodie (andante moderato) (7:07)
07. II. Processional (andante con moto) (3:24)
08. III. Affirmation (maestoso) (4:18)


Exact Audio Copy V0.99 prebeta 4 from 23. January 2008

Отчёт EAC об извлечении, выполненном 9. декабря 2009, 2:28

Gerard Causse, Viola - Lior Shambadal - OSR / Bloch Helvetia - Suite pour alto et orchestre - Suite Hйbraпque

Дисковод: Optiarc BD ROM BC-5500S Adapter: 2 ID: 0

Режим чтения : Достоверность
Использование точного потока : Да
Отключение кэша аудио : Нет
Использование указателей C2 : Нет

Коррекция смещения при чтении : 48
Способность читать области Lead-in и Lead-out : Нет
Заполнение пропущенных сэмплов тишиной : Да
Удаление блоков с тишиной в начале и конце : Нет
При вычислениях CRC использовались нулевые сэмплы : Нет
Интерфейс : Встроенный Win32-интерфейс для Win NT/2000

Выходной формат : Пользовательский кодировщик
Выбранный битрейт : 768 kBit/s
Качество : Высокий
Добавление ID3-тэга : Нет
Утилита сжатия : C:\Program Files\Exact Audio Copy\FLAC\FLAC.EXE
Дополнительные параметры : -6 -V -T "ARTIST=%a" -T "TITLE=%t" -T "ALBUM=%g" -T "DATE=%y" -T "TRACKNUMBER=%n" -T "GENRE=%m" -T "COMMENT=%e" %s -o %d


TOC извлечённого CD

Трек | Старт | Длительность | Начальный сектор | Конечный сектор
––––––––––––––––––––––––––––––––––-
1 | 0:00.00 | 23:54.22 | 0 | 107571
2 | 23:54.22 | 13:43.59 | 107572 | 169355
3 | 37:38.06 | 5:27.12 | 169356 | 193892
4 | 43:05.18 | 4:57.60 | 193893 | 216227
5 | 48:03.03 | 9:27.62 | 216228 | 258814
6 | 57:30.65 | 7:07.20 | 258815 | 290859
7 | 64:38.10 | 3:23.57 | 290860 | 306141
8 | 68:01.67 | 4:17.64 | 306142 | 325480


Характеристики диапазона извлечения и сообщения об ошибках

Выбранный диапазон

Имя файла D:\МУЗЫКА\Conversion\Gerard Causse, Viola - Lior Shambadal - OSR - Bloch Helvetia - Suite pour alto et orchestre - Suite Hйbraпque.wav

Пиковый уровень 99.4 %
Качество диапазона 99.9 %
CRC копии 2E0860A1
Копирование… OK

Ошибок не произошло


AccurateRip: сводка

Трек 1 нет в базе данных
Трек 2 нет в базе данных
Трек 3 нет в базе данных
Трек 4 нет в базе данных
Трек 5 нет в базе данных
Трек 6 нет в базе данных
Трек 7 нет в базе данных
Трек 8 нет в базе данных

Ни одного трека нет в базе AccurateRip

Конец отчёта

[CUETools log; Date: 06.01.2019 15:01:58; Version: 2.1.4]
[CTDB TOCID: .KRDo1znO9jCeMUZx9tAg_66PTM-] found.
Track | CTDB Status
1 | (3/3) Accurately ripped
2 | (3/3) Accurately ripped
3 | (3/3) Accurately ripped
4 | (3/3) Accurately ripped
5 | (3/3) Accurately ripped
6 | (3/3) Accurately ripped
7 | (3/3) Accurately ripped
8 | (3/3) Accurately ripped
[AccurateRip ID: 001c823b-00b032a4-7710f308] found.
Track [ CRC | V2 ] Status
01 [ede5d6a0|9432c3a6] (1+0/1) Accurately ripped
02 [ccae7211|f18387c2] (1+0/1) Accurately ripped
03 [3b94edff|b99932ae] (1+0/1) Accurately ripped
04 [3aa27390|4451e2f0] (1+0/1) Accurately ripped
05 [4759e998|23fa80ba] (1+0/1) Accurately ripped
06 [a0969e68|6b0c428e] (1+0/1) Accurately ripped
07 [8b0ff4d9|1b6234a1] (1+0/1) Accurately ripped
08 [6974158f|6b36e867] (1+0/1) Accurately ripped

Track Peak [ CRC32 ] [W/O NULL] [ LOG ]
– 99,4 [C67D1726] [2E0860A1] W/O NULL
01 99,4 [DF8CB90C] [B2ED8F54]
02 88,3 [61B1EB3C] [2306457F]
03 56,5 [C0F2BD7F] [438A474D]
04 8,0 [09C90617] [AA3AAFCD]
05 75,0 [C06CED55] [030F15A7]
06 87,5 [D2E25147] [6270E2D2]
07 38,0 [CCE2138F] [D05B867B]
08 45,0 [EE570255] [67915224]

foobar2000 1.2 / Dynamic Range Meter 1.1.1
log date: 2019-01-06 15:39:02

––––––––––––––––––––––––––––––––––––––––
Analyzed: Gerard Causse, Lior Shambadal, Suisse Romande Orchestra / Ernest Bloch: Helvetia, Suite pour alto et orchestre, Suite Hebraique
––––––––––––––––––––––––––––––––––––––––

DR Peak RMS Duration Track
––––––––––––––––––––––––––––––––––––––––
DR17 -0.05 dB -23.68 dB 23:54 01-Helvetia, fresque symphonique pour orchestre
DR19 -1.07 dB -27.94 dB 13:44 02-Suite pour alto et orchestre. I. Lento - Allegro - Moderato
DR18 -4.95 dB -30.63 dB 5:27 03-Suite pour alto et orchestre. II. Allegro ironico
DR11 -21.93 dB -37.66 dB 4:58 04-Suite pour alto et orchestre. III. Lento
DR16 -2.49 dB -26.66 dB 9:28 05-Suite pour alto et orchestre. IV. Molto vivo
DR16 -1.15 dB -27.46 dB 7:07 06-Suite Hebraique pour alto et orchestre. I. Rhapsodie (andante moderato)
DR12 -8.39 dB -28.71 dB 3:24 07-Suite Hebraique pour alto et orchestre. II. Processional (andante con moto)
DR14 -6.92 dB -30.52 dB 4:18 08-Suite Hebraique pour alto et orchestre. III. Affirmation (maestoso)
––––––––––––––––––––––––––––––––––––––––

Number of tracks: 8
Official DR value: DR15

Samplerate: 44100 Hz
Channels: 2
Bits per sample: 16
Bitrate: 492 kbps
Codec: FLAC
================================================================================

Gerard Caussee; OSR; Lior Shambadal - Ernest Bloch: Helvetia; Suite for Viola & Orchestra; Suite hebraique (2003)

All thanks to original releaser

More interesting music in My Blog