Subcategories

Bloden-Wedd - Eye Of Horus (2005) [Japanese Ed.]

Posted By: Andi_Deris
Bloden-Wedd - Eye Of Horus (2005) [Japanese Ed.]

Bloden-Wedd - Eye Of Horus (2005) [Japanese Ed.]
EAC Rip | FLAC: Image+Cue+Log | 418 Mb | MP3 CBR 320 kbps | 145 Mb | Scans | 88 Mb | 55:29
Soundholic Co. Ltd. | TKCS-85121
Heavy/Power Metal

Eye of Horus is the third release (second full length) from Bloden Wedd and although a vast improvement over previous efforts, their brand of speedy, melodic Helloween / Iron Maiden influenced power metal. There are lots of busy riffing styles, fills and instrumental interludes and the chorus sections are very good on most tracks but it's everything else that seems to be lacking.

Bloden-Wedd - Eye Of Horus (2005) [Japanese Ed.]




Track Listing

01. Lone Runner (02:50)
02. Firebird (04:07)
03. 7th Gate (04:25)
04. Still Believe (05:19)
05. Eye Of Horus (07:35)
06. Through The Heaven's Eyes (05:53)
07. Down The Road (04:01)
08. Power Metal Pride (03:35)
09. Daughter Of The Minotaur (03:42)
10. Untold Words (05:14)
11. Exodus (Bonus Track) (04:56)
12. Crazy Doctor (Loudness cover) (Bonus track for Japan) (03:52)

Produced by Bloden-Wedd

The Band

• Dan Elbelman - Guitars, Vocals
• Patota Atxondo - Guitars
• Pedro Aragón - Bass
• Max Acuña - Drums

*****
• Andrés Subercaseaux - Keyboards

Exact Audio Copy V0.99 prebeta 5 from 4. May 2009

EAC extraction logfile from 21. July 2012, 14:34

Bloden-Wedd / Eye Of Horus

Used drive : ATAPI iHAS624 B Adapter: 2 ID: 0

Read mode : Secure
Utilize accurate stream : Yes
Defeat audio cache : Yes
Make use of C2 pointers : No

Read offset correction : 6
Overread into Lead-In and Lead-Out : No
Fill up missing offset samples with silence : Yes
Delete leading and trailing silent blocks : No
Null samples used in CRC calculations : Yes
Used interface : Installed external ASPI interface

Used output format : User Defined Encoder
Selected bitrate : 40 kBit/s
Quality : High
Add ID3 tag : No
Command line compressor : C:\Program Files\Exact Audio Copy\Flac\flac.exe
Additional command line options : -6 -V %s


TOC of the extracted CD

Track | Start | Length | Start sector | End sector
––––––––––––––––––––––––––––-
1 | 0:00.00 | 2:50.14 | 0 | 12763
2 | 2:50.14 | 4:07.14 | 12764 | 31302
3 | 6:57.28 | 4:24.37 | 31303 | 51139
4 | 11:21.65 | 5:18.41 | 51140 | 75030
5 | 16:40.31 | 7:35.26 | 75031 | 109181
6 | 24:15.57 | 5:53.13 | 109182 | 135669
7 | 30:08.70 | 4:00.38 | 135670 | 153707
8 | 34:09.33 | 3:34.45 | 153708 | 169802
9 | 37:44.03 | 3:42.08 | 169803 | 186460
10 | 41:26.11 | 5:13.49 | 186461 | 209984
11 | 46:39.60 | 4:56.00 | 209985 | 232184
12 | 51:35.60 | 3:52.01 | 232185 | 249585
13 | 57:59.61 | 5:19.13 | 260986 | 284923


Range status and errors

Selected range

Filename D:\Download\Bloden-Wedd - Eye Of Horus.wav

Peak level 100.0 %
Range quality 100.0 %
Copy CRC 11DA4A8A
Copy OK

No errors occurred


AccurateRip summary

Track 1 not present in database
Track 2 not present in database
Track 3 not present in database
Track 4 not present in database
Track 5 not present in database
Track 6 not present in database
Track 7 not present in database
Track 8 not present in database
Track 9 not present in database
Track 10 not present in database
Track 11 not present in database
Track 12 not present in database

None of the tracks are present in the AccurateRip database

End of status report


Many thanks to the original uploader: Ilijan



Password: pass