Bo Diddley - Have Guitar Will Tour (2009)

Posted By: uff
Bo Diddley - Have Guitar Will Tour (2009)

Bo Diddley - Have Guitar Will Tour (2009)
Blues | 2cd | EAC Rip | Flac + Cue + Log | covers
Music Avenue, 250254 | rel: 2009 | 715Mb

CD-1: Bo Diddley & Mainsqueeze, recorded live during the 1983 tour of Europe (8 tracks 42:34) CD-2: Greatest Hits & Influential Songs (25 Chess tracks 69:02) with 12 page booklet.

Track listing
cd1:
01. Intro/Bo Diddley Vamp (7:26)
02. Doctor Jekyll (5:02)
03. Everleen (4:38)
04. Don't Know Where I've Been (2:17)
05. You Can't Judge A Book By The Cover (3:54)
06. Roadrunner (3:25)
07. I'm A Man (10:38)
08. Mona (I Need You Baby) (5:10)

cd2:
01. Bo Diddley (2:47)
02. I'm A Man (2:59)
03. Diddley Daddy (2:28)
04. Who Do You Love (2:29)
05. Pretty Thing (2:50)
06. Diddy Wah Diddy (2:32)
07. Mona (I Need You Baby) (2:22)
08. Before You Accuse Me (3:06)
09. Hey Bo Diddley (2:13)
10. Say Boss Man (2:33)
11. Say Man (3:12)
12. Bring It To Jerome (2:29)
13. She's Fine, She's Mine (2:42)
14. You Don't Love Me (2:53)
15. I'm Bad (3:16)
16. Cops And Robbers (3:27)
17. Down Home Special (3:13)
18. I'm Looking For A Woman (2:34)
19. O Yeah (3:09)
20. Willie And Lillie (2:17)
21. The Story Of Bo Diddley (2:53)
22. Roadrunner (2:49)
23. Crackin' Up (2:06)
24. Don't Lez Go (Hold On To What You Got) (2:46)
25. Run Diddley Daddy (2:42)

Personnel (cd1)
Bo Diddley: Lead Guitar, Lead Vocals
Eric Bell: Guitar
Dick Heckstall-Smith: Saxophones
Dave “Munch” Moore: Keyboards
Keith Tillman: Bass Guitar
Stretch: Drums


Exact Audio Copy V0.99 prebeta 4 from 23. January 2008

EAC extraction logfile from 11. February 2010, 15:00

Bo Diddley / Have Guitar Will Tour CD 1

Used drive : HL-DT-STDVDRAM GH22LS40 Adapter: 3 ID: 0

Read mode : Secure
Utilize accurate stream : Yes
Defeat audio cache : Yes
Make use of C2 pointers : No

Read offset correction : 667
Overread into Lead-In and Lead-Out : No
Fill up missing offset samples with silence : Yes
Delete leading and trailing silent blocks : No
Null samples used in CRC calculations : Yes
Used interface : Installed external ASPI interface
Gap handling : Appended to previous track

Used output format : User Defined Encoder
Selected bitrate : 896 kBit/s
Quality : High
Add ID3 tag : No
Command line compressor : F:\eac\Exact Audio Copy\Flac\flac.exe
Additional command line options : -8 -V -T "ARTIST=%a" -T "TITLE=%t" -T "ALBUM=%g" -T "DATE=%y" -T "TRACKNUMBER=%n" -T "TOTALTRACKS=%x" -T "GENRE=%m" -T "ALBUM ARTIST=%v" -T "ALBUMARTIST=%v" -T "COMMENT=EAC V0.99 prebeta 4, Secure Mode, Test & Copy, Accura


TOC of the extracted CD

Track | Start | Length | Start sector | End sector
––––––––––––––––––––––––––––-
1 | 0:00.00 | 7:26.26 | 0 | 33475
2 | 7:26.26 | 5:02.18 | 33476 | 56143
3 | 12:28.44 | 4:38.09 | 56144 | 77002
4 | 17:06.53 | 2:17.35 | 77003 | 87312
5 | 19:24.13 | 3:54.12 | 87313 | 104874
6 | 23:18.25 | 3:25.11 | 104875 | 120260
7 | 26:43.36 | 10:38.47 | 120261 | 168157
8 | 37:22.08 | 5:10.17 | 168158 | 191424


Track 1

Filename C:\Bo Diddley - Have Guitar Will Tour CD 1 (2010) [FLAC]\01 - Intro,Bo Diddley Vamp.wav

Pre-gap length 0:00:02.00

Peak level 99.4 %
Track quality 100.0 %
Test CRC 41FC302F
Copy CRC 41FC302F
Track not present in AccurateRip database
Copy OK

Track 2

Filename C:\Bo Diddley - Have Guitar Will Tour CD 1 (2010) [FLAC]\02 - Doctor Jekyll.wav

Peak level 99.9 %
Track quality 100.0 %
Test CRC 5D459DF0
Copy CRC 5D459DF0
Track not present in AccurateRip database
Copy OK

Track 3

Filename C:\Bo Diddley - Have Guitar Will Tour CD 1 (2010) [FLAC]\03 - Everleen.wav

Peak level 99.9 %
Track quality 100.0 %
Test CRC 5B1392FA
Copy CRC 5B1392FA
Track not present in AccurateRip database
Copy OK

Track 4

Filename C:\Bo Diddley - Have Guitar Will Tour CD 1 (2010) [FLAC]\04 - Don't Know Where I've Been.wav

Peak level 99.9 %
Track quality 99.9 %
Test CRC 4A7D668E
Copy CRC 4A7D668E
Track not present in AccurateRip database
Copy OK

Track 5

Filename C:\Bo Diddley - Have Guitar Will Tour CD 1 (2010) [FLAC]\05 - You Can't Judge A Book By The Cover.wav

Peak level 99.9 %
Track quality 100.0 %
Test CRC 6B6B5587
Copy CRC 6B6B5587
Track not present in AccurateRip database
Copy OK

Track 6

Filename C:\Bo Diddley - Have Guitar Will Tour CD 1 (2010) [FLAC]\06 - Roadrunner.wav

Peak level 99.9 %
Track quality 100.0 %
Test CRC 5BBA1740
Copy CRC 5BBA1740
Track not present in AccurateRip database
Copy OK

Track 7

Filename C:\Bo Diddley - Have Guitar Will Tour CD 1 (2010) [FLAC]\07 - I'm A Man.wav

Peak level 99.9 %
Track quality 100.0 %
Test CRC 4DD33FD4
Copy CRC 4DD33FD4
Track not present in AccurateRip database
Copy OK

Track 8

Filename C:\Bo Diddley - Have Guitar Will Tour CD 1 (2010) [FLAC]\08 - Mona (I Need You Baby).wav

Peak level 99.9 %
Track quality 100.0 %
Test CRC 1E2FC68C
Copy CRC 1E2FC68C
Track not present in AccurateRip database
Copy OK


None of the tracks are present in the AccurateRip database

No errors occurred

End of status report
–-
Exact Audio Copy V0.99 prebeta 4 from 23. January 2008

EAC extraction logfile from 11. February 2010, 15:08

Bo Diddley / Have Guitar Will Tour CD 2

Used drive : TEAC CD-W54E Adapter: 3 ID: 0

Read mode : Secure
Utilize accurate stream : Yes
Defeat audio cache : Yes
Make use of C2 pointers : No

Read offset correction : 685
Overread into Lead-In and Lead-Out : Yes
Fill up missing offset samples with silence : Yes
Delete leading and trailing silent blocks : No
Null samples used in CRC calculations : Yes
Used interface : Installed external ASPI interface
Gap handling : Appended to previous track

Used output format : User Defined Encoder
Selected bitrate : 768 kBit/s
Quality : High
Add ID3 tag : No
Command line compressor : C:\Program Files\Exact Audio Copy\FLAC\FLAC.EXE
Additional command line options : -8 -V -T "ARTIST=%a" -T "TITLE=%t" -T "ALBUM=%g" -T "DATE=%y" -T "TRACKNUMBER=%n" -T "TOTALTRACKS=%x" -T "GENRE=%m" -T "ALBUM ARTIST=%v" -T "ALBUMARTIST=%v" -T "COMMENT=EAC V0.99 prebeta 4, Secure Mode, Test & Copy, Accurat


TOC of the extracted CD

Track | Start | Length | Start sector | End sector
––––––––––––––––––––––––––––-
1 | 0:00.00 | 2:47.38 | 0 | 12562
2 | 2:47.38 | 2:59.35 | 12563 | 26022
3 | 5:46.73 | 2:28.24 | 26023 | 37146
4 | 8:15.22 | 2:29.58 | 37147 | 48379
5 | 10:45.05 | 2:50.72 | 48380 | 61201
6 | 13:36.02 | 2:32.65 | 61202 | 72666
7 | 16:08.67 | 2:22.16 | 72667 | 83332
8 | 18:31.08 | 3:06.21 | 83333 | 97303
9 | 21:37.29 | 2:13.44 | 97304 | 107322
10 | 23:50.73 | 2:33.22 | 107323 | 118819
11 | 26:24.20 | 3:12.65 | 118820 | 133284
12 | 29:37.10 | 2:29.31 | 133285 | 144490
13 | 32:06.41 | 2:42.64 | 144491 | 156704
14 | 34:49.30 | 2:53.37 | 156705 | 169716
15 | 37:42.67 | 3:16.70 | 169717 | 184486
16 | 40:59.62 | 3:27.12 | 184487 | 200023
17 | 44:26.74 | 3:13.53 | 200024 | 214551
18 | 47:40.52 | 2:34.14 | 214552 | 226115
19 | 50:14.66 | 3:09.23 | 226116 | 240313
20 | 53:24.14 | 2:17.41 | 240314 | 250629
21 | 55:41.55 | 2:53.21 | 250630 | 263625
22 | 58:35.01 | 2:49.46 | 263626 | 276346
23 | 61:24.47 | 2:06.26 | 276347 | 285822
24 | 63:30.73 | 2:46.27 | 285823 | 298299
25 | 66:17.25 | 2:42.69 | 298300 | 310518


Track 1

Filename C:\bbb\CD 2\01 - Bo Diddley.wav

Pre-gap length 0:00:02.00

Peak level 84.4 %
Track quality 100.0 %
Test CRC 0DA47CDB
Copy CRC 0DA47CDB
Track not present in AccurateRip database
Copy OK

Track 2

Filename C:\bbb\CD 2\02 - I'm A Man.wav

Peak level 83.0 %
Track quality 100.0 %
Test CRC 1DA71FD2
Copy CRC 1DA71FD2
Track not present in AccurateRip database
Copy OK

Track 3

Filename C:\bbb\CD 2\03 - Diddley Daddy.wav

Peak level 59.0 %
Track quality 100.0 %
Test CRC 2AA2333F
Copy CRC 2AA2333F
Track not present in AccurateRip database
Copy OK

Track 4

Filename C:\bbb\CD 2\04 - Who Do You Love.wav

Peak level 58.7 %
Track quality 99.9 %
Test CRC 2AB3DEA1
Copy CRC 2AB3DEA1
Track not present in AccurateRip database
Copy OK

Track 5

Filename C:\bbb\CD 2\05 - Pretty Thing.wav

Peak level 69.0 %
Track quality 100.0 %
Test CRC 410F7557
Copy CRC 410F7557
Track not present in AccurateRip database
Copy OK

Track 6

Filename C:\bbb\CD 2\06 - Diddy Wah Diddy.wav

Peak level 75.8 %
Track quality 100.0 %
Test CRC 87AAD21B
Copy CRC 87AAD21B
Track not present in AccurateRip database
Copy OK

Track 7

Filename C:\bbb\CD 2\07 - Mona (I Need You Baby).wav

Peak level 100.0 %
Track quality 100.0 %
Test CRC 112DE882
Copy CRC 112DE882
Track not present in AccurateRip database
Copy OK

Track 8

Filename C:\bbb\CD 2\08 - Before You Accuse Me.wav

Peak level 78.4 %
Track quality 99.9 %
Test CRC 7C151738
Copy CRC 7C151738
Track not present in AccurateRip database
Copy OK

Track 9

Filename C:\bbb\CD 2\09 - Hey Bo Diddley.wav

Peak level 85.2 %
Track quality 100.0 %
Test CRC C8153C5D
Copy CRC C8153C5D
Track not present in AccurateRip database
Copy OK

Track 10

Filename C:\bbb\CD 2\10 - Say Boss Man.wav

Peak level 100.0 %
Track quality 100.0 %
Test CRC 6B4F22C0
Copy CRC 6B4F22C0
Track not present in AccurateRip database
Copy OK

Track 11

Filename C:\bbb\CD 2\11 - Say Man.wav

Peak level 63.0 %
Track quality 100.0 %
Test CRC 0A2D189A
Copy CRC 0A2D189A
Track not present in AccurateRip database
Copy OK

Track 12

Filename C:\bbb\CD 2\12 - Bring It To Jerome.wav

Peak level 82.6 %
Track quality 99.9 %
Test CRC BD12E1B4
Copy CRC BD12E1B4
Track not present in AccurateRip database
Copy OK

Track 13

Filename C:\bbb\CD 2\13 - She's Fine, She's Mine.wav

Peak level 53.9 %
Track quality 100.0 %
Test CRC 210C3445
Copy CRC 210C3445
Track not present in AccurateRip database
Copy OK

Track 14

Filename C:\bbb\CD 2\14 - You Don't Love Me.wav

Peak level 71.6 %
Track quality 100.0 %
Test CRC 017A2D51
Copy CRC 017A2D51
Track not present in AccurateRip database
Copy OK

Track 15

Filename C:\bbb\CD 2\15 - I'm Bad.wav

Peak level 47.5 %
Track quality 100.0 %
Test CRC 5B691FAD
Copy CRC 5B691FAD
Track not present in AccurateRip database
Copy OK

Track 16

Filename C:\bbb\CD 2\16 - Cops And Robbers.wav

Peak level 52.1 %
Track quality 100.0 %
Test CRC FDD437D3
Copy CRC FDD437D3
Track not present in AccurateRip database
Copy OK

Track 17

Filename C:\bbb\CD 2\17 - Down Home Special.wav

Peak level 44.9 %
Track quality 100.0 %
Test CRC 379386A1
Copy CRC 379386A1
Track not present in AccurateRip database
Copy OK

Track 18

Filename C:\bbb\CD 2\18 - I'm Looking For A Woman.wav

Peak level 79.9 %
Track quality 100.0 %
Test CRC 8DF7082A
Copy CRC 8DF7082A
Track not present in AccurateRip database
Copy OK

Track 19

Filename C:\bbb\CD 2\19 - O Yeah.wav

Peak level 100.0 %
Track quality 100.0 %
Test CRC FD85139C
Copy CRC FD85139C
Track not present in AccurateRip database
Copy OK

Track 20

Filename C:\bbb\CD 2\20 - Willie And Lillie.wav

Peak level 80.4 %
Track quality 100.0 %
Test CRC 2C990268
Copy CRC 2C990268
Track not present in AccurateRip database
Copy OK

Track 21

Filename C:\bbb\CD 2\21 - The Story Of Bo Diddley.wav

Peak level 98.3 %
Track quality 100.0 %
Test CRC D8D92DFD
Copy CRC D8D92DFD
Track not present in AccurateRip database
Copy OK

Track 22

Filename C:\bbb\CD 2\22 - Roadrunner.wav

Peak level 66.3 %
Track quality 100.0 %
Test CRC 65069B7D
Copy CRC 65069B7D
Track not present in AccurateRip database
Copy OK

Track 23

Filename C:\bbb\CD 2\23 - Crackin' Up.wav

Peak level 64.1 %
Track quality 100.0 %
Test CRC D13A8192
Copy CRC D13A8192
Track not present in AccurateRip database
Copy OK

Track 24

Filename C:\bbb\CD 2\24 - Don't Lez Go (Hold On To What You Got).wav

Peak level 61.5 %
Track quality 99.9 %
Test CRC 6723F76C
Copy CRC 6723F76C
Track not present in AccurateRip database
Copy OK

Track 25

Filename C:\bbb\CD 2\25 - Run Diddley Daddy.wav

Peak level 69.2 %
Track quality 100.0 %
Test CRC 9CE49406
Copy CRC 9CE49406
Track not present in AccurateRip database
Copy OK


None of the tracks are present in the AccurateRip database

No errors occurred

End of status report



[CUETools log; Date: 2017. 10. 23. 11:28:48; Version: 2.1.6]
[CTDB TOCID: CxAZvTnDZItBh_wf2YGsdWRTZiw-] found.
Track | CTDB Status
1 | (4/4) Accurately ripped
2 | (4/4) Accurately ripped
3 | (4/4) Accurately ripped
4 | (4/4) Accurately ripped
5 | (3/4) Accurately ripped
6 | (4/4) Accurately ripped
7 | (4/4) Accurately ripped
8 | (4/4) Accurately ripped
[AccurateRip ID: 000ccbff-00543718-5409f808] found.
Track [ CRC | V2 ] Status
01 [aed72553|c66d83d3] (0+2/2) Accurately ripped
02 [6eb466c1|f1e805c8] (2+2/4) Accurately ripped
03 [73af21d6|8e490190] (2+2/4) Accurately ripped
04 [1d59d30d|4fd37261] (2+2/4) Accurately ripped
05 [f37ed27a|0928b66f] (0+2/2) Accurately ripped
06 [703854d4|3ccc562a] (0+2/2) Accurately ripped
07 [0fc128a2|7e83d518] (0+2/2) Accurately ripped
08 [122f69b0|bbea741c] (0+2/2) Accurately ripped

Track Peak [ CRC32 ] [W/O NULL] [ LOG ]
– 99,9 [81F8D70B] [3F6D30F9]
01 99,4 [41FC302F] [3503A328] CRC32
02 99,9 [5D459DF0] [10BA2651] CRC32
03 99,9 [5B1392FA] [5755AE18] CRC32
04 99,9 [4A7D668E] [FAA5E80B] CRC32
05 99,9 [6B6B5587] [8BA63BEF] CRC32
06 99,9 [5BBA1740] [F10F62F2] CRC32
07 99,9 [4DD33FD4] [23EF5259] CRC32
08 99,9 [1E2FC68C] [166239B6] CRC32
–-

[CUETools log; Date: 2017. 10. 23. 11:29:10; Version: 2.1.6]
[CTDB TOCID: e83NoSpEJZHjXWYtl.IYtkDyaNs-] found.
Track | CTDB Status
1 | (4/4) Accurately ripped
2 | (4/4) Accurately ripped
3 | (4/4) Accurately ripped
4 | (4/4) Accurately ripped
5 | (4/4) Accurately ripped
6 | (4/4) Accurately ripped
7 | (4/4) Accurately ripped
8 | (4/4) Accurately ripped
9 | (4/4) Accurately ripped
10 | (4/4) Accurately ripped
11 | (4/4) Accurately ripped
12 | (4/4) Accurately ripped
13 | (4/4) Accurately ripped
14 | (4/4) Accurately ripped
15 | (4/4) Accurately ripped
16 | (4/4) Accurately ripped
17 | (4/4) Accurately ripped
18 | (4/4) Accurately ripped
19 | (4/4) Accurately ripped
20 | (4/4) Accurately ripped
21 | (4/4) Accurately ripped
22 | (4/4) Accurately ripped
23 | (4/4) Accurately ripped
24 | (4/4) Accurately ripped
25 | (4/4) Accurately ripped
[AccurateRip ID: 003d55f2-04545658-8f102c19] found.
Track [ CRC | V2 ] Status
01 [f3f87be7|27238faf] (2+2/4) Accurately ripped
02 [7f789e92|9b4aab32] (2+2/4) Accurately ripped
03 [72f233c0|e353acc3] (2+2/4) Accurately ripped
04 [fc2e33b5|ec069af4] (2+2/4) Accurately ripped
05 [6bdbeede|02a80a00] (2+2/4) Accurately ripped
06 [8961e135|43190d76] (2+2/4) Accurately ripped
07 [a82743b8|ff6ffdaa] (2+2/4) Accurately ripped
08 [07118203|11ffa948] (2+2/4) Accurately ripped
09 [0f31f7c2|e85b40b7] (2+2/4) Accurately ripped
10 [7a8d4f75|02a46d1a] (2+2/4) Accurately ripped
11 [6dbf2cf1|a82b93e4] (2+2/4) Accurately ripped
12 [ff1e75ff|58328825] (2+2/4) Accurately ripped
13 [e075f596|350bf86a] (2+2/4) Accurately ripped
14 [114bb11c|544cb69e] (2+2/4) Accurately ripped
15 [9ae905e8|09ba0cc6] (2+2/4) Accurately ripped
16 [d9d97181|bde31828] (2+2/4) Accurately ripped
17 [c3057595|e591ccf1] (2+2/4) Accurately ripped
18 [7bd84470|13e4834b] (2+2/4) Accurately ripped
19 [d2e25735|0e07a497] (2+2/4) Accurately ripped
20 [e1fcbf78|4115e2f7] (2+2/4) Accurately ripped
21 [641d92c4|7ea2357b] (2+2/4) Accurately ripped
22 [2baecaa1|e6b3980d] (2+2/4) Accurately ripped
23 [bc370638|5b08e5d6] (2+2/4) Accurately ripped
24 [ba00c19b|ec193d72] (2+2/4) Accurately ripped
25 [99dfe39c|afee834d] (2+2/4) Accurately ripped

Track Peak [ CRC32 ] [W/O NULL] [ LOG ]
– 100,0 [EF1420A3] [B26CB40C]
01 84,4 [0DA47CDB] [1C83D188] CRC32
02 83,0 [1DA71FD2] [328CAC40] CRC32
03 59,0 [2AA2333F] [2F362B67] CRC32
04 58,7 [2AB3DEA1] [3E3E1126] CRC32
05 69,0 [410F7557] [FAA05D3A] CRC32
06 75,8 [87AAD21B] [84F0A44E] CRC32
07 100,0 [112DE882] [497A361E] CRC32
08 78,4 [7C151738] [99076772] CRC32
09 85,2 [C8153C5D] [00C01B99] CRC32
10 100,0 [6B4F22C0] [F2413338] CRC32
11 63,0 [0A2D189A] [C522F32F] CRC32
12 82,6 [BD12E1B4] [720D13F8] CRC32
13 53,9 [210C3445] [807B8A73] CRC32
14 71,6 [017A2D51] [A75D081B] CRC32
15 47,5 [5B691FAD] [90F7A091] CRC32
16 52,1 [FDD437D3] [50B0C2E0] CRC32
17 44,9 [379386A1] [F0A7AAC7] CRC32
18 79,9 [8DF7082A] [87492330] CRC32
19 100,0 [FD85139C] [82E5DB93] CRC32
20 80,4 [2C990268] [34608951] CRC32
21 98,3 [D8D92DFD] [9E52C5B4] CRC32
22 66,3 [65069B7D] [6FFE1D55] CRC32
23 64,1 [D13A8192] [28BD249D] CRC32
24 61,5 [6723F76C] [8F501E97] CRC32
25 69,2 [9CE49406] [262A801C] CRC32



Original uploader unknown