Tags
Language
Tags

Bob Dylan - The Bootleg Series Vol.11: The Basement Tapes Raw (2014)

Posted By: v3122
Bob Dylan - The Bootleg Series Vol.11: The Basement Tapes Raw (2014)

Bob Dylan - The Bootleg Series Vol.11: The Basement Tapes Raw (2014)
EAC | Flac(Image) + Cue + Log & MP3 CBR 320Kbps
2CD | Columbia-Legacy 88875019672 | ~ 681 or 287 Mb | Artwork -> 765 Mb
Folk Rock

A double-disc distillation of the six-disc box The Basement Tapes Complete, The Basement Tapes: Raw can't quite be seen as an expansion of the 1975 double-LP The Basement Tapes but rather a necessary revision. Shepherded by the Band's Robbie Robertson, that 1975 double-vinyl inserted Band recordings where they didn't belong, suggesting the group were equal partners when it was really Dylan's show. The Basement Tapes: Raw rights this wrong, stripping away the excess overdubs and excising the ten Band songs – a process which includes handing some of the tunes back over to Bob, including a wildly careening version of "Don't Ya Tell Henry" – and then adding in all the major Dylan originals missing from the 1975 LP ("I'm Not There," "Santa-Fe," "Minstrel Boy," "Quinn the Eskimo," "Get Your Rocks Off," "Sign on the Cross") and then adding hints of the covers and general madness that can be found in the complete haul. Naturally, some gems are available only in the big box, including a bunch of folk tunes, a rangy "Big River" and "Kickin' My Dog Around," plus the goofs "See You Later Allen Ginsberg" and "All American Boy," but that's the kind of stuff that seems better in context, when it's surrounded by the heavyweight songs showcased here. On their own on this superb two-disc set, those songs amount to a version of the Basement Tapes that not only represents what happened at Big Pink more accurately, but is a thrilling, endlessly captivating listen in its own right.

by Stephen Thomas Erlewine, allmusic
Bob Dylan – The Bootleg Series Vol.11: The Basement Tapes Raw (2014):

Tracklist CD1:

01. Open the Door, Homer (Restored version) [Bootleg Vol. 11] [0:02:52.37]
02. Odds and Ends (Alternate version) [Bootleg Vol. 11] [0:01:48.29]
03. Million Dollar Bash (Alternate version) [Bootleg Vol. 11] [0:02:52.09]
04. One Too Many Mornings (Unreleased) [Bootleg Vol. 11] [0:03:23.16]
05. I Don't Hurt Anymore (Unreleased) [Bootleg Vol. 11] [0:02:15.14]
06. Ain't No More Cane (Alternate version) [Bootleg Vol. 11] [0:01:57.66]
07. Crash on the Levee (Restored version) [Bootleg Vol. 11] [0:02:05.57]
08. Tears of Rage (Without overdubs) [Bootleg Vol. 11] [0:04:14.64]
09. Dress it up, Better Have it All (Unreleased) [Bootleg Vol. 11] [0:02:52.67]
10. I'm Not There (Previously released) [Bootleg Vol. 11] [0:05:12.48]
11. Johnny Todd (Unreleased) [Bootleg Vol. 11] [0:02:04.70]
12. Too Much of Nothing (Alternate version) [Bootleg Vol. 11] [0:02:52.74]
13. Quinn the Eskimo (Restored version) [Bootleg Vol. 11] [0:02:16.47]
14. Get Your Rocks Off (Unreleased) [Bootleg Vol. 11] [0:03:46.03]
15. Santa-Fe (Previously released) [Bootleg Vol. 11] [0:02:08.22]
16. Silent Weekend (Unreleased) [Bootleg Vol. 11] [0:03:00.49]
17. Clothes Line Saga (Restored version) [Bootleg Vol. 11] [0:02:59.08]
18. Please, Mrs. Henry (Restored version) [Bootleg Vol. 11] [0:02:34.13]
19. I Shall be Released (Restored version) [Bootleg Vol. 11] [0:03:55.50]

Exact Audio Copy V1.0 beta 3 from 29. August 2011

EAC extraction logfile from 12. January 2015, 20:16

Bob Dylan and The Band / The Basement Tapes Raw

Used drive : PLEXTOR DVDR PX-L890SA Adapter: 2 ID: 1

Read mode : Secure
Utilize accurate stream : Yes
Defeat audio cache : Yes
Make use of C2 pointers : No

Read offset correction : 6
Overread into Lead-In and Lead-Out : No
Fill up missing offset samples with silence : Yes
Delete leading and trailing silent blocks : No
Null samples used in CRC calculations : Yes
Used interface : Native Win32 interface for Win NT & 2000

Used output format : User Defined Encoder
Selected bitrate : 768 kBit/s
Quality : High
Add ID3 tag : No
Command line compressor : G:\Program Files\Exact Audio Copy\FLAC\FLAC.EXE
Additional command line options : -V -8 -T "Date=%year%" -T "Genre=%genre%" %source%


TOC of the extracted CD

Track | Start | Length | Start sector | End sector
––––––––––––––––––––––––––––-
1 | 0:00.00 | 2:52.37 | 0 | 12936
2 | 2:52.37 | 1:48.29 | 12937 | 21065
3 | 4:40.66 | 2:52.09 | 21066 | 33974
4 | 7:33.00 | 3:23.16 | 33975 | 49215
5 | 10:56.16 | 2:15.14 | 49216 | 59354
6 | 13:11.30 | 1:57.66 | 59355 | 68195
7 | 15:09.21 | 2:05.57 | 68196 | 77627
8 | 17:15.03 | 4:14.64 | 77628 | 96741
9 | 21:29.67 | 2:52.67 | 96742 | 109708
10 | 24:22.59 | 5:12.48 | 109709 | 133156
11 | 29:35.32 | 2:04.70 | 133157 | 142526
12 | 31:40.27 | 2:52.74 | 142527 | 155500
13 | 34:33.26 | 2:16.47 | 155501 | 165747
14 | 36:49.73 | 3:46.03 | 165748 | 182700
15 | 40:36.01 | 2:08.22 | 182701 | 192322
16 | 42:44.23 | 3:00.49 | 192323 | 205871
17 | 45:44.72 | 2:59.08 | 205872 | 219304
18 | 48:44.05 | 2:34.13 | 219305 | 230867
19 | 51:18.18 | 3:55.50 | 230868 | 248542


Range status and errors

Selected range

Filename H:\MUSIC\2014. Bob Dylan - The Bootleg Series Vol.11 The Basement Tapes Raw (Columbia-Legacy 88875019672, EU)\The Basement Tapes Raw CD1.wav

Peak level 99.0 %
Extraction speed 5.9 X
Range quality 100.0 %
Test CRC D03A3F9F
Copy CRC D03A3F9F
Copy OK

No errors occurred


AccurateRip summary

Track 1 accurately ripped (confidence 22) [68E6DA77] (AR v2)
Track 2 accurately ripped (confidence 22) [DF9106D0] (AR v2)
Track 3 accurately ripped (confidence 22) [8FADE25D] (AR v2)
Track 4 accurately ripped (confidence 22) [5FD271DE] (AR v2)
Track 5 accurately ripped (confidence 22) [E5405E37] (AR v2)
Track 6 accurately ripped (confidence 22) [18850E35] (AR v2)
Track 7 accurately ripped (confidence 22) [82BFEABF] (AR v2)
Track 8 accurately ripped (confidence 22) [4FA5B260] (AR v2)
Track 9 accurately ripped (confidence 22) [7828E6BC] (AR v2)
Track 10 accurately ripped (confidence 22) [1E33F84F] (AR v2)
Track 11 accurately ripped (confidence 22) [1D555A65] (AR v2)
Track 12 accurately ripped (confidence 22) [4D6CEEF0] (AR v2)
Track 13 accurately ripped (confidence 22) [555644D4] (AR v2)
Track 14 accurately ripped (confidence 22) [6E811AE5] (AR v2)
Track 15 accurately ripped (confidence 22) [BC789ED2] (AR v2)
Track 16 accurately ripped (confidence 22) [88DC8C0C] (AR v2)
Track 17 accurately ripped (confidence 22) [121013AB] (AR v2)
Track 18 accurately ripped (confidence 22) [25E8CD6B] (AR v2)
Track 19 accurately ripped (confidence 22) [261D6ABB] (AR v2)

All tracks accurately ripped

End of status report

==== Log checksum 96F3CE238B73EED5F88EC7BFCD04C7402F9DAB5A3D9229608945181A40CAEFAB ====


[CUETools log; Date: 25.04.2017 18:11:01; Version: 2.1.2a]
[CTDB TOCID: dbA8YirlzosY7wqzVPCFjnzMZLM-] found.
[ CTDBID ] Status
[09c4d81d] (276/293) Accurately ripped
[873498d6] (001/293) No match
[71f832e0] (001/293) No match
[d6dff900] (001/293) No match
[96e7c1bb] (001/293) No match
[44778636] (001/293) No match
[5794a404] (001/293) No match
[02e40579] (001/293) No match
[26d985c1] (001/293) No match
[a404d6f3] (001/293) No match
[ad9e272e] (001/293) No match
[ed3af897] (001/293) No match
[995788dc] (001/293) No match
[10f0b680] (001/293) No match
[6418fa7c] (001/293) No match
[1cbb6bac] (001/293) No match
[23df4623] (001/293) No match
[47817f34] (001/293) No match
[AccurateRip ID: 0024b3f9-02074c5c-0c0cf113] found.
Track [ CRC ] Status
01 [fa6659f3] (011/144) Accurately ripped
02 [ed8124c0] (012/145) Accurately ripped
03 [112eb000] (012/145) Accurately ripped
04 [1e4f0f02] (012/145) Accurately ripped
05 [204abcf4] (012/145) Accurately ripped
06 [3e95e1b2] (012/145) Accurately ripped
07 [4ba7104f] (012/144) Accurately ripped
08 [b4ada067] (012/144) Accurately ripped
09 [727fef81] (012/145) Accurately ripped
10 [7667c942] (012/145) Accurately ripped
11 [55e7c829] (012/144) Accurately ripped
12 [b8324b5f] (012/145) Accurately ripped
13 [019a93f0] (012/145) Accurately ripped
14 [14a521c9] (012/145) Accurately ripped
15 [e2ebeb21] (012/145) Accurately ripped
16 [544104c8] (012/145) Accurately ripped
17 [b76a5c48] (012/142) Accurately ripped
18 [18a20bdf] (012/145) Accurately ripped
19 [67c058a4] (012/143) Accurately ripped
AccurateRip v2:
01 [68e6da77] (133/144) Accurately ripped
02 [df9106d0] (133/145) Accurately ripped
03 [8fade25d] (133/145) Accurately ripped
04 [5fd271de] (133/145) Accurately ripped
05 [e5405e37] (133/145) Accurately ripped
06 [18850e35] (133/145) Accurately ripped
07 [82bfeabf] (132/144) Accurately ripped
08 [4fa5b260] (132/144) Accurately ripped
09 [7828e6bc] (133/145) Accurately ripped
10 [1e33f84f] (133/145) Accurately ripped
11 [1d555a65] (132/144) Accurately ripped
12 [4d6ceef0] (133/145) Accurately ripped
13 [555644d4] (133/145) Accurately ripped
14 [6e811ae5] (133/145) Accurately ripped
15 [bc789ed2] (133/145) Accurately ripped
16 [88dc8c0c] (133/145) Accurately ripped
17 [121013ab] (130/142) Accurately ripped
18 [25e8cd6b] (133/145) Accurately ripped
19 [261d6abb] (131/143) Accurately ripped

Track Peak [ CRC32 ] [W/O NULL] [ LOG ]
– 99,0 [D03A3F9F] [7801483B] CRC32
01 93,7 [57F3E75D] [B8FC3F35]
02 89,0 [DEFEA0E6] [6301C6F5]
03 99,0 [879F3FE3] [F00DFC1B]
04 94,9 [C3614D84] [684922B7]
05 78,9 [8BBFC771] [AC5256F0]
06 89,0 [BCBDBC9B] [A5B1CFD3]
07 92,7 [73129F29] [F3943CE7]
08 89,1 [A130D498] [0CAC8C5C]
09 92,2 [2D81686C] [FDCC48EE]
10 89,7 [C3F96394] [652C3F49]
11 81,4 [9BEAD0AF] [DE4B8861]
12 94,1 [D161BB93] [ECD1C8CF]
13 87,7 [86A60E65] [288A1B4E]
14 94,2 [F9EF81C9] [90BDC46F]
15 85,7 [FA3DF02F] [3D5D772F]
16 87,2 [7E0116E8] [5622ED23]
17 93,7 [8BEF1B8D] [C860D0BE]
18 88,8 [9E97B3D9] [2EFBD5CF]
19 98,9 [FF9E57F6] [9BA417DA]


Tracklist CD2:

01. You Ain't Goin' Nowhere (Alternate version) [Bootleg Vol. 11] [0:02:48.23]
02. Lo and Behold! (Alternate version) [Bootleg Vol. 11] [0:02:53.63]
03. Minstrel Boy (Previously released) [Bootleg Vol. 11] [0:01:39.51]
04. Tiny Montgomery (Without overdubs) [Bootleg Vol. 11] [0:02:56.43]
05. All You Have to do is Dream (Unreleased) [Bootleg Vol. 11] [0:03:23.00]
06. Goin' to Acapulco (Without overdubs) [Bootleg Vol. 11] [0:05:36.38]
07. 900 Miles from My Home (Unreleased) [Bootleg Vol. 11] [0:02:13.42]
08. One for the Road (Unreleased) [Bootleg Vol. 11] [0:04:49.53]
09. I'm Alright (Unreleased) [Bootleg Vol. 11] [0:01:45.61]
10. Blowin' in the Wind (Unreleased) [Bootleg Vol. 11] [0:06:35.38]
11. Apple Suckling Tree (Restored version) [Bootleg Vol. 11] [0:02:50.37]
12. Nothing Was Delivered (Restored version) [Bootleg Vol. 11] [0:04:26.14]
13. Folsom Prison Blues (Unreleased) [Bootleg Vol. 11] [0:02:46.42]
14. This Wheel's on Fire (Without overdubs) [Bootleg Vol. 11] [0:03:54.40]
15. Yea! Heavy and a Bottle of Bread (Restored version) [Bootleg Vol. 11] [0:02:15.74]
16. Don't Ya Tell Henry (Alternate version) [Bootleg Vol. 11] [0:02:30.59]
17. Baby, Won't You be My Baby (Unreleased) [Bootleg Vol. 11] [0:02:52.55]
18. Sign on the Cross (Unreleased) [Bootleg Vol. 11] [0:07:21.19]
19. You Ain't Goin' Nowhere (Without overdubs) [Bootleg Vol. 11] [0:02:43.07]

Exact Audio Copy V1.0 beta 3 from 29. August 2011

EAC extraction logfile from 12. January 2015, 20:40

Bob Dylan and The Band / The Basement Tapes Raw

Used drive : PLEXTOR DVDR PX-L890SA Adapter: 2 ID: 1

Read mode : Secure
Utilize accurate stream : Yes
Defeat audio cache : Yes
Make use of C2 pointers : No

Read offset correction : 6
Overread into Lead-In and Lead-Out : No
Fill up missing offset samples with silence : Yes
Delete leading and trailing silent blocks : No
Null samples used in CRC calculations : Yes
Used interface : Native Win32 interface for Win NT & 2000

Used output format : User Defined Encoder
Selected bitrate : 768 kBit/s
Quality : High
Add ID3 tag : No
Command line compressor : G:\Program Files\Exact Audio Copy\FLAC\FLAC.EXE
Additional command line options : -V -8 -T "Date=%year%" -T "Genre=%genre%" %source%


TOC of the extracted CD

Track | Start | Length | Start sector | End sector
––––––––––––––––––––––––––––-
1 | 0:00.00 | 2:48.23 | 0 | 12622
2 | 2:48.23 | 2:53.63 | 12623 | 25660
3 | 5:42.11 | 1:39.51 | 25661 | 33136
4 | 7:21.62 | 2:56.43 | 33137 | 46379
5 | 10:18.30 | 3:23.00 | 46380 | 61604
6 | 13:41.30 | 5:36.38 | 61605 | 86842
7 | 19:17.68 | 2:13.42 | 86843 | 96859
8 | 21:31.35 | 4:49.53 | 96860 | 118587
9 | 26:21.13 | 1:45.61 | 118588 | 126523
10 | 28:06.74 | 6:35.38 | 126524 | 156186
11 | 34:42.37 | 2:50.37 | 156187 | 168973
12 | 37:32.74 | 4:26.14 | 168974 | 188937
13 | 41:59.13 | 2:46.42 | 188938 | 201429
14 | 44:45.55 | 3:54.40 | 201430 | 219019
15 | 48:40.20 | 2:15.74 | 219020 | 229218
16 | 50:56.19 | 2:30.59 | 229219 | 240527
17 | 53:27.03 | 2:52.55 | 240528 | 253482
18 | 56:19.58 | 7:21.19 | 253483 | 286576
19 | 63:41.02 | 2:43.07 | 286577 | 298808


Range status and errors

Selected range

Filename H:\MUSIC\2014. Bob Dylan - The Bootleg Series Vol.11 The Basement Tapes Raw (Columbia-Legacy 88875019672, EU)\The Basement Tapes Raw CD2.wav

Peak level 94.4 %
Extraction speed 6.4 X
Range quality 100.0 %
Test CRC A26091BF
Copy CRC A26091BF
Copy OK

No errors occurred


AccurateRip summary

Track 1 accurately ripped (confidence 21) [011BA80C] (AR v2)
Track 2 accurately ripped (confidence 21) [991F0F6D] (AR v2)
Track 3 accurately ripped (confidence 21) [349EA20F] (AR v2)
Track 4 accurately ripped (confidence 21) [F5C33C1D] (AR v2)
Track 5 accurately ripped (confidence 21) [CDE2D4D0] (AR v2)
Track 6 accurately ripped (confidence 21) [585E910A] (AR v2)
Track 7 accurately ripped (confidence 21) [BED9C348] (AR v2)
Track 8 accurately ripped (confidence 21) [B59BC825] (AR v2)
Track 9 accurately ripped (confidence 21) [EE2A02AB] (AR v2)
Track 10 accurately ripped (confidence 21) [175EC996] (AR v2)
Track 11 accurately ripped (confidence 21) [934F78D3] (AR v2)
Track 12 accurately ripped (confidence 21) [03E684A4] (AR v2)
Track 13 accurately ripped (confidence 21) [B88DBF30] (AR v2)
Track 14 accurately ripped (confidence 21) [32BECC88] (AR v2)
Track 15 accurately ripped (confidence 21) [64878DAF] (AR v2)
Track 16 accurately ripped (confidence 21) [879E6F10] (AR v2)
Track 17 accurately ripped (confidence 21) [420DC5FE] (AR v2)
Track 18 accurately ripped (confidence 21) [4E7AADE2] (AR v2)
Track 19 accurately ripped (confidence 20) [276011A3] (AR v2)

All tracks accurately ripped

End of status report

==== Log checksum D1BFD85FFCC89990507C7CECB04A1BF0A2FC4A4C692600267A883A7F049D8C2B ====


[CUETools log; Date: 25.04.2017 18:11:38; Version: 2.1.2a]
[CTDB TOCID: 3HYcLgmnQCUra0D.XxHkInVbVYc-] found.
[ CTDBID ] Status
[77858c3e] (267/287) Accurately ripped
[3bc2f5fc] (001/287) No match
[0c757619] (001/287) No match
[88202de4] (001/287) No match
[396f9762] (001/287) No match
[aae4b3c9] (002/287) Differs in 5 samples @02:48:18
[daa94aac] (001/287) No match
[d7802af2] (001/287) No match
[fddccb00] (001/287) No match
[02c33230] (001/287) No match
[cd077b0b] (001/287) No match
[0b4565bd] (001/287) No match
[cfabc2ef] (001/287) No match
[2f16cb85] (001/287) No match
[cb4abda6] (001/287) No match
[43871b0a] (001/287) No match
[71e2e257] (001/287) No match
[a008c067] (001/287) No match
[a0e227e2] (001/287) No match
[94edda59] (001/287) No match
[AccurateRip ID: 002b823a-026b7e9d-050f9013] found.
Track [ CRC ] Status
01 [22488cb8] (012/143) Accurately ripped
02 [9ce8b47c] (012/143) Accurately ripped
03 [abe79ec0] (012/143) Accurately ripped
04 [cc74eb3a] (012/143) Accurately ripped
05 [5593a648] (012/143) Accurately ripped
06 [cd4902a1] (012/143) Accurately ripped
07 [01551b40] (012/144) Accurately ripped
08 [ce2e8a34] (012/143) Accurately ripped
09 [ca3b3ae6] (012/142) Accurately ripped
10 [b6e19666] (012/143) Accurately ripped
11 [dfc7b4b6] (012/143) Accurately ripped
12 [8abbea44] (012/144) Accurately ripped
13 [d74bc345] (012/143) Accurately ripped
14 [0d0787a7] (012/142) Accurately ripped
15 [6fbe9130] (011/142) Accurately ripped
16 [a3fd0971] (012/142) Accurately ripped
17 [023aeffa] (012/143) Accurately ripped
18 [5c1623d9] (012/143) Accurately ripped
19 [b81f04e5] (011/140) Accurately ripped
AccurateRip v2:
01 [011ba80c] (131/143) Accurately ripped
02 [991f0f6d] (131/143) Accurately ripped
03 [349ea20f] (131/143) Accurately ripped
04 [f5c33c1d] (131/143) Accurately ripped
05 [cde2d4d0] (131/143) Accurately ripped
06 [585e910a] (131/143) Accurately ripped
07 [bed9c348] (132/144) Accurately ripped
08 [b59bc825] (131/143) Accurately ripped
09 [ee2a02ab] (130/142) Accurately ripped
10 [175ec996] (131/143) Accurately ripped
11 [934f78d3] (131/143) Accurately ripped
12 [03e684a4] (132/144) Accurately ripped
13 [b88dbf30] (131/143) Accurately ripped
14 [32becc88] (130/142) Accurately ripped
15 [64878daf] (131/142) Accurately ripped
16 [879e6f10] (130/142) Accurately ripped
17 [420dc5fe] (131/143) Accurately ripped
18 [4e7aade2] (131/143) Accurately ripped
19 [276011a3] (129/140) Accurately ripped

Track Peak [ CRC32 ] [W/O NULL] [ LOG ]
– 94,4 [A26091BF] [82168A8C] CRC32
01 90,7 [C5892EB3] [1232FE78]
02 88,7 [5C266E75] [F52A2FA6]
03 90,5 [CCB0C3C8] [95A18A3C]
04 67,9 [305D59AE] [CD7F2DD6]
05 74,3 [435CB900] [9BE3CF06]
06 94,4 [6AD26490] [169D5A68]
07 88,0 [5E01159E] [4A796710]
08 79,1 [089DA139] [9C8C9C71]
09 81,5 [896E86D5] [FF525635]
10 93,6 [D13518C0] [1386F1AE]
11 71,8 [FF61CF0F] [91253DD2]
12 71,6 [0787079A] [81CED44A]
13 74,3 [30D22D42] [DF36EF1F]
14 86,8 [0C639F5A] [DE96A28D]
15 93,8 [20D4CB5C] [FF6C98E3]
16 87,4 [C960D831] [7A349B88]
17 77,8 [8B757B56] [1A4F5EC8]
18 86,0 [582CE2ED] [39C86C8A]
19 86,1 [D4E93DFE] [B9C02213]


All thanks go to the original releaser

Bob Dylan in my Blog

Download Bob Dylan - The Bootleg Series Vol.11: The Basement Tapes Raw (2014):