Tags
Language
Tags
November 2022
Su Mo Tu We Th Fr Sa
30 31 1 2 3 4 5
6 7 8 9 10 11 12
13 14 15 16 17 18 19
20 21 22 23 24 25 26
27 28 29 30 1 2 3

Bob Dylan - Under The Red Sky (1990)

Posted By: v3122
Bob Dylan - Under The Red Sky (1990)

Bob Dylan - Under The Red Sky (1990)
EAC | Flac(Image) + Cue + Log & MP3 CBR 320Kbps
1992 | Columbia, 467188 2 | ~ 225 or 84 Mb | Scans(png) -> 122 Mb
Folk Rock

Dylan followed Oh Mercy, his most critically acclaimed album in years, with Under the Red Sky, a record that seemed like a conscious recoil from that album's depth and atmosphere. By signing Don Was, the king of mature retro-rock, as producer, he guaranteed that the record would be lean and direct, which is perhaps exactly what this collection of simplistic songs deserves. Still, this record feels a little ephemeral, a collection of songs that Dylan didn't really care that much about. In a way, that makes it a little easier to warm to than its predecessor, since it has a looseness that suits him well, especially with songs this deliberately lightweight. As such, Under the Red Sky is certainly lightweight, but rather appealing in its own lack of substance, since Dylan has never made a record so breezy, apart from (maybe) Down in the Groove. That doesn't make it a great, or even good, record, but it does have its own charms that will be worth searching out for Dylanphiles.

by Stephen Thomas Erlewine, allmusic
Bob Dylan - Under The Red Sky (1990)


Bob Dylan - Under The Red Sky (1990):

Bob Dylan - Under The Red Sky (1990)

Tracklist:

01. Wiggle Wiggle [02:09]
02. Under The Red Sky [04:09]
03. Unbelievable [04:06]
04. Born In Time [03:39]
05. T.V. Talkin' Song [03:02]
06. 10,000 Men [04:21]
07. 2 X 2 [03:36]
08. God Knows [03:02]
09. Handy Dandy [04:03]
10. Cat's In The Well [03:20]

Exact Audio Copy V0.99 prebeta 5 from 4. May 2009

EAC extraction logfile from 29. January 2015, 21:44

BOB DYLAN / Under The Red Sky ( 467188 2 )

Used drive : ASUS DRW-24B3ST Adapter: 0 ID: 0

Read mode : Secure
Utilize accurate stream : Yes
Defeat audio cache : Yes
Make use of C2 pointers : No

Read offset correction : 6
Overread into Lead-In and Lead-Out : No
Fill up missing offset samples with silence : Yes
Delete leading and trailing silent blocks : No
Null samples used in CRC calculations : Yes
Used interface : Native Win32 interface for Win NT & 2000

Used output format : User Defined Encoder
Selected bitrate : 1024 kBit/s
Quality : High
Add ID3 tag : No
Command line compressor : C:\Program Files (x86)\EAC\WV\wavpack.exe
Additional command line options : -h -hh -m %s %d


TOC of the extracted CD

Track | Start | Length | Start sector | End sector
––––––––––––––––––––––––––––-
1 | 0:00.00 | 2:09.25 | 0 | 9699
2 | 2:09.25 | 4:09.42 | 9700 | 28416
3 | 6:18.67 | 4:06.55 | 28417 | 46921
4 | 10:25.47 | 3:39.03 | 46922 | 63349
5 | 14:04.50 | 3:02.50 | 63350 | 77049
6 | 17:07.25 | 4:21.35 | 77050 | 96659
7 | 21:28.60 | 3:36.27 | 96660 | 112886
8 | 25:05.12 | 3:02.43 | 112887 | 126579
9 | 28:07.55 | 4:03.02 | 126580 | 144806
10 | 32:10.57 | 3:20.65 | 144807 | 159871


Range status and errors

Selected range

Filename W:\BOB DYLAN\BOB DYLAN - Under The Red Sky (1990) (AT 1992 Columbia Records • 467188 2)\BOB DYLAN - Under The Red Sky ( 467188 2 ).wav

Peak level 97.7 %
Range quality 100.0 %
Test CRC E33FA1C8
Copy CRC E33FA1C8
Copy OK

No errors occurred


AccurateRip summary

Track 1 accurately ripped (confidence 107) [E77AE375]
Track 2 accurately ripped (confidence 107) [B8822A00]
Track 3 accurately ripped (confidence 107) [8724F5CE]
Track 4 accurately ripped (confidence 105) [C4A31C14]
Track 5 accurately ripped (confidence 106) [B7171F04]
Track 6 accurately ripped (confidence 107) [14C04EB8]
Track 7 accurately ripped (confidence 107) [5CE9D2D5]
Track 8 accurately ripped (confidence 107) [B522765A]
Track 9 accurately ripped (confidence 108) [6A65E088]
Track 10 accurately ripped (confidence 106) [5910A951]

All tracks accurately ripped

End of status report

foobar2000 1.2.9 / Dynamic Range Meter 1.1.1
log date: 2017-04-08 14:27:53

––––––––––––––––––––––––––––––––––––––––
Analyzed: BOB DYLAN / Under The Red Sky ( 467188 2 )
––––––––––––––––––––––––––––––––––––––––

DR Peak RMS Duration Track
––––––––––––––––––––––––––––––––––––––––
DR14 -0.20 dB -16.02 dB 2:09 01-Wiggle Wiggle
DR13 -0.20 dB -14.88 dB 4:10 02-Under The Red Sky
DR13 -0.20 dB -14.29 dB 4:07 03-Unbelievable
DR14 -0.20 dB -17.21 dB 3:39 04-Born In Time
DR13 -0.20 dB -15.11 dB 3:03 05-T.V. Talkin' Song
DR13 -1.01 dB -16.64 dB 4:21 06-10,000 Men
DR15 -0.20 dB -16.82 dB 3:36 07-2 X 2
DR13 -1.11 dB -17.59 dB 3:03 08-God Knows
DR14 -0.20 dB -15.18 dB 4:03 09-Handy Dandy
DR13 -0.33 dB -15.23 dB 3:21 10-Cat's In The Well
––––––––––––––––––––––––––––––––––––––––

Number of tracks: 10
Official DR value: DR13

Samplerate: 44100 Hz
Channels: 2
Bits per sample: 16
Bitrate: 859 kbps
Codec: FLAC

[CUETools log; Date: 08.04.2017 14:27:43; Version: 2.1.4]
[CTDB TOCID: YPDifIbX5Csijd_s8E8sAZJkau4-] found.
Track | CTDB Status
1 | (234/236) Accurately ripped
2 | (233/236) Accurately ripped
3 | (234/236) Accurately ripped
4 | (234/236) Accurately ripped
5 | (233/236) Accurately ripped
6 | (233/236) Accurately ripped
7 | (233/236) Accurately ripped
8 | (232/236) Accurately ripped
9 | (233/236) Accurately ripped
10 | (233/236) Accurately ripped
[AccurateRip ID: 000d37c5-006ac3fc-7f08530a] found.
Track [ CRC | V2 ] Status
01 [e77ae375|62b62423] (107+128/275) Accurately ripped
02 [b8822a00|666fa6b9] (107+128/276) Accurately ripped
03 [8724f5ce|df76a3cd] (107+127/275) Accurately ripped
04 [c4a31c14|887923bb] (105+129/275) Accurately ripped
05 [b7171f04|f73a6904] (106+129/276) Accurately ripped
06 [14c04eb8|a5d33611] (107+129/277) Accurately ripped
07 [5ce9d2d5|23bd7471] (107+129/277) Accurately ripped
08 [b522765a|a45473c8] (107+131/279) Accurately ripped
09 [6a65e088|56cd8df8] (108+130/279) Accurately ripped
10 [5910a951|2347731c] (106+129/277) Accurately ripped
Offsetted by -2073:
01 [2c5583da] (002/275) Accurately ripped
02 [1206f7e0] (002/276) Accurately ripped
03 [11c2e014] (002/275) Accurately ripped
04 [fae2be8f] (002/275) Accurately ripped
05 [d1de1222] (002/276) Accurately ripped
06 [adeb0811] (002/277) Accurately ripped
07 [3b5f821c] (002/277) Accurately ripped
08 [86f7837c] (002/279) Accurately ripped
09 [2c1ff65a] (002/279) Accurately ripped
10 [8b7946e7] (002/277) Accurately ripped
Offsetted by -628:
01 [e13b4a17] (009/275) Accurately ripped
02 [37f75e3f] (010/276) Accurately ripped
03 [82f71415] (010/275) Accurately ripped
04 [a4a1a45a] (010/275) Accurately ripped
05 [8a9d2772] (010/276) Accurately ripped
06 [ed506f26] (010/277) Accurately ripped
07 [99bcd61f] (010/277) Accurately ripped
08 [56709fc8] (010/279) Accurately ripped
09 [3d78a752] (010/279) Accurately ripped
10 [5ed3bc09] (010/277) Accurately ripped
Offsetted by -29:
01 [104c0161] (006/275) Accurately ripped
02 [7de9bfb4] (006/276) Accurately ripped
03 [a8315fa5] (006/275) Accurately ripped
04 [baae369b] (006/275) Accurately ripped
05 [e96884fa] (006/276) Accurately ripped
06 [fdc2d822] (006/277) Accurately ripped
07 [b62e47ea] (006/277) Accurately ripped
08 [c9fd4640] (006/279) Accurately ripped
09 [a1a338ab] (006/279) Accurately ripped
10 [1bc6eaff] (006/277) Accurately ripped
Offsetted by -6:
01 [2ff503cd] (000/275) No match (V2 was not tested)
02 [e1eb8738] (000/276) No match (V2 was not tested)
03 [5d752438] (000/275) No match (V2 was not tested)
04 [e3852c68] (000/275) No match (V2 was not tested)
05 [89fb8c56] (000/276) No match (V2 was not tested)
06 [26cf2a68] (000/277) No match (V2 was not tested)
07 [103f1edd] (000/277) No match (V2 was not tested)
08 [8dc113f2] (000/279) No match (V2 was not tested)
09 [b15be268] (000/279) No match (V2 was not tested)
10 [93016775] (000/277) No match (V2 was not tested)
Offsetted by 1108:
01 [6da834a6] (000/275) No match (V2 was not tested)
02 [f65a1ba4] (000/276) No match (V2 was not tested)
03 [79a1af85] (000/275) No match (V2 was not tested)
04 [23d29e2a] (000/275) No match (V2 was not tested)
05 [22f4507a] (000/276) No match
06 [d09dd1b4] (000/277) No match (V2 was not tested)
07 [98e5473d] (000/277) No match
08 [bc52e58d] (000/279) No match
09 [8e25ca31] (000/279) No match
10 [38122b59] (000/277) No match

Track Peak [ CRC32 ] [W/O NULL] [ LOG ]
– 97,7 [E33FA1C8] [AD88DF2A] CRC32
01 97,7 [E9753930] [5051E36E]
02 97,7 [429AD99C] [3BCFA45A]
03 97,7 [165B2961] [6A31A35E]
04 97,7 [A38EF35A] [27651CCA]
05 97,7 [9E2E0361] [82B5572A]
06 89,0 [F2E5AD37] [3FEFF88F]
07 97,7 [79ABC345] [7E2FAE69]
08 88,0 [C0A36F59] [2B34855A]
09 97,7 [B2878D83] [601DF40D]
10 96,3 [BD664988] [AFAF20B2]

Bob Dylan - Under The Red Sky (1990)

All thanks go to the original releaser

Bob Dylan in my Blog

Download Bob Dylan - Under The Red Sky (1990):