Subcategories

Bob Berg / Mike Stern Group - Games (1992) {Jazz Door JD1275}

Posted By: tiburon
Bob Berg / Mike Stern Group - Games (1992) {Jazz Door JD1275}

Bob Berg / Mike Stern Group - Games (1992) {Jazz Door JD1275}
EAC 0.99pb5 | FLAC tracks level 8 | Cue+Log+M3U | Scans 600dpi | 304MB + 5% Recovery
Genre: Fusion
Bob Berg / Mike Stern Group - Games (1992) {Jazz Door JD1275}

Bob Berg was rehearsing material with guitarist Mike Stern, when he finally decided to make the break with Miles.The two have one of the hardest-hitting fusion bands on the scene with Dennis Chambers on drums and Lincoln Goine on bass. Some of the energy of that dynamic group is captured on this CD.

Track List

01. Games 24:29
02. After You 16:14
03. After All 7:59

musicians

Bob Berg - sax
Mike Stern - guitar
Lincoln Goines - bass
Dennis Chambers - drums


Exact Audio Copy V0.99 prebeta 5 from 4. May 2009

EAC extraction logfile from 24. January 2010, 16:02

Bob Berg&Mike Stern Group / Games

Used drive : ASUS DRW-1814BL Adapter: 0 ID: 0

Read mode : Secure
Utilize accurate stream : Yes
Defeat audio cache : Yes
Make use of C2 pointers : No

Read offset correction : 6
Overread into Lead-In and Lead-Out : No
Fill up missing offset samples with silence : Yes
Delete leading and trailing silent blocks : No
Null samples used in CRC calculations : Yes
Used interface : Installed external ASPI interface
Gap handling : Appended to previous track

Used output format : User Defined Encoder
Selected bitrate : 128 kBit/s
Quality : High
Add ID3 tag : No
Command line compressor : C:\Program Files (x86)\Exact Audio Copy\Flac\flac.exe
Additional command line options : -8 -V -T "ARTIST=%a" -T "TITLE=%t" -T "ALBUM=%g" -T "DATE=%y" -T "TRACKNUMBER=%n" -T "GENRE=%m" -T "COMMENT=EAC v.0.99pb5 Flac 1.2.1 -8" %s


TOC of the extracted CD

Track | Start | Length | Start sector | End sector
––––––––––––––––––––––––––––-
1 | 0:00.00 | 24:27.00 | 0 | 110024
2 | 24:27.00 | 16:14.00 | 110025 | 183074
3 | 40:41.00 | 7:59.05 | 183075 | 219004


Track 1

Filename H:\RIPS\01 - Games.wav

Pre-gap length 0:00:02.00

Peak level 96.6 %
Track quality 100.0 %
Test CRC 51C5E09A
Copy CRC 51C5E09A
Accurately ripped (confidence 2) [07A51286]
Copy OK

Track 2

Filename H:\RIPS\02 - After You.wav

Peak level 89.4 %
Track quality 100.0 %
Test CRC 14D0CD43
Copy CRC 14D0CD43
Accurately ripped (confidence 2) [5066526A]
Copy OK

Track 3

Filename H:\RIPS\03 - After All.wav

Peak level 96.6 %
Track quality 100.0 %
Test CRC 182EFC59
Copy CRC 182EFC59
Accurately ripped (confidence 2) [0F4052F8]
Copy OK


All tracks accurately ripped

No errors occurred

End of status report
Bob Berg / Mike Stern Group - Games (1992) {Jazz Door JD1275}




The Files Are Interchangeable

A Rip By unknown uploader

Visit My Blog