Tags
Language
Tags

Bob Dylan - Japanese Singles Collection [2CD Set] (2020)

Posted By: JET 1
Bob Dylan - Japanese Singles Collection [2CD Set] (2020)

Bob Dylan - Japanese Singles Collection [2CD Set] (2020)
EAC Rip | FLAC (Tracks) +CUE, LOG | 735 MB | Scans
Genre: Folk Rock, Acoustic, Classic Rock | Label: Sony Records Int' | Catalog Number: SICP 31361-2

Japan-only compilation to coincide with the proposed but cancelled April 2020 Bob Dylan tour of Japan.
In “fat-boy” jewel case with clear trays and obi. A sticker with fifteen tour dates is attached to the front shrinkwrap.
A thirty six-page colour booklet includes reproductions of all thirty one single covers. A sixty-eight page black and white booklet includes two sets of liner notes in Japanese and lyrics to all tracks in English and Japanese. A promotional postcard was given with purchase at some outlets.

Exact Audio Copy V1.6 from 23. October 2020

EAC extraction logfile from 6. March 2021, 23:38

Bob Dylan / Japanese Singles Collection [Nihon no Single Shu] (BSCD2)

Used drive : BUFFALO Optical Drive Adapter: 1 ID: 0

Read mode : Secure
Utilize accurate stream : Yes
Defeat audio cache : Yes
Make use of C2 pointers : No

Read offset correction : 103
Overread into Lead-In and Lead-Out : No
Fill up missing offset samples with silence : Yes
Delete leading and trailing silent blocks : No
Null samples used in CRC calculations : Yes
Used interface : Native Win32 interface for Win NT & 2000
Gap handling : Not detected, thus appended to previous track

Used output format : User Defined Encoder
Selected bitrate : 768 kBit/s
Quality : High
Add ID3 tag : No
Command line compressor : C:\Program Files (x86)\Exact Audio Copy\FLAC\FLAC.EXE
Additional command line options : -6 -V -T "ARTIST=%artist%" -T "TITLE=%title%" -T "ALBUM=%albumtitle%" -T "DATE=%year%" -T "TRACKNUMBER=%tracknr%" -T "GENRE=%genre%" -T "COMMENT=%comment%" -T "BAND=%albuminterpret%" -T "ALBUMARTIST=%albuminterpret%" -T "COMPOSER=%composer%" %haslyrics%–tag-from-file=LYRICS="%lyricsfile%"%haslyrics% -T "DISCNUMBER=%cdnumber%" -T "TOTALDISCS=%totalcds%" -T "TOTALTRACKS=%numtracks%" %hascover%–picture="%coverfile%"%hascover% %source% -o %dest%


TOC of the extracted CD

Track | Start | Length | Start sector | End sector
––––––––––––––––––––––––––––-
1 | 0:00.00 | 2:19.35 | 0 | 10459
2 | 2:19.35 | 6:01.20 | 10460 | 37554
3 | 8:20.55 | 3:52.70 | 37555 | 55024
4 | 12:13.50 | 3:35.13 | 55025 | 71162
5 | 15:48.63 | 2:49.50 | 71163 | 83887
6 | 18:38.38 | 4:57.05 | 83888 | 106167
7 | 23:35.43 | 4:28.33 | 106168 | 126300
8 | 28:04.01 | 3:03.57 | 126301 | 140082
9 | 31:07.58 | 4:55.18 | 140083 | 162225
10 | 36:03.01 | 3:19.54 | 162226 | 177204
11 | 39:22.55 | 3:14.15 | 177205 | 191769
12 | 42:36.70 | 2:47.03 | 191770 | 204297
13 | 45:23.73 | 3:37.47 | 204298 | 220619
14 | 49:01.45 | 3:23.30 | 220620 | 235874
15 | 52:25.00 | 5:36.05 | 235875 | 261079
16 | 58:01.05 | 2:33.09 | 261080 | 272563
17 | 60:34.14 | 2:43.33 | 272564 | 284821


Track 1

Filename H:\Music\Bob Dylan - Japanese Singles Collection\01 Subterranean Homesick Blues (mono).wav

Peak level 98.8 %
Extraction speed 2.2 X
Track quality 100.0 %
Copy CRC 5D8C4823
Accurately ripped (confidence 10) [47CEDCA8] (AR v2)
Copy OK

Track 2

Filename H:\Music\Bob Dylan - Japanese Singles Collection\02 Like A Rolling Stone (mono).wav

Peak level 98.8 %
Extraction speed 2.9 X
Track quality 100.0 %
Copy CRC AAEA5D5D
Accurately ripped (confidence 10) [16441465] (AR v2)
Copy OK

Track 3

Filename H:\Music\Bob Dylan - Japanese Singles Collection\03 Positively 4th Street (mono).wav

Peak level 98.8 %
Extraction speed 3.1 X
Track quality 100.0 %
Copy CRC 521700AD
Accurately ripped (confidence 10) [8C0CE976] (AR v2)
Copy OK

Track 4

Filename H:\Music\Bob Dylan - Japanese Singles Collection\04 Can You Please Crawl Out Your Window (mono).wav

Peak level 98.8 %
Extraction speed 3.2 X
Track quality 100.0 %
Copy CRC 620AA561
Accurately ripped (confidence 10) [0E051473] (AR v2)
Copy OK

Track 5

Filename H:\Music\Bob Dylan - Japanese Singles Collection\05 Blowin' In The Wind.wav

Peak level 98.8 %
Extraction speed 2.3 X
Track quality 99.9 %
Copy CRC DAA2438C
Accurately ripped (confidence 10) [44C13E3F] (AR v2)
Copy OK

Track 6

Filename H:\Music\Bob Dylan - Japanese Singles Collection\06 One Of Us Must Know (Sooner Or Later) (mono).wav

Peak level 98.8 %
Extraction speed 3.7 X
Track quality 100.0 %
Copy CRC F3AE2469
Accurately ripped (confidence 10) [FEFA6E88] (AR v2)
Copy OK

Track 7

Filename H:\Music\Bob Dylan - Japanese Singles Collection\07 Rainy Day Women #12 & 35 (mono).wav

Peak level 98.8 %
Extraction speed 3.9 X
Track quality 100.0 %
Copy CRC A84F93A7
Accurately ripped (confidence 10) [0C973DDA] (AR v2)
Copy OK

Track 8

Filename H:\Music\Bob Dylan - Japanese Singles Collection\08 I Want You (mono).wav

Peak level 98.8 %
Extraction speed 3.9 X
Track quality 100.0 %
Copy CRC A1A7174F
Accurately ripped (confidence 10) [BF09C00E] (AR v2)
Copy OK

Track 9

Filename H:\Music\Bob Dylan - Japanese Singles Collection\09 Just Like A Woman (mono).wav

Peak level 98.8 %
Extraction speed 4.3 X
Track quality 100.0 %
Copy CRC 7D094742
Accurately ripped (confidence 10) [2E850A59] (AR v2)
Copy OK

Track 10

Filename H:\Music\Bob Dylan - Japanese Singles Collection\10 Lay, Lady, Lay.wav

Peak level 98.8 %
Extraction speed 4.2 X
Track quality 100.0 %
Copy CRC 024ADD65
Accurately ripped (confidence 10) [25B05C8C] (AR v2)
Copy OK

Track 11

Filename H:\Music\Bob Dylan - Japanese Singles Collection\11 The Times They Are A-Changin'.wav

Peak level 98.8 %
Extraction speed 3.2 X
Track quality 99.9 %
Copy CRC 60C5AB27
Accurately ripped (confidence 10) [6C032B5E] (AR v2)
Copy OK

Track 12

Filename H:\Music\Bob Dylan - Japanese Singles Collection\12 Take A Message To Mary.wav

Peak level 98.8 %
Extraction speed 4.1 X
Track quality 100.0 %
Copy CRC 2D439CCA
Accurately ripped (confidence 10) [CD780491] (AR v2)
Copy OK

Track 13

Filename H:\Music\Bob Dylan - Japanese Singles Collection\13 Watching The River Flow.wav

Peak level 98.8 %
Extraction speed 4.6 X
Track quality 100.0 %
Copy CRC 217BD2D5
Accurately ripped (confidence 10) [1F94B8B7] (AR v2)
Copy OK

Track 14

Filename H:\Music\Bob Dylan - Japanese Singles Collection\14 When I Paint My Masterpiece.wav

Peak level 98.8 %
Extraction speed 4.7 X
Track quality 100.0 %
Copy CRC EFC94B9B
Accurately ripped (confidence 10) [3E006C88] (AR v2)
Copy OK

Track 15

Filename H:\Music\Bob Dylan - Japanese Singles Collection\15 George Jackson (Big Band Version).wav

Peak level 98.8 %
Extraction speed 5.1 X
Track quality 100.0 %
Copy CRC E4357279
Accurately ripped (confidence 10) [CBFDC204] (AR v2)
Copy OK

Track 16

Filename H:\Music\Bob Dylan - Japanese Singles Collection\16 Knockin' On Heaven's Door.wav

Peak level 98.8 %
Extraction speed 4.7 X
Track quality 100.0 %
Copy CRC 1D6E734E
Accurately ripped (confidence 10) [BA14F835] (AR v2)
Copy OK

Track 17

Filename H:\Music\Bob Dylan - Japanese Singles Collection\17 A Fool Such As I.wav

Peak level 98.8 %
Extraction speed 4.8 X
Track quality 100.0 %
Copy CRC FB170F20
Accurately ripped (confidence 10) [3DEFF19A] (AR v2)
Copy OK


All tracks accurately ripped

No errors occurred

End of status report

–– CUETools DB Plugin V2.1.6

[CTDB TOCID: 825plHB7tM6_HTonsT.Yto.aeUY-] found
Submit result: 825plHB7tM6_HTonsT.Yto.aeUY- has been confirmed
Track | CTDB Status
1 | (27/27) Accurately ripped
2 | (27/27) Accurately ripped
3 | (27/27) Accurately ripped
4 | (27/27) Accurately ripped
5 | (27/27) Accurately ripped
6 | (27/27) Accurately ripped
7 | (27/27) Accurately ripped
8 | (27/27) Accurately ripped
9 | (27/27) Accurately ripped
10 | (27/27) Accurately ripped
11 | (27/27) Accurately ripped
12 | (27/27) Accurately ripped
13 | (27/27) Accurately ripped
14 | (27/27) Accurately ripped
15 | (27/27) Accurately ripped
16 | (27/27) Accurately ripped
17 | (27/27) Accurately ripped

Exact Audio Copy V1.6 from 23. October 2020

EAC extraction logfile from 7. March 2021, 0:06

Bob Dylan / Bob Dylan - Japanese Singles Collection [Nihon No Single Shu] (BSCD2) CD2

Used drive : BUFFALO Optical Drive Adapter: 1 ID: 0

Read mode : Secure
Utilize accurate stream : Yes
Defeat audio cache : Yes
Make use of C2 pointers : No

Read offset correction : 103
Overread into Lead-In and Lead-Out : No
Fill up missing offset samples with silence : Yes
Delete leading and trailing silent blocks : No
Null samples used in CRC calculations : Yes
Used interface : Native Win32 interface for Win NT & 2000
Gap handling : Not detected, thus appended to previous track

Used output format : User Defined Encoder
Selected bitrate : 768 kBit/s
Quality : High
Add ID3 tag : No
Command line compressor : C:\Program Files (x86)\Exact Audio Copy\FLAC\FLAC.EXE
Additional command line options : -6 -V -T "ARTIST=%artist%" -T "TITLE=%title%" -T "ALBUM=%albumtitle%" -T "DATE=%year%" -T "TRACKNUMBER=%tracknr%" -T "GENRE=%genre%" -T "COMMENT=%comment%" -T "BAND=%albuminterpret%" -T "ALBUMARTIST=%albuminterpret%" -T "COMPOSER=%composer%" %haslyrics%–tag-from-file=LYRICS="%lyricsfile%"%haslyrics% -T "DISCNUMBER=%cdnumber%" -T "TOTALDISCS=%totalcds%" -T "TOTALTRACKS=%numtracks%" %hascover%–picture="%coverfile%"%hascover% %source% -o %dest%


TOC of the extracted CD

Track | Start | Length | Start sector | End sector
––––––––––––––––––––––––––––-
1 | 0:00.00 | 2:59.54 | 0 | 13478
2 | 2:59.54 | 4:45.66 | 13479 | 34919
3 | 7:45.45 | 3:43.58 | 34920 | 51702
4 | 11:29.28 | 5:43.06 | 51703 | 77433
5 | 17:12.34 | 5:29.70 | 77434 | 102178
6 | 22:42.29 | 3:46.55 | 102179 | 119183
7 | 26:29.09 | 3:02.71 | 119184 | 132904
8 | 29:32.05 | 3:48.40 | 132905 | 150044
9 | 33:20.45 | 3:39.18 | 150045 | 166487
10 | 36:59.63 | 5:22.39 | 166488 | 190676
11 | 42:22.27 | 3:59.36 | 190677 | 208637
12 | 46:21.63 | 4:28.20 | 208638 | 228757
13 | 50:50.08 | 4:36.14 | 228758 | 249471
14 | 55:26.22 | 5:22.16 | 249472 | 273637


Track 1

Filename H:\Music\Bob Dylan - Japanese Singles Collection\01 On A Night Like This.wav

Peak level 98.8 %
Extraction speed 2.3 X
Track quality 100.0 %
Copy CRC E0D46152
Accurately ripped (confidence 9) [8DA70FED] (AR v2)
Copy OK

Track 2

Filename H:\Music\Bob Dylan - Japanese Singles Collection\02 Something There Is About You.wav

Peak level 98.8 %
Extraction speed 2.3 X
Track quality 99.9 %
Copy CRC B142C497
Accurately ripped (confidence 9) [4ED618D0] (AR v2)
Copy OK

Track 3

Filename H:\Music\Bob Dylan - Japanese Singles Collection\03 Most Likely You Go Your Way (And I'll Go Mine).wav

Peak level 98.8 %
Extraction speed 2.3 X
Track quality 99.9 %
Copy CRC D96BC240
Accurately ripped (confidence 9) [A89B7F4C] (AR v2)
Copy OK

Track 4

Filename H:\Music\Bob Dylan - Japanese Singles Collection\04 Tangled Up In Blue.wav

Peak level 98.8 %
Extraction speed 3.4 X
Track quality 100.0 %
Copy CRC DE95027D
Accurately ripped (confidence 9) [878559A9] (AR v2)
Copy OK

Track 5

Filename H:\Music\Bob Dylan - Japanese Singles Collection\05 Mr Tambourine Man.wav

Peak level 98.8 %
Extraction speed 3.7 X
Track quality 100.0 %
Copy CRC 90B50B47
Accurately ripped (confidence 9) [C1E6E388] (AR v2)
Copy OK

Track 6

Filename H:\Music\Bob Dylan - Japanese Singles Collection\06 Hurricane (Part 1).wav

Peak level 98.8 %
Extraction speed 2.8 X
Track quality 99.9 %
Copy CRC 796E49CB
Accurately ripped (confidence 9) [3C4B0BC7] (AR v2)
Copy OK

Track 7

Filename H:\Music\Bob Dylan - Japanese Singles Collection\07 Mozambique.wav

Peak level 98.8 %
Extraction speed 2.7 X
Track quality 99.9 %
Copy CRC C5830F67
Accurately ripped (confidence 9) [8674845C] (AR v2)
Copy OK

Track 8

Filename H:\Music\Bob Dylan - Japanese Singles Collection\08 One More Cup Of Coffee (Valley Below).wav

Peak level 98.8 %
Extraction speed 3.9 X
Track quality 100.0 %
Copy CRC 3D38B5E1
Accurately ripped (confidence 9) [1196A4FE] (AR v2)
Copy OK

Track 9

Filename H:\Music\Bob Dylan - Japanese Singles Collection\09 Stuck Inside Of Mobile With The Memphis Blues Again.wav

Peak level 98.8 %
Extraction speed 4.2 X
Track quality 100.0 %
Copy CRC 6B4BFF22
Accurately ripped (confidence 9) [F0978823] (AR v2)
Copy OK

Track 10

Filename H:\Music\Bob Dylan - Japanese Singles Collection\10 Baby Stop Crying.wav

Peak level 98.8 %
Extraction speed 4.5 X
Track quality 100.0 %
Copy CRC 3E04A1D4
Accurately ripped (confidence 9) [D9789B98] (AR v2)
Copy OK

Track 11

Filename H:\Music\Bob Dylan - Japanese Singles Collection\11 Gotta Serve Somebody.wav

Peak level 98.8 %
Extraction speed 4.6 X
Track quality 100.0 %
Copy CRC 9FF96990
Accurately ripped (confidence 9) [A88A4A4D] (AR v2)
Copy OK

Track 12

Filename H:\Music\Bob Dylan - Japanese Singles Collection\12 Man Gave Names To All The Animals.wav

Peak level 98.8 %
Extraction speed 3.7 X
Track quality 99.9 %
Copy CRC FEBE4700
Accurately ripped (confidence 9) [AD2FD1A2] (AR v2)
Copy OK

Track 13

Filename H:\Music\Bob Dylan - Japanese Singles Collection\13 Sweetheart Like You.wav

Peak level 98.8 %
Extraction speed 3.8 X
Track quality 99.9 %
Copy CRC 63079E24
Accurately ripped (confidence 9) [F64684BE] (AR v2)
Copy OK

Track 14

Filename H:\Music\Bob Dylan - Japanese Singles Collection\14 Tight Connection To My Heart (Has Anybody Seen My Love).wav

Peak level 98.8 %
Extraction speed 5.0 X
Track quality 100.0 %
Copy CRC 7FA42585
Accurately ripped (confidence 9) [699FA968] (AR v2)
Copy OK


All tracks accurately ripped

No errors occurred

End of status report

–– CUETools DB Plugin V2.1.6

[CTDB TOCID: xc55mViR.lbjG7_ZIomUTELvu6Y-] found
Submit result: xc55mViR.lbjG7_ZIomUTELvu6Y- has been confirmed
Track | CTDB Status
1 | (27/27) Accurately ripped
2 | (27/27) Accurately ripped
3 | (27/27) Accurately ripped
4 | (27/27) Accurately ripped
5 | (27/27) Accurately ripped
6 | (27/27) Accurately ripped
7 | (27/27) Accurately ripped
8 | (27/27) Accurately ripped
9 | (27/27) Accurately ripped
10 | (27/27) Accurately ripped
11 | (27/27) Accurately ripped
12 | (27/27) Accurately ripped
13 | (27/27) Accurately ripped
14 | (25/27) Accurately ripped

Tracklists :::
Disc 1
1. Subterranean Homesick Blues 2:17
2. Like A Rolling Stone 5:59
3. Positively 4th Street 3:51
4. Can You Please Crawl Out Your Window? 3:33
5. Blowin' In The Wind 2:47
6. One Of Us Must Know (Sooner Or Later) 4:55
7. Rainy Day Women #12 & 35 4:26
8. I Want You 3:02
9. Just Like A Woman 4:53
10. Lay, Lady, Lay 3:18
11. The Times They Are A-Changin' 3:12
12. Take A Message To Mary 2:45
13. Watching The River Flow 3:35
14. When I Paint My Masterpiece 3:21
15. George Jackson (Big Band Version) 5:34
16. Knockin' On Heaven's Door 2:31
17. A Fool Such As I 2:43

Disc 2
1. On A Night Like This 2:58
2. Something There Is About You 4:44
3. Most Likely You Go Your Way (And I'll Go Mine) 3:41
4. Tangled Up In Blue 5:41
5. Mr. Tambourine Man 5:27
6. Hurricane (Part 1) 3:44
7. Mozambique 3:01
8. One More Cup Of Coffee 3:46
9. Stuck Inside Of Mobile With The Memphis Blues Again 3:37
10. Baby Stop Crying 5:20
11. Gotta Serve Somebody 3:57
12. Man Gave Names To All The Animals 4:26
13. Sweetheart Like You 4:34
14. Tight Connection To My Heart (Has Anybody Seen My Love) 5:22

Track 1-1 originally released June, 1965 as LL-764-C; reissued April 1, 2020 as SIKP1002.
Track 1-2 originally released October, 1965 as LL-821-C.
Track 1-3 originally released December, 1965 as LL-847-C.
Track 1-4 originally released March, 1966 as LL-882-C; reissued June 21, 1970 as CBSA82059 (Air Play Series).
Track 1-5 originally released April, 1966 as 45S-211-C (MASCOT 7 Series); reissued January 21, 1970 as SONG80132 (Standard Series); July 21, 1973 as SOPB232 (Gold Disc); and September 1, 1976 as 06SP50 (New Gold Disc).
Track 1-6 originally released June, 1966 as LL-919-C.
Track 1-7 originally released June, 1966 as LL-928-C; reissued September 21, 1970 as SONG80165.
Track 1-8 originally released August, 1966 as LL-956-C.
Track 1-9 originally released November, 1966 as LL-987-C.
Track 1-10 originally released August 21, 1969 as CBSA82001 (Air Play Series).
Track 1-11 originally released July 21, 1970 as SONG 80156 (Standard Series).
Track 1-12 originally released August 21, 1970 as CBSA82070 (Air Play Series).
Track 1-13 originally released August 21, 1971 as CBSA82116 (Air Play Series).
Track 1-14 originally released January 21, 1972 as CBSA82132 (Air Play Series).
Track 1-15 originally released February 21, 1972 as SOPA1 (Air Play Series).
Track 1-16 originally released September 21, 1973 as SOPB257.
Track 1-17 originally released February 21, 1974 as SOPB269.
Track 2-1 originally released March 25, 1974 as P-1293Y.
Track 2-2 originally released June 25, 1974 as P-1315Y.
Track 2-3 originally released August 25, 1974 as P-1330Y.
Track 2-4 originally released April 21, 1975 as SOPB307.
Track 2-5 originally released September 21, 1975 as SOPB321 (Gold Disc).
Track 2-6 originally released January 21, 1976 as SOPB349.
Track 2-7 originally released April 21, 1976 as SOPB360.
Track 2-8 originally released May 21, 1976 as 06SP1.
Track 2-9 originally released February 25, 1977 as 06SP126.
Track 2-10 originally released July 21, 1978 as 06SP241.
Track 2-11 originally released September 21, 1979 as 06SP410.
Track 2-12 originally released November 21, 1979 as 06SP433.
Track 2-13 originally released December 1, 1983 as 07SP765.
Track 2-14 originally released July 21, 1985 as 07SP901.

Tracks 1-1 to 1-4, 1-6 to 1-9 are mono, all other tracks stereo.
Tracks 2-3, 2-6, 2-9 and 2-11 are single versions.