Tags
Language
Tags

Bob Welch - Collection 1977-79 (3 Albums) [Japan LTD (mini LP) SHM-CD 2013] Re-up

Posted By: Andi_Deris
Bob Welch - Collection 1977-79 (3 Albums) [Japan LTD (mini LP) SHM-CD 2013] Re-up

Bob Welch - Collection 1977-79 (3 Albums) [Japan LTD (mini LP) SHM-CD 2013]
EAC Rip | FLAC: Image+Cue+Log | 898 Mb | MP3 CBR 320 kbps | 344 Mb | Scans | 449 Mb
Capitol/Universal Music | TYCP-80038~40
Pop Rock, Soft Rock

Robert Lawrence "Bob" Welch (August 31, 1945 – June 7, 2012) was an American musician. A former member of Fleetwood Mac, Welch had a successful solo career in the late 1970s. His singles included "Hot Love, Cold World", "Ebony Eyes", "Precious Love", and his signature "Sentimental Lady".



Bob Welch - Collection 1977-79 (3 Albums) [Japan LTD (mini LP) SHM-CD 2013] Re-up


French Kiss (1977)
EAC Rip | FLAC: Image+Cue+Log | 294 Mb | MP3 CBR 320 kbps | 114 Mb | Scans | 172 Mb | 36:19
Universal Music | TYCP-80038

French Kiss is the solo debut by former Fleetwood Mac singer/guitarist Bob Welch. The songs, with the exception of "Sentimental Lady", were intended for a projected third album by Welch's previous band, Paris. However, the group fell apart in 1977 before recording could begin. So instead, Welch used these songs for his debut solo album.

For the most part, French Kiss presents a mix of hard rock guitar, disco-ish rhythms and sweeping strings. The big hits were "Ebony Eyes" (with backing vocals by Juice Newton), which peaked at #14 in the US, and a revised version of "Sentimental Lady", which peaked at #8, a song that Welch had originally recorded with Fleetwood Mac in 1972, for the album Bare Trees. "Hot Love, Cold World" also became a minor hit, which peaked at #31.

The album itself peaked at #12 in the US and later went platinum. It is currently Welch's best-selling album.

Track Listing

01. Sentimental Lady (2:53)
02. Easy To Fall (3:30)
03. Hot Love, Cold World (3:41)
04. Mystery Train (3:08)
05. Lose My Heart (1:55)
06. Outskirts (3:23)
07. Ebony Eyes (3:33)
08. Lose Your… (0:45)
09. Carolene (3:14)
10. Dancin' Eyes (3:21)
11. Danchiva (3:52)
12. Lose Your Heart (3:04)

Produced by John Carter

Personnel

• Bob Welch : vocals, guitar, bass guitar
• Alvin Taylor : drums (except "Sentimental Lady")
• Mick Fleetwood : drums on "Sentimental Lady"
• Christine McVie : background vocals on "Sentimental Lady", "Easy To Fall" and "Lose Your Heart"
• Lindsey Buckingham : guitar and background vocals on "Sentimental Lady"
• Gene Page : string arrangements
• Juice Newton : background vocals on "Ebony Eyes"

Exact Audio Copy V1.0 beta 3 from 29. August 2011

EAC extraction logfile from 5. April 2014, 19:59

Bob Welch / French Kiss SHM-CD

Used drive : PLEXTOR BD-R PX-B950SA Adapter: 6 ID: 0

Read mode : Secure
Utilize accurate stream : Yes
Defeat audio cache : Yes
Make use of C2 pointers : No

Read offset correction : 6
Overread into Lead-In and Lead-Out : No
Fill up missing offset samples with silence : Yes
Delete leading and trailing silent blocks : No
Null samples used in CRC calculations : Yes
Used interface : Native Win32 interface for Win NT & 2000

Used output format : Internal WAV Routines
Sample format : 44.100 Hz; 16 Bit; Stereo


TOC of the extracted CD

Track | Start | Length | Start sector | End sector
––––––––––––––––––––––––––––-
1 | 0:00.00 | 2:53.18 | 0 | 12992
2 | 2:53.18 | 3:30.39 | 12993 | 28781
3 | 6:23.57 | 3:41.06 | 28782 | 45362
4 | 10:04.63 | 3:08.36 | 45363 | 59498
5 | 13:13.24 | 1:55.00 | 59499 | 68123
6 | 15:08.24 | 3:23.50 | 68124 | 83398
7 | 18:31.74 | 3:33.24 | 83399 | 99397
8 | 22:05.23 | 0:45.31 | 99398 | 102803
9 | 22:50.54 | 3:13.74 | 102804 | 117352
10 | 26:04.53 | 3:21.19 | 117353 | 132446
11 | 29:25.72 | 3:52.34 | 132447 | 149880
12 | 33:18.31 | 3:03.71 | 149881 | 163676


Range status and errors

Selected range

Filename C:\Users\Meijin\Desktop\ALLexxess\Bob Welch & Paris\1977 French Kiss (Mini LP SHM-CD Capitol Records Japan 2013)\Bob Welch - French Kiss SHM-CD.wav

Peak level 98.8 %
Extraction speed 6.6 X
Range quality 100.0 %
Test CRC A1963FCE
Copy CRC A1963FCE
Copy OK

No errors occurred


AccurateRip summary

Track 1 not present in database
Track 2 not present in database
Track 3 not present in database
Track 4 not present in database
Track 5 not present in database
Track 6 not present in database
Track 7 not present in database
Track 8 not present in database
Track 9 not present in database
Track 10 not present in database
Track 11 not present in database
Track 12 not present in database

None of the tracks are present in the AccurateRip database

End of status report

==== Log checksum 69DBFA91475C61F995F433563296457D7376D55F57BEC07D6D5EC3777FC67663 ====


Bob Welch - Collection 1977-79 (3 Albums) [Japan LTD (mini LP) SHM-CD 2013] Re-up


Three Hearts (1979)
EAC Rip | FLAC: Image+Cue+Log | 314 Mb | MP3 CBR 320 kbps | 124 Mb | Scans | 166 Mb | 41:09
Universal Music | TYCP-80039

Three Hearts is an album by rock musician and former Fleetwood Mac guitarist Bob Welch. Don't Wait Too Long" is a reworking of "Good Things (Come to Those who Wait)", a Welch composition that had been left off the Fleetwood Mac album Mystery to Me.

Just like Welch's previous effort French Kiss, Three Hearts was a commercial success. The album reached #20 on the US charts in 1979 and went gold. It spawned a hit single, "Precious Love", which peaked at #19, making it Welch's last top 20 hit. "Church" was also a small hit, and peaked at #73.

Track Listing

01. 3 Hearts (3:24)
02. Oh Jenny (4:19)
03. I Saw Her Standing There (2:56)
04. Here Comes The Night (3:05)
05. China (3:23)
06. The Ghost Of Flight 401 (3:13)
07. Precious Love (3:15)
08. Church (3:07)
09. Come Softly To Me (2:44)
10. Devil Wind (4:04)
11. Don't Wait Too Long (3:56)
12. Little Star (3:43)

Produced by John Carter & Richard Dashut

Personnel

• Bob Welch: vocals, guitar, bass guitar, keyboards
• Todd Sharp : guitar
• David Adelstein : keyboards, synthesizer
• Alvin Taylor : drums
• Mick Fleetwood : drums, percussion (on track 6)
• Christine McVie : keyboards, vocals (on tracks 9 & 11)
• Stevie Nicks : vocals (on track 10)
• Steve Foreman : percussion
• Gene Page : string arrangements

Exact Audio Copy V1.0 beta 3 from 29. August 2011

EAC extraction logfile from 5. April 2014, 19:27

Bob Welch / Three Hearts SHM-CD

Used drive : PLEXTOR BD-R PX-B950SA Adapter: 6 ID: 0

Read mode : Secure
Utilize accurate stream : Yes
Defeat audio cache : Yes
Make use of C2 pointers : No

Read offset correction : 6
Overread into Lead-In and Lead-Out : No
Fill up missing offset samples with silence : Yes
Delete leading and trailing silent blocks : No
Null samples used in CRC calculations : Yes
Used interface : Native Win32 interface for Win NT & 2000

Used output format : Internal WAV Routines
Sample format : 44.100 Hz; 16 Bit; Stereo


TOC of the extracted CD

Track | Start | Length | Start sector | End sector
––––––––––––––––––––––––––––-
1 | 0:00.00 | 3:24.35 | 0 | 15334
2 | 3:24.35 | 4:19.33 | 15335 | 34792
3 | 7:43.68 | 2:56.12 | 34793 | 48004
4 | 10:40.05 | 3:05.04 | 48005 | 61883
5 | 13:45.09 | 3:23.57 | 61884 | 77165
6 | 17:08.66 | 3:13.25 | 77166 | 91665
7 | 20:22.16 | 3:15.31 | 91666 | 106321
8 | 23:37.47 | 3:07.29 | 106322 | 120375
9 | 26:45.01 | 2:44.64 | 120376 | 132739
10 | 29:29.65 | 4:04.59 | 132740 | 151098
11 | 33:34.49 | 3:56.51 | 151099 | 168849
12 | 37:31.25 | 3:43.04 | 168850 | 185578


Range status and errors

Selected range

Filename C:\Users\Meijin\Desktop\ALLexxess\Bob Welch & Paris\1979 Three Hearts (Mini LP SHM-CD Capitol Records Japan 2013)\Bob Welch - Three Hearts SHM-CD.wav

Peak level 98.8 %
Extraction speed 6.7 X
Range quality 99.9 %
Test CRC 61B6E71E
Copy CRC 61B6E71E
Copy OK

No errors occurred


AccurateRip summary

Track 1 not present in database
Track 2 not present in database
Track 3 not present in database
Track 4 not present in database
Track 5 not present in database
Track 6 not present in database
Track 7 not present in database
Track 8 not present in database
Track 9 not present in database
Track 10 not present in database
Track 11 not present in database
Track 12 not present in database

None of the tracks are present in the AccurateRip database

End of status report

==== Log checksum 3A6BE75EF99382EB80EFB98F4D862D086A0CE13938E5BD7050F0F1B1853808EE ====


Bob Welch - Collection 1977-79 (3 Albums) [Japan LTD (mini LP) SHM-CD 2013] Re-up


The Other One (1979)
EAC Rip | FLAC: Image+Cue+Log | 273 Mb | MP3 CBR 320 kbps | 105 Mb | Scans | 110 Mb | 37:58
Universal Music | TYCP-80040

The Other One is the third solo album by former Fleetwood Mac guitarist Bob Welch. The track "Future Games" was first released on the Fleetwood Mac album of the same name in 1971. Members of Welch's backing band also make songwriting contributions here though the majority of tracks are Welch's own.

Track Listing

01. Rebel Rouser (4:35)
02. Love Came 2X (4:47)
03. Watch The Animals (4:04)
04. Straight Up (3:02)
05. Hideaway (2:32)
06. Future Games (3:29)
07. OneOnOne (2:52)
08. Don't Let Me Fall (3:26)
09. Spanish Dancers (5:03)
10. Old Man Of 17 (4:08)

Produced by John Carter

Personnel

• Bob Welch : vocals, lead guitar
• Todd Sharp : guitar
• Brad Palmer : bass guitar, vocals
• David Adelstein : keyboards, vocals
• Donny Francisco : drums, percussion, vocals
• Roger Voudouris : acoustic guitar on "OneOnOne"

Exact Audio Copy V1.0 beta 3 from 29. August 2011

EAC extraction logfile from 5. April 2014, 18:39

Bob Welch / The Other One SHM-CD

Used drive : PLEXTOR BD-R PX-B950SA Adapter: 6 ID: 0

Read mode : Secure
Utilize accurate stream : Yes
Defeat audio cache : Yes
Make use of C2 pointers : No

Read offset correction : 6
Overread into Lead-In and Lead-Out : No
Fill up missing offset samples with silence : Yes
Delete leading and trailing silent blocks : No
Null samples used in CRC calculations : Yes
Used interface : Native Win32 interface for Win NT & 2000

Used output format : Internal WAV Routines
Sample format : 44.100 Hz; 16 Bit; Stereo


TOC of the extracted CD

Track | Start | Length | Start sector | End sector
––––––––––––––––––––––––––––-
1 | 0:00.00 | 4:35.69 | 0 | 20693
2 | 4:35.69 | 4:47.52 | 20694 | 42270
3 | 9:23.46 | 4:04.64 | 42271 | 60634
4 | 13:28.35 | 3:02.32 | 60635 | 74316
5 | 16:30.67 | 2:32.42 | 74317 | 85758
6 | 19:03.34 | 3:29.16 | 85759 | 101449
7 | 22:32.50 | 2:52.42 | 101450 | 114391
8 | 25:25.17 | 3:26.64 | 114392 | 129905
9 | 28:52.06 | 5:03.33 | 129906 | 152663
10 | 33:55.39 | 4:08.14 | 152664 | 171277


Range status and errors

Selected range

Filename C:\Users\Meijin\Desktop\ALLexxess\Bob Welch & Paris\1979 The Other One (Mini LP SHM-CD Capitol Records Japan 2013)\Bob Welch - The Other One SHM-CD.wav

Peak level 98.8 %
Extraction speed 6.7 X
Range quality 100.0 %
Test CRC 9EF1A974
Copy CRC 9EF1A974
Copy OK

No errors occurred


AccurateRip summary

Track 1 not present in database
Track 2 not present in database
Track 3 not present in database
Track 4 not present in database
Track 5 not present in database
Track 6 not present in database
Track 7 not present in database
Track 8 not present in database
Track 9 not present in database
Track 10 not present in database

None of the tracks are present in the AccurateRip database

End of status report

==== Log checksum 587489D157A71AD8E3CCCEF9B1CE3D3A585B05DA12A3DA18459F3FD2601CB41F ====


Notes

SHM-CD reissues from Bob Welch. This reissue series features the following titles "French Kiss," "Three Hearts," and "The Other One."

Many thanks to the original uploader: ALLexxess





Password: pass