Subcategories

Bobbi Humphrey - The Good Life (1979) [2014 FTG Reissue]

Posted By: JET 1
Bobbi Humphrey - The Good Life (1979) [2014 FTG Reissue]

Bobbi Humphrey - The Good Life (1979) [2014 FTG Reissue]
EAC Rip | FLAC (Tracks) +CUE, LOG | 415 MB | Covers Included
Jazz / Fusion | Label: Funkytowngrooves | Catalog Number: FTGJZ-002

Re-Mastered using the Original Master Tapes by Sean Brennan at Battery Studio’s New York. Bobbi Humphrey's major-label swan song eradicates the final traces of jazz remaining in her music's elemental makeup. Produced by Ralph MacDonald and William Eaton, The Good Life is a 1979 straight-up R&B record. Humphrey always embraced commercial sounds and sensibilities regardless of jazz conventions, but this music is simply too slick for comfort. Her skills as a flutist remain exceptional, which gives The Good Life the funky grooves and gossamer textures that buoyed her classic Blue Note sides.
The Good Life is quite an unashamedly commercial album for Bobbi Humphrey as she has drops the high class approach of her earlier albums and opted for making a full-on in-your-face disco album. This is a big fat disco cliché, even right down to the electronic bongos, But my bet is you'll be so impressed that you'll make an easy move to get some of the Good Life.

Exact Audio Copy V1.0 beta 3 from 29. August 2011

EAC extraction logfile from 2. December 2014, 20:01

Bobbi Humphrey / The Good Life

Used drive : ATAPI DVD A DH16A6L-C Adapter: 2 ID: 0

Read mode : Secure
Utilize accurate stream : Yes
Defeat audio cache : Yes
Make use of C2 pointers : No

Read offset correction : 6
Overread into Lead-In and Lead-Out : No
Fill up missing offset samples with silence : Yes
Delete leading and trailing silent blocks : No
Null samples used in CRC calculations : Yes
Used interface : Native Win32 interface for Win NT & 2000
Gap handling : Appended to previous track

Used output format : User Defined Encoder
Selected bitrate : 1024 kBit/s
Quality : High
Add ID3 tag : No
Command line compressor : C:\Program Files\FLAC\flac.exe
Additional command line options : -8 -V -T "ARTIST=%artist%" -T "TITLE=%title%" -T "ALBUM=%albumtitle%" -T "DATE=%year%" -T "TRACKNUMBER=%tracknr%" -T "GENRE=%genre%" -T "PERFORMER=%albuminterpret%" -T "COMPOSER=%composer%" %haslyrics%–tag-from-file=LYRICS="%lyricsfile%"%haslyrics% -T "ALBUMARTIST=%albumartist%" -T "DISCNUMBER=%cdnumber%" -T "TOTALDISCS=%totalcds%" -T "TOTALTRACKS=%numtracks%" -T "COMMENT=%comment%" %source% -o %dest%


TOC of the extracted CD

Track | Start | Length | Start sector | End sector
––––––––––––––––––––––––––––-
1 | 0:00.00 | 6:35.24 | 0 | 29648
2 | 6:35.24 | 5:52.56 | 29649 | 56104
3 | 12:28.05 | 5:49.21 | 56105 | 82300
4 | 18:17.26 | 7:47.28 | 82301 | 117353
5 | 26:04.54 | 4:25.74 | 117354 | 137302
6 | 30:30.53 | 6:08.56 | 137303 | 164958
7 | 36:39.34 | 3:20.26 | 164959 | 179984
8 | 39:59.60 | 3:23.68 | 179985 | 195277


Track 1

Filename F:\0\!!!!!POST!!!!\Bobbi Humphrey - The Good Life\01 - Say The Word.wav

Pre-gap length 0:00:02.00

Peak level 99.7 %
Extraction speed 3.6 X
Track quality 100.0 %
Test CRC 596AD6CC
Copy CRC 596AD6CC
Accurately ripped (confidence 1) [5FBEEB12] (AR v2)
Copy OK

Track 2

Filename F:\0\!!!!!POST!!!!\Bobbi Humphrey - The Good Life\02 - The Good Life.wav

Peak level 97.7 %
Extraction speed 4.2 X
Track quality 100.0 %
Test CRC E0407BD9
Copy CRC E0407BD9
Accurately ripped (confidence 1) [C39092A8] (AR v2)
Copy OK

Track 3

Filename F:\0\!!!!!POST!!!!\Bobbi Humphrey - The Good Life\03 - Years From Now.wav

Peak level 94.0 %
Extraction speed 4.0 X
Track quality 99.9 %
Test CRC E04B7B06
Copy CRC E04B7B06
Accurately ripped (confidence 1) [F0B7081E] (AR v2)
Copy OK

Track 4

Filename F:\0\!!!!!POST!!!!\Bobbi Humphrey - The Good Life\04 - Love When I'm In Your Arms.wav

Peak level 98.9 %
Extraction speed 5.3 X
Track quality 100.0 %
Test CRC BC25397B
Copy CRC BC25397B
Accurately ripped (confidence 1) [947E0B65] (AR v2)
Copy OK

Track 5

Filename F:\0\!!!!!POST!!!!\Bobbi Humphrey - The Good Life\05 - Living For The Music.wav

Peak level 97.9 %
Extraction speed 5.3 X
Track quality 100.0 %
Test CRC 603C58E8
Copy CRC 603C58E8
Accurately ripped (confidence 1) [470C71A4] (AR v2)
Copy OK

Track 6

Filename F:\0\!!!!!POST!!!!\Bobbi Humphrey - The Good Life\06 - Sweet N' Low.wav

Peak level 98.2 %
Extraction speed 5.9 X
Track quality 100.0 %
Test CRC 1C360C67
Copy CRC 1C360C67
Accurately ripped (confidence 1) [482F2B67] (AR v2)
Copy OK

Track 7

Filename F:\0\!!!!!POST!!!!\Bobbi Humphrey - The Good Life\07 - Love When I'm In Your Arms (7'' Version).wav

Peak level 99.9 %
Extraction speed 5.7 X
Track quality 100.0 %
Test CRC 8849DB60
Copy CRC 8849DB60
Accurately ripped (confidence 1) [01DFBD27] (AR v2)
Copy OK

Track 8

Filename F:\0\!!!!!POST!!!!\Bobbi Humphrey - The Good Life\08 - Sweet N' Low (7'' Version).wav

Peak level 99.7 %
Extraction speed 5.9 X
Track quality 100.0 %
Test CRC 31219B41
Copy CRC 31219B41
Accurately ripped (confidence 1) [76CF7A06] (AR v2)
Copy OK


All tracks accurately ripped

No errors occurred

End of status report

==== Log checksum 7EF08D529AEADA39CF83C07EAE9247C1DBDB1D516E083C33D7C881707EBA9A21 ====


Tracklist:
1. Say The Word
2. The Good Life
3. Years From Now
4. Love when I'm In Your Arms
5. Living For The Music
6. Sweet N Low
7. Love When I'm In Your Arms (7 Inch Version)
8. Sweet N Low (7 Inch Version)