Tags
Language
Tags
April 2024
Su Mo Tu We Th Fr Sa
31 1 2 3 4 5 6
7 8 9 10 11 12 13
14 15 16 17 18 19 20
21 22 23 24 25 26 27
28 29 30 1 2 3 4

Bobby McFerrin – Beyond Words (2002)

Posted By: ArlegZ
Bobby McFerrin – Beyond Words (2002)

Bobby McFerrin – Beyond Words (2002)
EAC | FLAC | Image (Cue & Log) ~ 328 Mb | Total time: 57:43 | Scans included
Jazz | Label: Blue Note | # 7243 5 34201 2 3 | Recorded: 2002

Vocalist Bobby McFerrin, best known for his pop hit, "Don't Worry, Be Happy," is a talented vocalist and all-around musician. This recording is a true reflection of his genius, and it takes jazz-fusion to another level. Joining McFerrin is the great pianist Chick Corea, with Gil Goldstein on accordion, Cameroonian bassist Richard Bona, Brazilian percussionist Cyro Baptista, and drummer Omar Hakim. Their music is a 21st-century blend of Return to Forever and Weather Report. McFerrin's superhuman vocalese investigates and invigorates a number of musical genres. Corea's spellbinding piano motifs grace the calypso-like "Invocation." McFerrin and Corea turn in a beautiful duet version of the pianist's waltzing jazz standard, "Windows." "A Silk Road" and "Desert Field" are laced with Afro-Eurasian and Arabic colors. Bona's Jaco Pastorius-influenced bass lines anchor the hip-hop oriented "Taylor Made," named for McFerrin's son, whose human beat-box vocals pepper the track. Bobby McFerrin's voice sings, scats, and constructs a musical language that's understood by everyone.
–Eugene Holley Jr.

Performer:
Bobby McFerrin: Vocals, Keyboards
Chick Corea: Piano & Keyboards
Gil Goldstein: Accordian
Keith Underwood: Flutes
Taylor McFerrin: Beatbox
Richard Bona: Bass
Cyro Baptista: Percussion
Omar Hakim: Drums

Track List:
01. Invocation
02. Kalimba Suite
03. A Silken Road
04. Fertile Field
05. Dervishes
06. Ziggurat
07. Sisters
08. Circlings
09. Chanson
10. Windows
11. Marlowe
12. Mass
13. Pat & Joe
14. Taylor Made
15. A Piece, A Chord
16. Monks / The Shepherd


Exact Audio Copy V1.5 from 20. February 2020

EAC extraction logfile from 12. February 2021, 15:42

Bobby McFerrin / Beyond Words

Used drive : HL-DT-STDVDRAM GH24NS95 Adapter: 1 ID: 0

Read mode : Secure
Utilize accurate stream : Yes
Defeat audio cache : Yes
Make use of C2 pointers : No

Read offset correction : 6
Overread into Lead-In and Lead-Out : No
Fill up missing offset samples with silence : Yes
Delete leading and trailing silent blocks : No
Null samples used in CRC calculations : Yes
Used interface : Native Win32 interface for Win NT & 2000

Used output format : User Defined Encoder
Selected bitrate : 128 kBit/s
Quality : High
Add ID3 tag : No
Command line compressor : C:\Program Files\Exact Audio Copy\Flac\flac.exe
Additional command line options : -V -8 -T "Date=%year%" -T "Genre=%genre%" %source%


TOC of the extracted CD

Track | Start | Length | Start sector | End sector
––––––––––––––––––––––––––––-
1 | 0:00.00 | 7:10.55 | 0 | 32304
2 | 7:10.55 | 3:40.07 | 32305 | 48811
3 | 10:50.62 | 4:28.45 | 48812 | 68956
4 | 15:19.32 | 5:44.15 | 68957 | 94771
5 | 21:03.47 | 2:15.48 | 94772 | 104944
6 | 23:19.20 | 5:20.30 | 104945 | 128974
7 | 28:39.50 | 1:22.52 | 128975 | 135176
8 | 30:02.27 | 1:14.58 | 135177 | 140784
9 | 31:17.10 | 1:30.02 | 140785 | 147536
10 | 32:47.12 | 4:01.50 | 147537 | 165661
11 | 36:48.62 | 4:08.40 | 165662 | 184301
12 | 40:57.27 | 2:40.65 | 184302 | 196366
13 | 43:38.17 | 2:11.18 | 196367 | 206209
14 | 45:49.35 | 4:22.32 | 206210 | 225891
15 | 50:11.67 | 3:46.73 | 225892 | 242914
16 | 53:58.65 | 2:48.60 | 242915 | 255574


Range status and errors

Selected range

Filename C:\ArlegZ\Bobby McFerrin - Beyond Words.wav

Peak level 99.7 %
Extraction speed 1.8 X
Range quality 99.9 %
Test CRC DE40BB0D
Copy CRC DE40BB0D
Copy OK

No errors occurred


AccurateRip summary

Track 1 accurately ripped (confidence 37) [F8B95A8A] (AR v2)
Track 2 accurately ripped (confidence 37) [937BE461] (AR v2)
Track 3 accurately ripped (confidence 35) [D129708F] (AR v2)
Track 4 accurately ripped (confidence 36) [FF9F4BF3] (AR v2)
Track 5 accurately ripped (confidence 36) [FE890705] (AR v2)
Track 6 accurately ripped (confidence 36) [6450657B] (AR v2)
Track 7 accurately ripped (confidence 36) [A65E538D] (AR v2)
Track 8 accurately ripped (confidence 38) [8E70A9A8] (AR v2)
Track 9 accurately ripped (confidence 38) [C3565C35] (AR v2)
Track 10 accurately ripped (confidence 37) [BB188AC4] (AR v2)
Track 11 accurately ripped (confidence 37) [0A5F457B] (AR v2)
Track 12 accurately ripped (confidence 37) [83C7EE2C] (AR v2)
Track 13 accurately ripped (confidence 37) [F7056E94] (AR v2)
Track 14 accurately ripped (confidence 37) [473C7A54] (AR v2)
Track 15 accurately ripped (confidence 37) [09A12BC7] (AR v2)
Track 16 accurately ripped (confidence 37) [E36BC8AF] (AR v2)

All tracks accurately ripped

End of status report

–– CUETools DB Plugin V2.1.6

[CTDB TOCID: MM.oWgcRG_XWu2IbOHCusEHl8Cs-] found
Submit result: MM.oWgcRG_XWu2IbOHCusEHl8Cs- has been confirmed
Track | CTDB Status
1 | (272/281) Accurately ripped
2 | (276/281) Accurately ripped
3 | (273/281) Accurately ripped
4 | (275/281) Accurately ripped
5 | (280/281) Accurately ripped
6 | (275/281) Accurately ripped
7 | (280/281) Accurately ripped
8 | (279/281) Accurately ripped
9 | (279/281) Accurately ripped
10 | (275/281) Accurately ripped
11 | (278/281) Accurately ripped
12 | (277/281) Accurately ripped
13 | (278/281) Accurately ripped
14 | (277/281) Accurately ripped
15 | (274/281) Accurately ripped
16 | (268/281) Accurately ripped


==== Log checksum 58F7A5CEB262BDD53EF46F6A7943D5BA443CBC4E4F4E2CFE75B7B23A5904E6F7 ====

Bobby McFerrin – Beyond Words (2002)