Tags
Language
Tags

Bonfire - Pearls [2CD Set] (2016)

Posted By: JET 1
Bonfire - Pearls [2CD Set] (2016)

Bonfire - Pearls [2CD Set] (2016)
EAC Rip | FLAC (Tracks) +CUE, LOG | 731 MB | Scans
Genre: Hard Rock | Label: UDR Records | Catalog Number: UDR027P02

Pearls is the sixth compilation by the German heavy metal band Bonfire. It is a greatest hits collection that was released by UDR in 2016, featuring a double CD set of several of the band’s most popular songs. The songs have all been re-recorded with the band line-up of the time and featured new versions and rewritten lyrics to some. This album was a means to celebrate the band’s 30th anniversary.

Exact Audio Copy V1.6 from 23. October 2020

EAC extraction logfile from 18. June 2021, 19:19

Bonfire / Pearls

Used drive : ASUS BW-12B1LT Adapter: 1 ID: 0

Read mode : Secure
Utilize accurate stream : Yes
Defeat audio cache : Yes
Make use of C2 pointers : No

Read offset correction : 6
Overread into Lead-In and Lead-Out : No
Fill up missing offset samples with silence : Yes
Delete leading and trailing silent blocks : No
Null samples used in CRC calculations : Yes
Used interface : Native Win32 interface for Win NT & 2000
Gap handling : Appended to previous track

Used output format : User Defined Encoder
Selected bitrate : 1024 kBit/s
Quality : High
Add ID3 tag : No
Command line compressor : C:\Program Files (x86)\Exact Audio Copy\Flac\flac.exe
Additional command line options : -8 -e -p -V -T "ARTIST=%artist%" -T "TITLE=%title%" -T "ALBUM=%albumtitle%" -T "DATE=%year%" -T "TRACKNUMBER=%tracknr%" -T "GENRE=%genre%" -T "PERFORMER=%albuminterpret%" -T "COMPOSER=%composer%" %haslyrics%–tag-from-file=LYRICS="%lyricsfile%"%haslyrics% -T "ALBUMARTIST=%albumartist%" -T "DISCNUMBER=%cdnumber%" -T "TOTALDISCS=%totalcds%" -T "TOTALTRACKS=%numtracks%" -T "COMMENT=%comment%" %source% -o %dest%


TOC of the extracted CD

Track | Start | Length | Start sector | End sector
––––––––––––––––––––––––––––-
1 | 0:00.00 | 5:52.37 | 0 | 26436
2 | 5:52.37 | 5:49.12 | 26437 | 52623
3 | 11:41.49 | 4:44.64 | 52624 | 73987
4 | 16:26.38 | 5:10.52 | 73988 | 97289
5 | 21:37.15 | 4:16.74 | 97290 | 116563
6 | 25:54.14 | 4:07.18 | 116564 | 135106
7 | 30:01.32 | 3:27.62 | 135107 | 150693
8 | 33:29.19 | 3:36.39 | 150694 | 166932
9 | 37:05.58 | 5:21.40 | 166933 | 191047
10 | 42:27.23 | 4:00.62 | 191048 | 209109
11 | 46:28.10 | 3:46.02 | 209110 | 226061
12 | 50:14.12 | 4:16.05 | 226062 | 245266
13 | 54:30.17 | 3:41.00 | 245267 | 261841


Track 1

Filename E:\Mp3\My Latest Rips\Bonfire - Pearls (2016) [2CD-FLAC]\CD1-Rock Pearls\01 - Strike Back.wav

Pre-gap length 0:00:02.00

Peak level 98.8 %
Extraction speed 5.2 X
Track quality 100.0 %
Test CRC FABD55F4
Copy CRC FABD55F4
Accurately ripped (confidence 6) [54B260CE] (AR v2)
Copy OK

Track 2

Filename E:\Mp3\My Latest Rips\Bonfire - Pearls (2016) [2CD-FLAC]\CD1-Rock Pearls\02 - Under Blue Skies.wav

Peak level 98.8 %
Extraction speed 6.3 X
Track quality 100.0 %
Test CRC 11124D1A
Copy CRC 11124D1A
Accurately ripped (confidence 6) [74F70F91] (AR v2)
Copy OK

Track 3

Filename E:\Mp3\My Latest Rips\Bonfire - Pearls (2016) [2CD-FLAC]\CD1-Rock Pearls\03 - Diamonds in the Rough.wav

Pre-gap length 0:05:49.16

Peak level 98.8 %
Extraction speed 5.8 X
Track quality 99.9 %
Test CRC E3EC79EA
Copy CRC E3EC79EA
Accurately ripped (confidence 6) [5E3B565F] (AR v2)
Copy OK

Track 4

Filename E:\Mp3\My Latest Rips\Bonfire - Pearls (2016) [2CD-FLAC]\CD1-Rock Pearls\04 - Proud of My Country.wav

Pre-gap length 0:10:34.01

Peak level 98.8 %
Extraction speed 7.4 X
Track quality 100.0 %
Test CRC 2F884730
Copy CRC 2F884730
Accurately ripped (confidence 6) [707FA9C0] (AR v2)
Copy OK

Track 5

Filename E:\Mp3\My Latest Rips\Bonfire - Pearls (2016) [2CD-FLAC]\CD1-Rock Pearls\05 - Sweet Home Alabama.wav

Pre-gap length 0:15:44.70

Peak level 98.8 %
Extraction speed 6.4 X
Track quality 99.9 %
Test CRC 08A423AE
Copy CRC 08A423AE
Accurately ripped (confidence 6) [F718576F] (AR v2)
Copy OK

Track 6

Filename E:\Mp3\My Latest Rips\Bonfire - Pearls (2016) [2CD-FLAC]\CD1-Rock Pearls\06 - Don’t Go Changing Me.wav

Pre-gap length 0:20:01.69

Peak level 98.8 %
Extraction speed 7.9 X
Track quality 100.0 %
Test CRC 9B97AED1
Copy CRC 9B97AED1
Accurately ripped (confidence 6) [61B6CC01] (AR v2)
Copy OK

Track 7

Filename E:\Mp3\My Latest Rips\Bonfire - Pearls (2016) [2CD-FLAC]\CD1-Rock Pearls\07 - Sweet Obsession.wav

Pre-gap length 0:24:08.93

Peak level 98.8 %
Extraction speed 6.6 X
Track quality 99.9 %
Test CRC 3280B418
Copy CRC 3280B418
Accurately ripped (confidence 6) [47F6856B] (AR v2)
Copy OK

Track 8

Filename E:\Mp3\My Latest Rips\Bonfire - Pearls (2016) [2CD-FLAC]\CD1-Rock Pearls\08 - American Nights.wav

Pre-gap length 0:27:36.76

Peak level 98.8 %
Extraction speed 8.4 X
Track quality 100.0 %
Test CRC 82E0DECD
Copy CRC 82E0DECD
Accurately ripped (confidence 6) [3E26B0B9] (AR v2)
Copy OK

Track 9

Filename E:\Mp3\My Latest Rips\Bonfire - Pearls (2016) [2CD-FLAC]\CD1-Rock Pearls\09 - Good Time Rock ’n’ Roll.wav

Pre-gap length 0:31:13.28

Peak level 98.8 %
Extraction speed 9.1 X
Track quality 100.0 %
Test CRC 6F4C30D0
Copy CRC 6F4C30D0
Accurately ripped (confidence 6) [AE0897AA] (AR v2)
Copy OK

Track 10

Filename E:\Mp3\My Latest Rips\Bonfire - Pearls (2016) [2CD-FLAC]\CD1-Rock Pearls\10 - Heat in the Glow.wav

Pre-gap length 0:36:34.81

Peak level 98.8 %
Extraction speed 9.1 X
Track quality 100.0 %
Test CRC 59D84617
Copy CRC 59D84617
Accurately ripped (confidence 6) [92E1A294] (AR v2)
Copy OK

Track 11

Filename E:\Mp3\My Latest Rips\Bonfire - Pearls (2016) [2CD-FLAC]\CD1-Rock Pearls\11 - Can’t Stop Rockin.wav

Pre-gap length 0:40:35.64

Peak level 98.8 %
Extraction speed 9.4 X
Track quality 100.0 %
Test CRC 6445BAA4
Copy CRC 6445BAA4
Accurately ripped (confidence 6) [CC325879] (AR v2)
Copy OK

Track 12

Filename E:\Mp3\My Latest Rips\Bonfire - Pearls (2016) [2CD-FLAC]\CD1-Rock Pearls\12 - Down to Atlanta.wav

Pre-gap length 0:44:21.66

Peak level 98.8 %
Extraction speed 9.8 X
Track quality 100.0 %
Test CRC 9CE07C7D
Copy CRC 9CE07C7D
Accurately ripped (confidence 6) [47084C01] (AR v2)
Copy OK

Track 13

Filename E:\Mp3\My Latest Rips\Bonfire - Pearls (2016) [2CD-FLAC]\CD1-Rock Pearls\13 - Loaded Gun.wav

Pre-gap length 0:48:37.73

Peak level 98.8 %
Extraction speed 4.5 X
Track quality 99.8 %
Test CRC B6F8EF72
Copy CRC B6F8EF72
Accurately ripped (confidence 6) [D9D5EC75] (AR v2)
Copy OK


All tracks accurately ripped

No errors occurred

End of status report

–– CUETools DB Plugin V2.1.6

[CTDB TOCID: 7hghd.UaMn3WFSZw4oR2SlHMCTI-] found
Submit result: 7hghd.UaMn3WFSZw4oR2SlHMCTI- has been confirmed
Track | CTDB Status
1 | (24/24) Accurately ripped
2 | (24/24) Accurately ripped
3 | (24/24) Accurately ripped
4 | (24/24) Accurately ripped
5 | (24/24) Accurately ripped
6 | (24/24) Accurately ripped
7 | (24/24) Accurately ripped
8 | (23/24) Accurately ripped
9 | (23/24) Accurately ripped
10 | (23/24) Accurately ripped
11 | (22/24) Accurately ripped
12 | (22/24) Accurately ripped
13 | (24/24) Accurately ripped


==== Log checksum 39A0DA29896E9E944858DFA179BA1CFC39E53CA30F3A1314DE3BBA8A7ECA3896 ====

Exact Audio Copy V1.6 from 23. October 2020

EAC extraction logfile from 18. June 2021, 19:46

Bonfire / Pearls

Used drive : ASUS BW-12B1LT Adapter: 1 ID: 0

Read mode : Secure
Utilize accurate stream : Yes
Defeat audio cache : Yes
Make use of C2 pointers : No

Read offset correction : 6
Overread into Lead-In and Lead-Out : No
Fill up missing offset samples with silence : Yes
Delete leading and trailing silent blocks : No
Null samples used in CRC calculations : Yes
Used interface : Native Win32 interface for Win NT & 2000
Gap handling : Appended to previous track

Used output format : User Defined Encoder
Selected bitrate : 1024 kBit/s
Quality : High
Add ID3 tag : No
Command line compressor : C:\Program Files (x86)\Exact Audio Copy\Flac\flac.exe
Additional command line options : -8 -e -p -V -T "ARTIST=%artist%" -T "TITLE=%title%" -T "ALBUM=%albumtitle%" -T "DATE=%year%" -T "TRACKNUMBER=%tracknr%" -T "GENRE=%genre%" -T "PERFORMER=%albuminterpret%" -T "COMPOSER=%composer%" %haslyrics%–tag-from-file=LYRICS="%lyricsfile%"%haslyrics% -T "ALBUMARTIST=%albumartist%" -T "DISCNUMBER=%cdnumber%" -T "TOTALDISCS=%totalcds%" -T "TOTALTRACKS=%numtracks%" -T "COMMENT=%comment%" %source% -o %dest%


TOC of the extracted CD

Track | Start | Length | Start sector | End sector
––––––––––––––––––––––––––––-
1 | 0:00.00 | 4:48.20 | 0 | 21619
2 | 4:48.20 | 4:48.67 | 21620 | 43286
3 | 9:37.12 | 3:40.35 | 43287 | 59821
4 | 13:17.47 | 5:13.61 | 59822 | 83357
5 | 18:31.33 | 5:39.06 | 83358 | 108788
6 | 24:10.39 | 4:49.04 | 108789 | 130467
7 | 28:59.43 | 5:43.46 | 130468 | 156238
8 | 34:43.14 | 4:18.45 | 156239 | 175633
9 | 39:01.59 | 5:31.38 | 175634 | 200496


Track 1

Filename E:\Mp3\My Latest Rips\Bonfire - Pearls (2016) [2CD-FLAC]\CD2-Classic Pearls\01 - You Make Me Feel.wav

Pre-gap length 0:00:02.00

Peak level 98.8 %
Extraction speed 5.2 X
Track quality 100.0 %
Test CRC 7D12E68C
Copy CRC 7D12E68C
Accurately ripped (confidence 6) [02347AF3] (AR v2)
Copy OK

Track 2

Filename E:\Mp3\My Latest Rips\Bonfire - Pearls (2016) [2CD-FLAC]\CD2-Classic Pearls\02 - Give It a Try.wav

Peak level 98.8 %
Extraction speed 5.9 X
Track quality 100.0 %
Test CRC E901436C
Copy CRC E901436C
Accurately ripped (confidence 6) [85066F23] (AR v2)
Copy OK

Track 3

Filename E:\Mp3\My Latest Rips\Bonfire - Pearls (2016) [2CD-FLAC]\CD2-Classic Pearls\03 - Who’s Foolin’ Who.wav

Pre-gap length 0:04:48.89

Peak level 98.8 %
Extraction speed 6.2 X
Track quality 100.0 %
Test CRC B546AF72
Copy CRC B546AF72
Accurately ripped (confidence 6) [8F00D60C] (AR v2)
Copy OK

Track 4

Filename E:\Mp3\My Latest Rips\Bonfire - Pearls (2016) [2CD-FLAC]\CD2-Classic Pearls\04 - I Need You.wav

Pre-gap length 0:08:29.36

Peak level 98.8 %
Extraction speed 7.2 X
Track quality 100.0 %
Test CRC 93AD4DF2
Copy CRC 93AD4DF2
Accurately ripped (confidence 6) [F88FD9DE] (AR v2)
Copy OK

Track 5

Filename E:\Mp3\My Latest Rips\Bonfire - Pearls (2016) [2CD-FLAC]\CD2-Classic Pearls\05 - Good Night Amanda.wav

Pre-gap length 0:13:43.17

Peak level 98.8 %
Extraction speed 7.9 X
Track quality 100.0 %
Test CRC B02596BD
Copy CRC B02596BD
Accurately ripped (confidence 6) [AE8B125D] (AR v2)
Copy OK

Track 6

Filename E:\Mp3\My Latest Rips\Bonfire - Pearls (2016) [2CD-FLAC]\CD2-Classic Pearls\06 - Southern Winds.wav

Pre-gap length 0:19:22.25

Peak level 98.8 %
Extraction speed 8.3 X
Track quality 100.0 %
Test CRC BF59BB11
Copy CRC BF59BB11
Accurately ripped (confidence 6) [632D8B17] (AR v2)
Copy OK

Track 7

Filename E:\Mp3\My Latest Rips\Bonfire - Pearls (2016) [2CD-FLAC]\CD2-Classic Pearls\07 - If It Wasn’t for You.wav

Pre-gap length 0:24:11.30

Peak level 98.8 %
Extraction speed 7.8 X
Track quality 99.9 %
Test CRC 4E6A40A0
Copy CRC 4E6A40A0
Accurately ripped (confidence 6) [BBD2112D] (AR v2)
Copy OK

Track 8

Filename E:\Mp3\My Latest Rips\Bonfire - Pearls (2016) [2CD-FLAC]\CD2-Classic Pearls\08 - Why Is It Never Enough.wav

Pre-gap length 0:29:54.92

Peak level 98.8 %
Extraction speed 7.7 X
Track quality 99.9 %
Test CRC 5625A272
Copy CRC 5625A272
Accurately ripped (confidence 6) [E9312F17] (AR v2)
Copy OK

Track 9

Filename E:\Mp3\My Latest Rips\Bonfire - Pearls (2016) [2CD-FLAC]\CD2-Classic Pearls\09 - Let’s Fly Away.wav

Pre-gap length 0:34:13.52

Peak level 98.8 %
Extraction speed 9.7 X
Track quality 100.0 %
Test CRC C0D52B30
Copy CRC C0D52B30
Accurately ripped (confidence 6) [D938CA8F] (AR v2)
Copy OK


All tracks accurately ripped

No errors occurred

End of status report

–– CUETools DB Plugin V2.1.6

[CTDB TOCID: M.JJgJ.n8at1LWHEdGGuOytfA4Y-] found
Submit result: M.JJgJ.n8at1LWHEdGGuOytfA4Y- has been confirmed
Track | CTDB Status
1 | (27/27) Accurately ripped
2 | (27/27) Accurately ripped
3 | (27/27) Accurately ripped
4 | (27/27) Accurately ripped
5 | (27/27) Accurately ripped
6 | (27/27) Accurately ripped
7 | (27/27) Accurately ripped
8 | (27/27) Accurately ripped
9 | (27/27) Accurately ripped


==== Log checksum 5A8970E5E49B438A28F705FA7629409E1F2BC32BECD7F0788C23878702963E8B ====

Tracklist ::::
Disc 1 - Rock Pearls
1. Strike Back
2. Under Blue Skies
3. Diamonds In The Rough
4. Proud Of My Country
5. Sweet Home Alabama
6. Don't Go Changing Me
7. Sweet Obsession
8. American Nights
9. Good Time Rock 'n' Roll
10. Heat In The Glow
11. Can't Stop Rockin
12. Down To Atlanta
13. Loaded Gun

Disc 2 - Classic Pearls
1. You Make Me Feel
2. Give It A Try
3. Who's Foolin' Who
4. I Need You
5. Good Night Amanda
6. Southern Winds
7. If It Wasn't For You
8. Why Is It Never Enough
9. Let's Fly Away

Personnel :::
David Reece – lead vocals
Hans Ziller – guitars
Frank Pane – guitars
Ronnie Parkes – bass
Tim Breideband – drums