Subcategories
Tags
Language
Tags

Bonobo - Migration (Japanese Edition) (2017)

Posted By: SERTiL
Bonobo - Migration (Japanese Edition) (2017)

Bonobo - Migration (Japanese Edition)
Electronic | FLAC (tracks)+cue, artwork | 66:34 min | 468 MB
Label: Ninja Tune | Tracks: 13 | Rls.date: 2017

Simon Green, aka Bonobo returns with his sixth album – the masterful, magisterial “Migration” – is a record which cements his place in the very highest echelons of electronic music and indeed, beyond. By turns lush, manic, beautiful, melancholy, joyful, packed with both emotion and technical skill, this is perhaps his most ambitious attempt yet to capture the very textures of human existence in his work, as Green says of the broad dynamics on the album, “Life has highs, lows, loud and quiet moments, beautiful ones and ugly ones. Music is a reflection of life.”

Bonobo - Migration (Japanese Edition) (2017)


TRACKLIST
1. Migration (05:27)
2. Break Apart (feat. Rhye) (04:34)
3. Outlier (07:55)
4. Grains (04:28)
5. Second Sun (03:43)
6. Surface (feat. Nicole Miglis) (04:11)
7. Bambro Koyo Ganda (feat. Innov Gnawa) (05:02)
8. Kerala (03:57)
9. Ontario (03:52)
10. No Reason (feat. Nick Murphy) (07:28)
11. 7th Sevens (05:07)
12. Figures (06:08)
13. Break Apart (Instrumental) [Bonus Track] (04:34)

Exact Audio Copy V1.3 from 2. September 2016

EAC extraction logfile from 17. January 2017, 21:26

Bonobo / Migration

Used drive : PLEXTOR DVDR PX-891SAW Adapter: 1 ID: 0

Read mode : Secure
Utilize accurate stream : Yes
Defeat audio cache : Yes
Make use of C2 pointers : No

Read offset correction : 48
Overread into Lead-In and Lead-Out : No
Fill up missing offset samples with silence : Yes
Delete leading and trailing silent blocks : No
Null samples used in CRC calculations : Yes
Used interface : Native Win32 interface for Win NT & 2000
Gap handling : Appended to previous track

Used output format : User Defined Encoder
Selected bitrate : 1024 kBit/s
Quality : High
Add ID3 tag : No
Command line compressor : C:\Program Files (x86)\Exact Audio Copy\Flac\flac.exe
Additional command line options : -8 -V -T "ARTIST=%artist%" -T "TITLE=%title%" -T "ALBUM=%albumtitle%" -T "DATE=%year%" -T "TRACKNUMBER=%tracknr%" -T "GENRE=%genre%" -T "PERFORMER=%albuminterpret%" -T "COMPOSER=%composer%" %haslyrics%–tag-from-file=LYRICS="%lyricsfile%"%haslyrics% -T "ALBUMARTIST=%albumartist%" -T "DISCNUMBER=%cdnumber%" -T "TOTALDISCS=%totalcds%" -T "TOTALTRACKS=%numtracks%" -T "COMMENT=%comment%" %source% -o %dest%


TOC of the extracted CD

Track | Start | Length | Start sector | End sector
––––––––––––––––––––––––––––-
1 | 0:00.00 | 5:28.24 | 0 | 24623
2 | 5:28.24 | 4:34.52 | 24624 | 45225
3 | 10:03.01 | 7:55.36 | 45226 | 80886
4 | 17:58.37 | 4:28.67 | 80887 | 101053
5 | 22:27.29 | 3:43.54 | 101054 | 117832
6 | 26:11.08 | 4:11.13 | 117833 | 136670
7 | 30:22.21 | 5:02.32 | 136671 | 159352
8 | 35:24.53 | 3:57.41 | 159353 | 177168
9 | 39:22.19 | 3:52.41 | 177169 | 194609
10 | 43:14.60 | 7:28.74 | 194610 | 228283
11 | 50:43.59 | 5:07.25 | 228284 | 251333
12 | 55:51.09 | 6:15.20 | 251334 | 279478
13 | 62:06.29 | 4:34.53 | 279479 | 300081


Track 1

Filename D:\Rips\01 - Migration.wav

Pre-gap length 0:00:02.00

Peak level 98.4 %
Extraction speed 3.8 X
Track quality 99.9 %
Test CRC FE3638E1
Copy CRC FE3638E1
Track not present in AccurateRip database
Copy OK

Track 2

Filename D:\Rips\02 - Break Apart.wav

Peak level 99.3 %
Extraction speed 5.5 X
Track quality 100.0 %
Test CRC A349082C
Copy CRC A349082C
Track not present in AccurateRip database
Copy OK

Track 3

Filename D:\Rips\03 - Outlier.wav

Peak level 98.8 %
Extraction speed 6.4 X
Track quality 100.0 %
Test CRC 05BBFBC8
Copy CRC 05BBFBC8
Track not present in AccurateRip database
Copy OK

Track 4

Filename D:\Rips\04 - Grains.wav

Peak level 93.3 %
Extraction speed 4.7 X
Track quality 99.9 %
Test CRC 723A2F57
Copy CRC 723A2F57
Track not present in AccurateRip database
Copy OK

Track 5

Filename D:\Rips\05 - Second Sun.wav

Peak level 98.8 %
Extraction speed 6.6 X
Track quality 100.0 %
Test CRC 3D252ECD
Copy CRC 3D252ECD
Track not present in AccurateRip database
Copy OK

Track 6

Filename D:\Rips\06 - Surface.wav

Peak level 98.3 %
Extraction speed 7.1 X
Track quality 100.0 %
Test CRC 478A4161
Copy CRC 478A4161
Track not present in AccurateRip database
Copy OK

Track 7

Filename D:\Rips\07 - Bambro Koyo Ganda.wav

Peak level 98.8 %
Extraction speed 5.6 X
Track quality 99.9 %
Test CRC B1394805
Copy CRC B1394805
Track not present in AccurateRip database
Copy OK

Track 8

Filename D:\Rips\08 - Kerala.wav

Peak level 98.8 %
Extraction speed 7.7 X
Track quality 100.0 %
Test CRC 4FF9A45A
Copy CRC 4FF9A45A
Track not present in AccurateRip database
Copy OK

Track 9

Filename D:\Rips\09 - Ontario.wav

Peak level 98.8 %
Extraction speed 8.0 X
Track quality 100.0 %
Test CRC E4255083
Copy CRC E4255083
Track not present in AccurateRip database
Copy OK

Track 10

Filename D:\Rips\10 - No Reason.wav

Peak level 98.4 %
Extraction speed 8.8 X
Track quality 100.0 %
Test CRC 4B716757
Copy CRC 4B716757
Track not present in AccurateRip database
Copy OK

Track 11

Filename D:\Rips\11 - 7th Seasons.wav

Peak level 98.4 %
Extraction speed 8.9 X
Track quality 100.0 %
Test CRC 7FC87453
Copy CRC 7FC87453
Track not present in AccurateRip database
Copy OK

Track 12

Filename D:\Rips\12 - Figures.wav

Peak level 98.8 %
Extraction speed 9.5 X
Track quality 100.0 %
Test CRC 178F6E33
Copy CRC 178F6E33
Track not present in AccurateRip database
Copy OK

Track 13

Filename D:\Rips\13 - Break Apart (Instrumental).wav

Pre-gap length 0:00:06.96

Peak level 100.0 %
Extraction speed 9.6 X
Track quality 100.0 %
Test CRC 334E287C
Copy CRC 334E287C
Track not present in AccurateRip database
Copy OK


None of the tracks are present in the AccurateRip database

No errors occurred

End of status report

–– CUETools DB Plugin V2.1.6

[CTDB TOCID: 32Oh.8TGCx_XWeyqWRhIe5tmN3U-] found
Submit result: 32Oh.8TGCx_XWeyqWRhIe5tmN3U- has been confirmed
Track | CTDB Status
1 | (1/1) Accurately ripped
2 | (1/1) Accurately ripped
3 | (1/1) Accurately ripped
4 | (1/1) Accurately ripped
5 | (1/1) Accurately ripped
6 | (1/1) Accurately ripped
7 | (1/1) Accurately ripped
8 | (1/1) Accurately ripped
9 | (1/1) Accurately ripped
10 | (1/1) Accurately ripped
11 | (1/1) Accurately ripped
12 | (1/1) Accurately ripped
13 | (1/1) Accurately ripped


==== Log checksum 10A3C141AC19CDFF4918D328DDB7BAB105D57F4B0AAC06258DEEE3AC9BE59BD6 ====


Thanks to the Original customer.