Subcategories

Bruckner: Symphony No. 7 - Celibidache, Berlin Philharmonic Orchestra (2012) [Blu-ray]

Posted By: VanPelten
Bruckner: Symphony No. 7 - Celibidache, Berlin Philharmonic Orchestra (2012) [Blu-ray]

Sergiu Celibidache, Berlin Philharmonic Orchestra - Bruckner: Symphony No. 7 (2012) [Blu-ray]
Blu-ray | BDMV | MPEG-2 / 1080i / 29,970 fps | 1.78:1 | 01:35:13 | 00:54:26 | 33.6 GB
Audio: LPCM Stereo Audio / 2.0 / 2304 kbps / 48kHz/24-bit
Genre: Classical | Live Performance | Subtitles/Captions: English, Japanese

In 1992, the revered conductor Sergiu Celibidache returned to conduct the Berliner Philharmoniker for the first time in thirty-eight years. This stupendous event was to be his final concert with the famous orchestra, and it is the only video recording in existence of Celibidache conducting the Berliner Philharmoniker. Bruckner’s majestic Symphony No. 7 is given an expansive, triumphant performance that fills the Schauspielhaus with rich, ripe and burnished sound. To maximise the artistic impact of this momentous occasion, the video assets have been restored and upscaled from 4:3 to 16:9. Recorded live in the Schauspielhaus, Berlin, 31 March and 1 April 1992, directed by Rodney Greenberg. Released on EuroArts’s new sub-label: Recorded Excellence.

Recorded live at the Schauspielhaus, Berlin, 31 March and 1 April 1992, this concert, here presented in all its splendor, is the only video recording of Celibidache with the Berliner Philharmoniker in existence. This is truly a historic gem, beautifully produced and presented!

Review:
The concert given here is a miracle. Far beyond the questions of tempi, the music is always moving forward, in the time and in the space. Such an experience is in accordance with the will of the master, recorded live and without any technical trick. Listening to Celibidache is already a unique experience, but watching a concert is another journey, a kind of mass. However, we are here on the verge of tears during all the performance … listen to the Adagio … as well as at the end, when Celibidache turns into the direction of the orchestra with his hands clasped together, an act of humility and gratitude of this giant facing the orchestra (at least !). We just can, even more humbly, have the same feeling for this genius, and thank him for his gift. The sound is rendered in a splendid stereo without any artificial surround effects. In addition, a documentary is given as a bonus.

Supplement Documentary "The Triumphant Return" directed by Wolfgang Becker. The film documents the maestro Celibidache’s reunion with the Berliner Philharmoniker after 38 years, and includes extensive footage from the rehearsals of Bruckner’s Symphony No. 7 and interviews with former orchestra members.
Bruckner: Symphony No. 7 - Celibidache, Berlin Philharmonic Orchestra (2012) [Blu-ray]

Bruckner: Symphony No. 7 - Celibidache, Berlin Philharmonic Orchestra (2012) [Blu-ray]

Bruckner: Symphony No. 7 - Celibidache, Berlin Philharmonic Orchestra (2012) [Blu-ray]

Bruckner: Symphony No. 7 - Celibidache, Berlin Philharmonic Orchestra (2012) [Blu-ray]

Bruckner: Symphony No. 7 - Celibidache, Berlin Philharmonic Orchestra (2012) [Blu-ray]

Bruckner: Symphony No. 7 - Celibidache, Berlin Philharmonic Orchestra (2012) [Blu-ray]

Bruckner: Symphony No. 7 - Celibidache, Berlin Philharmonic Orchestra (2012) [Blu-ray]

Bruckner: Symphony No. 7 - Celibidache, Berlin Philharmonic Orchestra (2012) [Blu-ray]

Bruckner: Symphony No. 7 - Celibidache, Berlin Philharmonic Orchestra (2012) [Blu-ray]

Disc Title: Bruckner 7th Symhphony Live in Berlin - Celibidache Berlin Philharmonic (Blu-ray)
Disc Size: 34,969,632,058 bytes
Protection: AACS
BD-Java: Yes
BDInfo: 0.5.8


********************
PLAYLIST: 00003.MPLS
********************
                                                                                                                Total   Video                                             
Title                                                           Codec   Length  Movie Size      Disc Size       Bitrate Bitrate Main Audio Track                          Secondary Audio Track
-----                                                           ------  ------- --------------  --------------  ------- ------- ------------------                        ---------------------
00003.MPLS                                                      MPEG-2  1:35:13 20,449,443,840  34,969,632,058  28.63   24.99   LPCM 2.0 2304Kbps (48kHz/24-bit)          


DISC INFO:

Disc Title:     Bruckner 7th Symhphony Live in Berlin - Celibidache Berlin Philharmonic (Blu-ray)
Disc Size:      34,969,632,058 bytes
Protection:     AACS
BD-Java:        Yes
BDInfo:         0.5.8

PLAYLIST REPORT:

Name:                   00003.MPLS
Length:                 1:35:13.607 (h:m:s.ms)
Size:                   20,449,443,840 bytes
Total Bitrate:          28.63 Mbps

VIDEO:

Codec                   Bitrate             Description     
-----                   -------             -----------     
MPEG-2 Video            24993 kbps          1080i / 29.970 fps / 16:9

AUDIO:

Codec                           Language        Bitrate         Description     
-----                           --------        -------         -----------     
LPCM Audio                      Undetermined    2304 kbps       2.0 / 48 kHz / 2304 kbps / 24-bit

FILES:

Name            Time In         Length          Size            Total Bitrate   
----            -------         ------          ----            -------------   
00003.M2TS      0:00:00.000     1:35:13.607     20,449,443,840  28,633          

CHAPTERS:

Number          Time In         Length          Avg Video Rate  Max 1-Sec Rate  Max 1-Sec Time  Max 5-Sec Rate  Max 5-Sec Time  Max 10Sec Rate  Max 10Sec Time  Avg Frame Size  Max Frame Size  Max Frame Time  
------          -------         ------          --------------  --------------  --------------  --------------  --------------  --------------  --------------  --------------  --------------  --------------  
1               0:00:00.000     0:02:02.122     24,837 kbps     31,542 kbps     00:00:07.707    28,809 kbps     00:00:06.406    28,634 kbps     00:00:05.171    103,563 bytes   556,064 bytes   00:00:05.638    
2               0:02:02.122     0:28:20.331     24,748 kbps     31,328 kbps     00:09:24.730    29,115 kbps     00:29:07.645    29,006 kbps     00:09:10.850    103,219 bytes   508,853 bytes   00:30:00.799    
3               0:30:22.453     0:31:27.085     24,289 kbps     31,177 kbps     00:58:56.499    29,166 kbps     00:58:58.201    29,021 kbps     00:58:55.698    101,304 bytes   506,921 bytes   00:54:45.515    
4               1:01:49.539     0:12:48.601     25,509 kbps     31,372 kbps     01:11:14.737    28,761 kbps     01:04:59.629    28,589 kbps     01:11:24.780    106,396 bytes   522,920 bytes   01:14:24.593    
5               1:14:38.140     0:18:45.324     26,117 kbps     32,502 kbps     01:24:38.006    29,597 kbps     01:24:38.006    29,437 kbps     01:24:37.205    108,930 bytes   561,989 bytes   01:24:52.387    
6               1:33:23.464     0:01:50.143     25,939 kbps     30,403 kbps     01:35:12.173    27,901 kbps     01:34:41.075    27,575 kbps     01:34:39.840    108,220 bytes   519,526 bytes   01:34:20.788    

STREAM DIAGNOSTICS:

File            PID             Type            Codec           Language                Seconds                 Bitrate                 Bytes           Packets         
----            ---             ----            -----           --------                --------------          --------------          -------------   -----           
00003.M2TS      4113 (0x1011)   0x02            MPEG-2                                  5713.474                24,994                  17,850,182,842  97,111,873      
00003.M2TS      4352 (0x1100)   0x80            LPCM            und (Undetermined)      5713.474                2,310                   1,650,084,792   9,141,758       



********************
PLAYLIST: 01003.MPLS
********************

                                                                                                                Total   Video                                             
Title                                                           Codec   Length  Movie Size      Disc Size       Bitrate Bitrate Main Audio Track                          Secondary Audio Track
-----                                                           ------  ------- --------------  --------------  ------- ------- ------------------                        ---------------------
01003.MPLS                                                      MPEG-2  1:35:13 20,449,443,840  34,969,632,058  28.63   24.99   LPCM 2.0 2304Kbps (48kHz/24-bit)          


DISC INFO:

Disc Title:     Bruckner 7th Symhphony Live in Berlin - Celibidache Berlin Philharmonic (Blu-ray)
Disc Size:      34,969,632,058 bytes
Protection:     AACS
BD-Java:        Yes
BDInfo:         0.5.8

PLAYLIST REPORT:

Name:                   01003.MPLS
Length:                 1:35:13.607 (h:m:s.ms)
Size:                   20,449,443,840 bytes
Total Bitrate:          28.63 Mbps

VIDEO:

Codec                   Bitrate             Description     
-----                   -------             -----------     
MPEG-2 Video            24993 kbps          1080i / 29.970 fps / 16:9

AUDIO:

Codec                           Language        Bitrate         Description     
-----                           --------        -------         -----------     
LPCM Audio                      Undetermined    2304 kbps       2.0 / 48 kHz / 2304 kbps / 24-bit

FILES:

Name            Time In         Length          Size            Total Bitrate   
----            -------         ------          ----            -------------   
00003.M2TS      0:00:00.000     1:35:13.607     20,449,443,840  28,633          

CHAPTERS:

Number          Time In         Length          Avg Video Rate  Max 1-Sec Rate  Max 1-Sec Time  Max 5-Sec Rate  Max 5-Sec Time  Max 10Sec Rate  Max 10Sec Time  Avg Frame Size  Max Frame Size  Max Frame Time  
------          -------         ------          --------------  --------------  --------------  --------------  --------------  --------------  --------------  --------------  --------------  --------------  
1               0:00:00.000     0:02:02.122     24,837 kbps     31,542 kbps     00:00:07.707    28,809 kbps     00:00:06.406    28,634 kbps     00:00:05.171    103,563 bytes   556,064 bytes   00:00:05.638    
2               0:02:02.122     0:28:20.331     24,748 kbps     31,328 kbps     00:09:24.730    29,115 kbps     00:29:07.645    29,006 kbps     00:09:10.850    103,219 bytes   508,853 bytes   00:30:00.799    
3               0:30:22.453     0:31:27.085     24,289 kbps     31,177 kbps     00:58:56.499    29,166 kbps     00:58:58.201    29,021 kbps     00:58:55.698    101,304 bytes   506,921 bytes   00:54:45.515    
4               1:01:49.539     0:12:48.601     25,509 kbps     31,372 kbps     01:11:14.737    28,761 kbps     01:04:59.629    28,589 kbps     01:11:24.780    106,396 bytes   522,920 bytes   01:14:24.593    
5               1:14:38.140     0:18:45.324     26,117 kbps     32,502 kbps     01:24:38.006    29,597 kbps     01:24:38.006    29,437 kbps     01:24:37.205    108,930 bytes   561,989 bytes   01:24:52.387    
6               1:33:23.464     0:01:50.143     25,939 kbps     30,403 kbps     01:35:12.173    27,901 kbps     01:34:41.075    27,575 kbps     01:34:39.840    108,220 bytes   519,526 bytes   01:34:20.788    

STREAM DIAGNOSTICS:

File            PID             Type            Codec           Language                Seconds                 Bitrate                 Bytes           Packets         
----            ---             ----            -----           --------                --------------          --------------          -------------   -----           
00003.M2TS      4113 (0x1011)   0x02            MPEG-2                                  5713.474                24,994                  17,850,182,842  97,111,873      
00003.M2TS      4352 (0x1100)   0x80            LPCM            und (Undetermined)      5713.474                2,310                   1,650,084,792   9,141,758       



********************
PLAYLIST: 00004.MPLS
********************

                                                                                                                Total   Video                                             
Title                                                           Codec   Length  Movie Size      Disc Size       Bitrate Bitrate Main Audio Track                          Secondary Audio Track
-----                                                           ------  ------- --------------  --------------  ------- ------- ------------------                        ---------------------
00004.MPLS                                                      MPEG-2  0:54:26 12,000,503,808  34,969,632,058  29.39   26.24   LPCM 2.0 1536Kbps (48kHz/16-bit)          


DISC INFO:

Disc Title:     Bruckner 7th Symhphony Live in Berlin - Celibidache Berlin Philharmonic (Blu-ray)
Disc Size:      34,969,632,058 bytes
Protection:     AACS
BD-Java:        Yes
BDInfo:         0.5.8

PLAYLIST REPORT:

Name:                   00004.MPLS
Length:                 0:54:26.630 (h:m:s.ms)
Size:                   12,000,503,808 bytes
Total Bitrate:          29.39 Mbps

VIDEO:

Codec                   Bitrate             Description     
-----                   -------             -----------     
MPEG-2 Video            26242 kbps          1080i / 29.970 fps / 16:9  / High Profile 4.1

AUDIO:

Codec                           Language        Bitrate         Description     
-----                           --------        -------         -----------     
LPCM Audio                      German          1536 kbps       2.0 / 48 kHz / 1536 kbps / 16-bit

SUBTITLES:

Codec                           Language        Bitrate         Description     
-----                           --------        -------         -----------     
Presentation Graphics           English         36.669 kbps                     
Presentation Graphics           Japanese        24.668 kbps                     

FILES:

Name            Time In         Length          Size            Total Bitrate   
----            -------         ------          ----            -------------   
00004.M2TS      0:00:00.000     0:54:26.630     12,000,503,808  29,389          

CHAPTERS:

Number          Time In         Length          Avg Video Rate  Max 1-Sec Rate  Max 1-Sec Time  Max 5-Sec Rate  Max 5-Sec Time  Max 10Sec Rate  Max 10Sec Time  Avg Frame Size  Max Frame Size  Max Frame Time  
------          -------         ------          --------------  --------------  --------------  --------------  --------------  --------------  --------------  --------------  --------------  --------------  
1               0:00:00.000     0:54:26.630     26,242 kbps     31,916 kbps     00:03:07.320    29,188 kbps     00:50:41.705    28,475 kbps     00:09:27.767    109,451 bytes   515,725 bytes   00:07:31.184    

STREAM DIAGNOSTICS:

File            PID             Type            Codec           Language                Seconds                 Bitrate                 Bytes           Packets         
----            ---             ----            -----           --------                --------------          --------------          -------------   -----           
00004.M2TS      4113 (0x1011)   0x02            MPEG-2                                  3266.530                26,243                  10,715,384,587  58,293,018      
00004.M2TS      4352 (0x1100)   0x80            LPCM            deu (German)            3266.530                1,542                   629,805,300     3,919,955       
00004.M2TS      4608 (0x1200)   0x90            PGS             eng (English)           3266.530                37                      14,973,199      85,438          
00004.M2TS      4609 (0x1201)   0x90            PGS             jpn (Japanese)          3266.530                25                      10,072,673      58,796          


QUICK SUMMARY:

Disc Title: Bruckner 7th Symhphony Live in Berlin - Celibidache Berlin Philharmonic (Blu-ray)
Disc Size: 34,969,632,058 bytes
Protection: AACS
BD-Java: Yes
Playlist: 00004.MPLS
Size: 12,000,503,808 bytes
Length: 0:54:26.630
Total Bitrate: 29.39 Mbps
Video: MPEG-2 Video / 26242 kbps / 1080i / 29.970 fps / 16:9
Audio: German / LPCM Audio / 2.0 / 48 kHz / 1536 kbps / 16-bit
Subtitle: English / 36.669 kbps
Subtitle: Japanese / 24.668 kbps


********************
PLAYLIST: 01004.MPLS
********************

                                                                                                                Total   Video                                             
Title                                                           Codec   Length  Movie Size      Disc Size       Bitrate Bitrate Main Audio Track                          Secondary Audio Track
-----                                                           ------  ------- --------------  --------------  ------- ------- ------------------                        ---------------------
01004.MPLS                                                      MPEG-2  0:54:26 12,000,503,808  34,969,632,058  29.39   26.24   LPCM 2.0 1536Kbps (48kHz/16-bit)          


DISC INFO:

Disc Title:     Bruckner 7th Symhphony Live in Berlin - Celibidache Berlin Philharmonic (Blu-ray)
Disc Size:      34,969,632,058 bytes
Protection:     AACS
BD-Java:        Yes
BDInfo:         0.5.8

PLAYLIST REPORT:

Name:                   01004.MPLS
Length:                 0:54:26.630 (h:m:s.ms)
Size:                   12,000,503,808 bytes
Total Bitrate:          29.39 Mbps

VIDEO:

Codec                   Bitrate             Description     
-----                   -------             -----------     
MPEG-2 Video            26242 kbps          1080i / 29.970 fps / 16:9

AUDIO:

Codec                           Language        Bitrate         Description     
-----                           --------        -------         -----------     
LPCM Audio                      German          1536 kbps       2.0 / 48 kHz / 1536 kbps / 16-bit

SUBTITLES:

Codec                           Language        Bitrate         Description     
-----                           --------        -------         -----------     
Presentation Graphics           English         36.669 kbps                     
Presentation Graphics           Japanese        24.668 kbps                     

FILES:

Name            Time In         Length          Size            Total Bitrate   
----            -------         ------          ----            -------------   
00004.M2TS      0:00:00.000     0:54:26.630     12,000,503,808  29,389          

CHAPTERS:

Number          Time In         Length          Avg Video Rate  Max 1-Sec Rate  Max 1-Sec Time  Max 5-Sec Rate  Max 5-Sec Time  Max 10Sec Rate  Max 10Sec Time  Avg Frame Size  Max Frame Size  Max Frame Time  
------          -------         ------          --------------  --------------  --------------  --------------  --------------  --------------  --------------  --------------  --------------  --------------  
1               0:00:00.000     0:54:26.630     26,242 kbps     31,916 kbps     00:03:07.320    29,188 kbps     00:50:41.705    28,475 kbps     00:09:27.767    109,451 bytes   515,725 bytes   00:07:31.184    

STREAM DIAGNOSTICS:

File            PID             Type            Codec           Language                Seconds                 Bitrate                 Bytes           Packets         
----            ---             ----            -----           --------                --------------          --------------          -------------   -----           
00004.M2TS      4113 (0x1011)   0x02            MPEG-2                                  3266.530                26,243                  10,715,384,587  58,293,018      
00004.M2TS      4352 (0x1100)   0x80            LPCM            deu (German)            3266.530                1,542                   629,805,300     3,919,955       
00004.M2TS      4608 (0x1200)   0x90            PGS             eng (English)           3266.530                37                      14,973,199      85,438          
00004.M2TS      4609 (0x1201)   0x90            PGS             jpn (Japanese)          3266.530                25                      10,072,673      58,796          


QUICK SUMMARY:

Disc Title: Bruckner 7th Symhphony Live in Berlin - Celibidache Berlin Philharmonic (Blu-ray)
Disc Size: 34,969,632,058 bytes
Protection: AACS
BD-Java: Yes
Playlist: 01004.MPLS
Size: 12,000,503,808 bytes
Length: 0:54:26.630
Total Bitrate: 29.39 Mbps
Video: MPEG-2 Video / 26242 kbps / 1080i / 29.970 fps / 16:9
Audio: German / LPCM Audio / 2.0 / 48 kHz / 1536 kbps / 16-bit
Subtitle: English / 36.669 kbps
Subtitle: Japanese / 24.668 kbps


********************
PLAYLIST: 00005.MPLS
********************

                                                                                                                Total   Video                                             
Title                                                           Codec   Length  Movie Size      Disc Size       Bitrate Bitrate Main Audio Track                          Secondary Audio Track
-----                                                           ------  ------- --------------  --------------  ------- ------- ------------------                        ---------------------
00005.MPLS                                                      MPEG-2  0:03:43 816,979,968     34,969,632,058  29.23   26.16   LPCM 2.0 1536Kbps (48kHz/16-bit)          


DISC INFO:

Disc Title:     Bruckner 7th Symhphony Live in Berlin - Celibidache Berlin Philharmonic (Blu-ray)
Disc Size:      34,969,632,058 bytes
Protection:     AACS
BD-Java:        Yes
BDInfo:         0.5.8

PLAYLIST REPORT:

Name:                   00005.MPLS
Length:                 0:03:43.590 (h:m:s.ms)
Size:                   816,979,968 bytes
Total Bitrate:          29.23 Mbps

VIDEO:

Codec                   Bitrate             Description     
-----                   -------             -----------     
MPEG-2 Video            26155 kbps          1080i / 29.970 fps / 16:9

AUDIO:

Codec                           Language        Bitrate         Description     
-----                           --------        -------         -----------     
LPCM Audio                      Undetermined    1536 kbps       2.0 / 48 kHz / 1536 kbps / 16-bit

FILES:

Name            Time In         Length          Size            Total Bitrate   
----            -------         ------          ----            -------------   
00005.M2TS      0:00:00.000     0:03:43.590     816,979,968     29,231          

CHAPTERS:

Number          Time In         Length          Avg Video Rate  Max 1-Sec Rate  Max 1-Sec Time  Max 5-Sec Rate  Max 5-Sec Time  Max 10Sec Rate  Max 10Sec Time  Avg Frame Size  Max Frame Size  Max Frame Time  
------          -------         ------          --------------  --------------  --------------  --------------  --------------  --------------  --------------  --------------  --------------  --------------  
1               0:00:00.000     0:03:43.590     26,155 kbps     32,518 kbps     00:01:42.869    30,093 kbps     00:01:42.869    29,593 kbps     00:01:42.869    109,090 bytes   534,367 bytes   00:01:17.844    

STREAM DIAGNOSTICS:

File            PID             Type            Codec           Language                Seconds                 Bitrate                 Bytes           Packets         
----            ---             ----            -----           --------                --------------          --------------          -------------   -----           
00005.M2TS      4113 (0x1011)   0x02            MPEG-2                                  223.523                 26,163                  731,013,344     3,976,841       
00005.M2TS      4352 (0x1100)   0x80            LPCM            und (Undetermined)      223.523                 1,543                   43,108,152      268,308         


QUICK SUMMARY:

Disc Title: Bruckner 7th Symhphony Live in Berlin - Celibidache Berlin Philharmonic (Blu-ray)
Disc Size: 34,969,632,058 bytes
Protection: AACS
BD-Java: Yes
Playlist: 00005.MPLS
Size: 816,979,968 bytes
Length: 0:03:43.590
Total Bitrate: 29.23 Mbps
Video: MPEG-2 Video / 26155 kbps / 1080i / 29.970 fps / 16:9
Audio: Undetermined / LPCM Audio / 2.0 / 48 kHz / 1536 kbps / 16-bit


********************
PLAYLIST: 01005.MPLS
********************
                                                                                                                Total   Video                                             
Title                                                           Codec   Length  Movie Size      Disc Size       Bitrate Bitrate Main Audio Track                          Secondary Audio Track
-----                                                           ------  ------- --------------  --------------  ------- ------- ------------------                        ---------------------
01005.MPLS                                                      MPEG-2  0:03:43 816,979,968     34,969,632,058  29.23   26.16   LPCM 2.0 1536Kbps (48kHz/16-bit)          


DISC INFO:

Disc Title:     Bruckner 7th Symhphony Live in Berlin - Celibidache Berlin Philharmonic (Blu-ray)
Disc Size:      34,969,632,058 bytes
Protection:     AACS
BD-Java:        Yes
BDInfo:         0.5.8

PLAYLIST REPORT:

Name:                   01005.MPLS
Length:                 0:03:43.590 (h:m:s.ms)
Size:                   816,979,968 bytes
Total Bitrate:          29.23 Mbps

VIDEO:

Codec                   Bitrate             Description     
-----                   -------             -----------     
MPEG-2 Video            26155 kbps          1080i / 29.970 fps / 16:9

AUDIO:

Codec                           Language        Bitrate         Description     
-----                           --------        -------         -----------     
LPCM Audio                      Undetermined    1536 kbps       2.0 / 48 kHz / 1536 kbps / 16-bit

FILES:

Name            Time In         Length          Size            Total Bitrate   
----            -------         ------          ----            -------------   
00005.M2TS      0:00:00.000     0:03:43.590     816,979,968     29,231          

CHAPTERS:

Number          Time In         Length          Avg Video Rate  Max 1-Sec Rate  Max 1-Sec Time  Max 5-Sec Rate  Max 5-Sec Time  Max 10Sec Rate  Max 10Sec Time  Avg Frame Size  Max Frame Size  Max Frame Time  
------          -------         ------          --------------  --------------  --------------  --------------  --------------  --------------  --------------  --------------  --------------  --------------  
1               0:00:00.000     0:03:43.590     26,155 kbps     32,518 kbps     00:01:42.869    30,093 kbps     00:01:42.869    29,593 kbps     00:01:42.869    109,090 bytes   534,367 bytes   00:01:17.844    

STREAM DIAGNOSTICS:

File            PID             Type            Codec           Language                Seconds                 Bitrate                 Bytes           Packets         
----            ---             ----            -----           --------                --------------          --------------          -------------   -----           
00005.M2TS      4113 (0x1011)   0x02            MPEG-2                                  223.523                 26,163                  731,013,344     3,976,841       
00005.M2TS      4352 (0x1100)   0x80            LPCM            und (Undetermined)      223.523                 1,543                   43,108,152      268,308         


QUICK SUMMARY:

Disc Title: Bruckner 7th Symhphony Live in Berlin - Celibidache Berlin Philharmonic (Blu-ray)
Disc Size: 34,969,632,058 bytes
Protection: AACS
BD-Java: Yes
Playlist: 01005.MPLS
Size: 816,979,968 bytes
Length: 0:03:43.590
Total Bitrate: 29.23 Mbps
Video: MPEG-2 Video / 26155 kbps / 1080i / 29.970 fps / 16:9
Audio: Undetermined / LPCM Audio / 2.0 / 48 kHz / 1536 kbps / 16-bit


********************
PLAYLIST: 00008.MPLS
********************

                                                                                                                Total   Video                                             
Title                                                           Codec   Length  Movie Size      Disc Size       Bitrate Bitrate Main Audio Track                          Secondary Audio Track
-----                                                           ------  ------- --------------  --------------  ------- ------- ------------------                        ---------------------
00008.MPLS                                                      AVC     0:03:20 429,373,440     34,969,632,058  17.16   14.00   LPCM 2.0 2304Kbps (48kHz/24-bit)          


DISC INFO:

Disc Title:     Bruckner 7th Symhphony Live in Berlin - Celibidache Berlin Philharmonic (Blu-ray)
Disc Size:      34,969,632,058 bytes
Protection:     AACS
BD-Java:        Yes
BDInfo:         0.5.8

PLAYLIST REPORT:

Name:                   00008.MPLS
Length:                 0:03:20.200 (h:m:s.ms)
Size:                   429,373,440 bytes
Total Bitrate:          17.16 Mbps

VIDEO:

Codec                   Bitrate             Description     
-----                   -------             -----------     
MPEG-4 AVC Video        13996 kbps          1080i / 29.970 fps / 16:9 / High Profile 4.1

AUDIO:

Codec                           Language        Bitrate         Description     
-----                           --------        -------         -----------     
LPCM Audio                      Undetermined    2304 kbps       2.0 / 48 kHz / 2304 kbps / 24-bit

FILES:

Name            Time In         Length          Size            Total Bitrate   
----            -------         ------          ----            -------------   
00008.M2TS      0:00:00.000     0:03:20.200     429,373,440     17,158          

CHAPTERS:

Number          Time In         Length          Avg Video Rate  Max 1-Sec Rate  Max 1-Sec Time  Max 5-Sec Rate  Max 5-Sec Time  Max 10Sec Rate  Max 10Sec Time  Avg Frame Size  Max Frame Size  Max Frame Time  
------          -------         ------          --------------  --------------  --------------  --------------  --------------  --------------  --------------  --------------  --------------  --------------  
1               0:00:00.000     0:03:20.200     13,996 kbps     33,415 kbps     00:01:51.778    23,797 kbps     00:00:35.201    22,660 kbps     00:00:43.276    58,376 bytes    576,570 bytes   00:00:10.410    

STREAM DIAGNOSTICS:

File            PID             Type            Codec           Language                Seconds                 Bitrate                 Bytes           Packets         
----            ---             ----            -----           --------                --------------          --------------          -------------   -----           
00008.M2TS      4113 (0x1011)   0x1B            AVC                                     200.100                 14,003                  350,258,624     1,907,095       
00008.M2TS      4352 (0x1100)   0x80            LPCM            und (Undetermined)      200.100                 2,312                   57,817,760      320,320         


QUICK SUMMARY:

Disc Title: Bruckner 7th Symhphony Live in Berlin - Celibidache Berlin Philharmonic (Blu-ray)
Disc Size: 34,969,632,058 bytes
Protection: AACS
BD-Java: Yes
Playlist: 00008.MPLS
Size: 429,373,440 bytes
Length: 0:03:20.200
Total Bitrate: 17.16 Mbps
Video: MPEG-4 AVC Video / 13996 kbps / 1080i / 29.970 fps / 16:9 / High Profile 4.1
Audio: Undetermined / LPCM Audio / 2.0 / 48 kHz / 2304 kbps / 24-bit


********************
PLAYLIST: 01008.MPLS
********************

                                                                                                                Total   Video                                             
Title                                                           Codec   Length  Movie Size      Disc Size       Bitrate Bitrate Main Audio Track                          Secondary Audio Track
-----                                                           ------  ------- --------------  --------------  ------- ------- ------------------                        ---------------------
01008.MPLS                                                      AVC     0:03:20 429,373,440     34,969,632,058  17.16   14.00   LPCM 2.0 2304Kbps (48kHz/24-bit)          


DISC INFO:

Disc Title:     Bruckner 7th Symhphony Live in Berlin - Celibidache Berlin Philharmonic (Blu-ray)
Disc Size:      34,969,632,058 bytes
Protection:     AACS
BD-Java:        Yes
BDInfo:         0.5.8

PLAYLIST REPORT:

Name:                   01008.MPLS
Length:                 0:03:20.200 (h:m:s.ms)
Size:                   429,373,440 bytes
Total Bitrate:          17.16 Mbps

VIDEO:

Codec                   Bitrate             Description     
-----                   -------             -----------     
MPEG-4 AVC Video        13996 kbps          1080i / 29.970 fps / 16:9 / High Profile 4.1

AUDIO:

Codec                           Language        Bitrate         Description     
-----                           --------        -------         -----------     
LPCM Audio                      Undetermined    2304 kbps       2.0 / 48 kHz / 2304 kbps / 24-bit

FILES:

Name            Time In         Length          Size            Total Bitrate   
----            -------         ------          ----            -------------   
00008.M2TS      0:00:00.000     0:03:20.200     429,373,440     17,158          

CHAPTERS:

Number          Time In         Length          Avg Video Rate  Max 1-Sec Rate  Max 1-Sec Time  Max 5-Sec Rate  Max 5-Sec Time  Max 10Sec Rate  Max 10Sec Time  Avg Frame Size  Max Frame Size  Max Frame Time  
------          -------         ------          --------------  --------------  --------------  --------------  --------------  --------------  --------------  --------------  --------------  --------------  
1               0:00:00.000     0:03:20.200     13,996 kbps     33,415 kbps     00:01:51.778    23,797 kbps     00:00:35.201    22,660 kbps     00:00:43.276    58,376 bytes    576,570 bytes   00:00:10.410    

STREAM DIAGNOSTICS:

File            PID             Type            Codec           Language                Seconds                 Bitrate                 Bytes           Packets         
----            ---             ----            -----           --------                --------------          --------------          -------------   -----           
00008.M2TS      4113 (0x1011)   0x1B            AVC                                     200.100                 14,003                  350,258,624     1,907,095       
00008.M2TS      4352 (0x1100)   0x80            LPCM            und (Undetermined)      200.100                 2,312                   57,817,760      320,320         


QUICK SUMMARY:

Disc Title: Bruckner 7th Symhphony Live in Berlin - Celibidache Berlin Philharmonic (Blu-ray)
Disc Size: 34,969,632,058 bytes
Protection: AACS
BD-Java: Yes
Playlist: 01008.MPLS
Size: 429,373,440 bytes
Length: 0:03:20.200
Total Bitrate: 17.16 Mbps
Video: MPEG-4 AVC Video / 13996 kbps / 1080i / 29.970 fps / 16:9 / High Profile 4.1
Audio: Undetermined / LPCM Audio / 2.0 / 48 kHz / 2304 kbps / 24-bit


********************
PLAYLIST: 00006.MPLS
********************

                                                                                                                Total   Video                                             
Title                                                           Codec   Length  Movie Size      Disc Size       Bitrate Bitrate Main Audio Track                          Secondary Audio Track
-----                                                           ------  ------- --------------  --------------  ------- ------- ------------------                        ---------------------
00006.MPLS                                                      MPEG-2  0:03:15 646,465,536     34,969,632,058  26.50   23.54   LPCM 2.0 1536Kbps (48kHz/16-bit)          


DISC INFO:

Disc Title:     Bruckner 7th Symhphony Live in Berlin - Celibidache Berlin Philharmonic (Blu-ray)
Disc Size:      34,969,632,058 bytes
Protection:     AACS
BD-Java:        Yes
BDInfo:         0.5.8

PLAYLIST REPORT:

Name:                   00006.MPLS
Length:                 0:03:15.161 (h:m:s.ms)
Size:                   646,465,536 bytes
Total Bitrate:          26.50 Mbps

VIDEO:

Codec                   Bitrate             Description     
-----                   -------             -----------     
MPEG-2 Video            23538 kbps          1080i / 29.970 fps / 16:9

AUDIO:

Codec                           Language        Bitrate         Description     
-----                           --------        -------         -----------     
LPCM Audio                      Undetermined    1536 kbps       2.0 / 48 kHz / 1536 kbps / 16-bit

FILES:

Name            Time In         Length          Size            Total Bitrate   
----            -------         ------          ----            -------------   
00006.M2TS      0:00:00.000     0:03:15.161     646,465,536     26,500          

CHAPTERS:

Number          Time In         Length          Avg Video Rate  Max 1-Sec Rate  Max 1-Sec Time  Max 5-Sec Rate  Max 5-Sec Time  Max 10Sec Rate  Max 10Sec Time  Avg Frame Size  Max Frame Size  Max Frame Time  
------          -------         ------          --------------  --------------  --------------  --------------  --------------  --------------  --------------  --------------  --------------  --------------  
1               0:00:00.000     0:03:15.161     23,538 kbps     31,053 kbps     00:00:09.843    28,396 kbps     00:00:35.835    28,089 kbps     00:00:36.036    98,173 bytes    520,962 bytes   00:02:47.433    

STREAM DIAGNOSTICS:

File            PID             Type            Codec           Language                Seconds                 Bitrate                 Bytes           Packets         
----            ---             ----            -----           --------                --------------          --------------          -------------   -----           
00006.M2TS      4113 (0x1011)   0x02            MPEG-2                                  195.095                 23,546                  574,212,251     3,124,132       
00006.M2TS      4352 (0x1100)   0x80            LPCM            und (Undetermined)      195.095                 1,543                   37,627,160      234,194         


QUICK SUMMARY:

Disc Title: Bruckner 7th Symhphony Live in Berlin - Celibidache Berlin Philharmonic (Blu-ray)
Disc Size: 34,969,632,058 bytes
Protection: AACS
BD-Java: Yes
Playlist: 00006.MPLS
Size: 646,465,536 bytes
Length: 0:03:15.161
Total Bitrate: 26.50 Mbps
Video: MPEG-2 Video / 23538 kbps / 1080i / 29.970 fps / 16:9
Audio: Undetermined / LPCM Audio / 2.0 / 48 kHz / 1536 kbps / 16-bit


********************
PLAYLIST: 01006.MPLS
********************

                                                                                                                Total   Video                                             
Title                                                           Codec   Length  Movie Size      Disc Size       Bitrate Bitrate Main Audio Track                          Secondary Audio Track
-----                                                           ------  ------- --------------  --------------  ------- ------- ------------------                        ---------------------
01006.MPLS                                                      MPEG-2  0:03:15 646,465,536     34,969,632,058  26.50   23.54   LPCM 2.0 1536Kbps (48kHz/16-bit)          


DISC INFO:

Disc Title:     Bruckner 7th Symhphony Live in Berlin - Celibidache Berlin Philharmonic (Blu-ray)
Disc Size:      34,969,632,058 bytes
Protection:     AACS
BD-Java:        Yes
BDInfo:         0.5.8

PLAYLIST REPORT:

Name:                   01006.MPLS
Length:                 0:03:15.161 (h:m:s.ms)
Size:                   646,465,536 bytes
Total Bitrate:          26.50 Mbps

VIDEO:

Codec                   Bitrate             Description     
-----                   -------             -----------     
MPEG-2 Video            23538 kbps          1080i / 29.970 fps / 16:9

AUDIO:

Codec                           Language        Bitrate         Description     
-----                           --------        -------         -----------     
LPCM Audio                      Undetermined    1536 kbps       2.0 / 48 kHz / 1536 kbps / 16-bit

FILES:

Name            Time In         Length          Size            Total Bitrate   
----            -------         ------          ----            -------------   
00006.M2TS      0:00:00.000     0:03:15.161     646,465,536     26,500          

CHAPTERS:

Number          Time In         Length          Avg Video Rate  Max 1-Sec Rate  Max 1-Sec Time  Max 5-Sec Rate  Max 5-Sec Time  Max 10Sec Rate  Max 10Sec Time  Avg Frame Size  Max Frame Size  Max Frame Time  
------          -------         ------          --------------  --------------  --------------  --------------  --------------  --------------  --------------  --------------  --------------  --------------  
1               0:00:00.000     0:03:15.161     23,538 kbps     31,053 kbps     00:00:09.843    28,396 kbps     00:00:35.835    28,089 kbps     00:00:36.036    98,173 bytes    520,962 bytes   00:02:47.433    

STREAM DIAGNOSTICS:

File            PID             Type            Codec           Language                Seconds                 Bitrate                 Bytes           Packets         
----            ---             ----            -----           --------                --------------          --------------          -------------   -----           
00006.M2TS      4113 (0x1011)   0x02            MPEG-2                                  195.095                 23,546                  574,212,251     3,124,132       
00006.M2TS      4352 (0x1100)   0x80            LPCM            und (Undetermined)      195.095                 1,543                   37,627,160      234,194         


QUICK SUMMARY:

Disc Title: Bruckner 7th Symhphony Live in Berlin - Celibidache Berlin Philharmonic (Blu-ray)
Disc Size: 34,969,632,058 bytes
Protection: AACS
BD-Java: Yes
Playlist: 01006.MPLS
Size: 646,465,536 bytes
Length: 0:03:15.161
Total Bitrate: 26.50 Mbps
Video: MPEG-2 Video / 23538 kbps / 1080i / 29.970 fps / 16:9
Audio: Undetermined / LPCM Audio / 2.0 / 48 kHz / 1536 kbps / 16-bit


********************
PLAYLIST: 00007.MPLS
********************

                                                                                                                Total   Video                                             
Title                                                           Codec   Length  Movie Size      Disc Size       Bitrate Bitrate Main Audio Track                          Secondary Audio Track
-----                                                           ------  ------- --------------  --------------  ------- ------- ------------------                        ---------------------
00007.MPLS                                                      AVC     0:02:39 328,765,440     34,969,632,058  16.53   13.98   LPCM 2.0 1536Kbps (48kHz/16-bit)          


DISC INFO:

Disc Title:     Bruckner 7th Symhphony Live in Berlin - Celibidache Berlin Philharmonic (Blu-ray)
Disc Size:      34,969,632,058 bytes
Protection:     AACS
BD-Java:        Yes
BDInfo:         0.5.8

PLAYLIST REPORT:

Name:                   00007.MPLS
Length:                 0:02:39.159 (h:m:s.ms)
Size:                   328,765,440 bytes
Total Bitrate:          16.53 Mbps

VIDEO:

Codec                   Bitrate             Description     
-----                   -------             -----------     
MPEG-4 AVC Video        13978 kbps          1080i / 29.970 fps / 16:9 / High Profile 4.1

AUDIO:

Codec                           Language        Bitrate         Description     
-----                           --------        -------         -----------     
LPCM Audio                      Undetermined    1536 kbps       2.0 / 48 kHz / 1536 kbps / 16-bit

FILES:

Name            Time In         Length          Size            Total Bitrate   
----            -------         ------          ----            -------------   
00007.M2TS      0:00:00.000     0:02:39.159     328,765,440     16,525          

CHAPTERS:

Number          Time In         Length          Avg Video Rate  Max 1-Sec Rate  Max 1-Sec Time  Max 5-Sec Rate  Max 5-Sec Time  Max 10Sec Rate  Max 10Sec Time  Avg Frame Size  Max Frame Size  Max Frame Time  
------          -------         ------          --------------  --------------  --------------  --------------  --------------  --------------  --------------  --------------  --------------  --------------  
1               0:00:00.000     0:02:39.159     13,978 kbps     27,438 kbps     00:02:26.146    25,795 kbps     00:02:23.910    23,705 kbps     00:02:21.808    58,302 bytes    298,850 bytes   00:02:35.321    

STREAM DIAGNOSTICS:

File            PID             Type            Codec           Language                Seconds                 Bitrate                 Bytes           Packets         
----            ---             ----            -----           --------                --------------          --------------          -------------   -----           
00007.M2TS      4113 (0x1011)   0x1B            AVC                                     159.026                 13,990                  278,098,217     1,514,228       
00007.M2TS      4352 (0x1100)   0x80            LPCM            und (Undetermined)      159.026                 1,544                   30,685,856      190,991         


QUICK SUMMARY:

Disc Title: Bruckner 7th Symhphony Live in Berlin - Celibidache Berlin Philharmonic (Blu-ray)
Disc Size: 34,969,632,058 bytes
Protection: AACS
BD-Java: Yes
Playlist: 00007.MPLS
Size: 328,765,440 bytes
Length: 0:02:39.159
Total Bitrate: 16.53 Mbps
Video: MPEG-4 AVC Video / 13978 kbps / 1080i / 29.970 fps / 16:9 / High Profile 4.1
Audio: Undetermined / LPCM Audio / 2.0 / 48 kHz / 1536 kbps / 16-bit


********************
PLAYLIST: 01007.MPLS
********************

                                                                                                                Total   Video                                             
Title                                                           Codec   Length  Movie Size      Disc Size       Bitrate Bitrate Main Audio Track                          Secondary Audio Track
-----                                                           ------  ------- --------------  --------------  ------- ------- ------------------                        ---------------------
01007.MPLS                                                      AVC     0:02:39 328,765,440     34,969,632,058  16.53   13.98   LPCM 2.0 1536Kbps (48kHz/16-bit)          


DISC INFO:

Disc Title:     Bruckner 7th Symhphony Live in Berlin - Celibidache Berlin Philharmonic (Blu-ray)
Disc Size:      34,969,632,058 bytes
Protection:     AACS
BD-Java:        Yes
BDInfo:         0.5.8

PLAYLIST REPORT:

Name:                   01007.MPLS
Length:                 0:02:39.159 (h:m:s.ms)
Size:                   328,765,440 bytes
Total Bitrate:          16.53 Mbps

VIDEO:

Codec                   Bitrate             Description     
-----                   -------             -----------     
MPEG-4 AVC Video        13978 kbps          1080i / 29.970 fps / 16:9 / High Profile 4.1

AUDIO:

Codec                           Language        Bitrate         Description     
-----                           --------        -------         -----------     
LPCM Audio                      Undetermined    1536 kbps       2.0 / 48 kHz / 1536 kbps / 16-bit

FILES:

Name            Time In         Length          Size            Total Bitrate   
----            -------         ------          ----            -------------   
00007.M2TS      0:00:00.000     0:02:39.159     328,765,440     16,525          

CHAPTERS:

Number          Time In         Length          Avg Video Rate  Max 1-Sec Rate  Max 1-Sec Time  Max 5-Sec Rate  Max 5-Sec Time  Max 10Sec Rate  Max 10Sec Time  Avg Frame Size  Max Frame Size  Max Frame Time  
------          -------         ------          --------------  --------------  --------------  --------------  --------------  --------------  --------------  --------------  --------------  --------------  
1               0:00:00.000     0:02:39.159     13,978 kbps     27,438 kbps     00:02:26.146    25,795 kbps     00:02:23.910    23,705 kbps     00:02:21.808    58,302 bytes    298,850 bytes   00:02:35.321    

STREAM DIAGNOSTICS:

File            PID             Type            Codec           Language                Seconds                 Bitrate                 Bytes           Packets         
----            ---             ----            -----           --------                --------------          --------------          -------------   -----           
00007.M2TS      4113 (0x1011)   0x1B            AVC                                     159.026                 13,990                  278,098,217     1,514,228       
00007.M2TS      4352 (0x1100)   0x80            LPCM            und (Undetermined)      159.026                 1,544                   30,685,856      190,991         


QUICK SUMMARY:

Disc Title: Bruckner 7th Symhphony Live in Berlin - Celibidache Berlin Philharmonic (Blu-ray)
Disc Size: 34,969,632,058 bytes
Protection: AACS
BD-Java: Yes
Playlist: 01007.MPLS
Size: 328,765,440 bytes
Length: 0:02:39.159
Total Bitrate: 16.53 Mbps
Video: MPEG-4 AVC Video / 13978 kbps / 1080i / 29.970 fps / 16:9 / High Profile 4.1
Audio: Undetermined / LPCM Audio / 2.0 / 48 kHz / 1536 kbps / 16-bit


********************
PLAYLIST: 00002.MPLS
********************

                                                                                                                Total   Video                                             
Title                                                           Codec   Length  Movie Size      Disc Size       Bitrate Bitrate Main Audio Track                          Secondary Audio Track
-----                                                           ------  ------- --------------  --------------  ------- ------- ------------------                        ---------------------
00002.MPLS                                                      MPEG-2  0:01:38 260,192,256     34,969,632,058  21.21   16.70   LPCM 2.0 1536Kbps (48kHz/16-bit)          LPCM 2.0 1536Kbps (48kHz/16-bit)


DISC INFO:

Disc Title:     Bruckner 7th Symhphony Live in Berlin - Celibidache Berlin Philharmonic (Blu-ray)
Disc Size:      34,969,632,058 bytes
Protection:     AACS
BD-Java:        Yes
BDInfo:         0.5.8

PLAYLIST REPORT:

Name:                   00002.MPLS
Length:                 0:01:38.131 (h:m:s.ms)
Size:                   260,192,256 bytes
Total Bitrate:          21.21 Mbps

VIDEO:

Codec                   Bitrate             Description     
-----                   -------             -----------     
MPEG-2 Video            16703 kbps          1080i / 29.970 fps / 16:9

AUDIO:

Codec                           Language        Bitrate         Description     
-----                           --------        -------         -----------     
LPCM Audio                      Undetermined    1536 kbps       2.0 / 48 kHz / 1536 kbps / 16-bit
LPCM Audio                      Undetermined    1536 kbps       2.0 / 48 kHz / 1536 kbps / 16-bit

FILES:

Name            Time In         Length          Size            Total Bitrate   
----            -------         ------          ----            -------------   
00002.M2TS      0:00:00.000     0:01:38.131     260,192,256     21,212          

CHAPTERS:

Number          Time In         Length          Avg Video Rate  Max 1-Sec Rate  Max 1-Sec Time  Max 5-Sec Rate  Max 5-Sec Time  Max 10Sec Rate  Max 10Sec Time  Avg Frame Size  Max Frame Size  Max Frame Time  
------          -------         ------          --------------  --------------  --------------  --------------  --------------  --------------  --------------  --------------  --------------  --------------  
1               0:00:00.000     0:00:01.001     2,405 kbps      2,047 kbps      00:00:00.000    0 kbps          00:00:00.000    0 kbps          00:00:00.000    9,709 bytes     118,836 bytes   00:00:01.001    
2               0:00:01.001     0:00:01.000     21,450 kbps     21,450 kbps     00:00:01.001    0 kbps          00:00:00.000    0 kbps          00:00:00.000    89,463 bytes    299,470 bytes   00:00:01.735    
3               0:00:02.001     0:01:36.129     16,803 kbps     30,437 kbps     00:00:42.475    21,906 kbps     00:00:48.448    19,920 kbps     00:00:43.777    70,106 bytes    505,621 bytes   00:00:43.376    

STREAM DIAGNOSTICS:

File            PID             Type            Codec           Language                Seconds                 Bitrate                 Bytes           Packets         
----            ---             ----            -----           --------                --------------          --------------          -------------   -----           
00002.M2TS      4113 (0x1011)   0x02            MPEG-2                                  98.031                  16,720                  204,889,175     1,115,279       
00002.M2TS      4352 (0x1100)   0x80            LPCM            und (Undetermined)      98.031                  1,544                   18,919,724      117,758         
00002.M2TS      4353 (0x1101)   0x80            LPCM            und (Undetermined)      98.031                  1,544                   18,919,724      117,758         


********************
PLAYLIST: 01002.MPLS
********************

                                                                                                                Total   Video                                             
Title                                                           Codec   Length  Movie Size      Disc Size       Bitrate Bitrate Main Audio Track                          Secondary Audio Track
-----                                                           ------  ------- --------------  --------------  ------- ------- ------------------                        ---------------------
01002.MPLS                                                      MPEG-2  0:01:38 260,192,256     34,969,632,058  21.21   16.70   LPCM 2.0 1536Kbps (48kHz/16-bit)          LPCM 2.0 1536Kbps (48kHz/16-bit)


DISC INFO:

Disc Title:     Bruckner 7th Symhphony Live in Berlin - Celibidache Berlin Philharmonic (Blu-ray)
Disc Size:      34,969,632,058 bytes
Protection:     AACS
BD-Java:        Yes
BDInfo:         0.5.8

PLAYLIST REPORT:

Name:                   01002.MPLS
Length:                 0:01:38.131 (h:m:s.ms)
Size:                   260,192,256 bytes
Total Bitrate:          21.21 Mbps

VIDEO:

Codec                   Bitrate             Description     
-----                   -------             -----------     
MPEG-2 Video            16703 kbps          1080i / 29.970 fps / 16:9

AUDIO:

Codec                           Language        Bitrate         Description     
-----                           --------        -------         -----------     
LPCM Audio                      Undetermined    1536 kbps       2.0 / 48 kHz / 1536 kbps / 16-bit
LPCM Audio                      Undetermined    1536 kbps       2.0 / 48 kHz / 1536 kbps / 16-bit

FILES:

Name            Time In         Length          Size            Total Bitrate   
----            -------         ------          ----            -------------   
00002.M2TS      0:00:00.000     0:01:38.131     260,192,256     21,212          

CHAPTERS:

Number          Time In         Length          Avg Video Rate  Max 1-Sec Rate  Max 1-Sec Time  Max 5-Sec Rate  Max 5-Sec Time  Max 10Sec Rate  Max 10Sec Time  Avg Frame Size  Max Frame Size  Max Frame Time  
------          -------         ------          --------------  --------------  --------------  --------------  --------------  --------------  --------------  --------------  --------------  --------------  
1               0:00:00.000     0:00:01.001     2,405 kbps      2,047 kbps      00:00:00.000    0 kbps          00:00:00.000    0 kbps          00:00:00.000    9,709 bytes     118,836 bytes   00:00:01.001    
2               0:00:01.001     0:00:01.000     21,450 kbps     21,450 kbps     00:00:01.001    0 kbps          00:00:00.000    0 kbps          00:00:00.000    89,463 bytes    299,470 bytes   00:00:01.735    
3               0:00:02.001     0:01:36.129     16,803 kbps     30,437 kbps     00:00:42.475    21,906 kbps     00:00:48.448    19,920 kbps     00:00:43.777    70,106 bytes    505,621 bytes   00:00:43.376    

STREAM DIAGNOSTICS:

File            PID             Type            Codec           Language                Seconds                 Bitrate                 Bytes           Packets         
----            ---             ----            -----           --------                --------------          --------------          -------------   -----           
00002.M2TS      4113 (0x1011)   0x02            MPEG-2                                  98.031                  16,720                  204,889,175     1,115,279       
00002.M2TS      4352 (0x1100)   0x80            LPCM            und (Undetermined)      98.031                  1,544                   18,919,724      117,758         
00002.M2TS      4353 (0x1101)   0x80            LPCM            und (Undetermined)      98.031                  1,544                   18,919,724      117,758
[i]My gratitude to the original uploader[/i]